<?xml version="1.0" standalone="no"?>
<!DOCTYPE svg PUBLIC "-//W3C//DTD SVG 1.1//EN" "http://www.w3.org/Graphics/SVG/1.1/DTD/svg11.dtd" >
<svg xmlns="http://www.w3.org/2000/svg" xmlns:xlink="http://www.w3.org/1999/xlink" version="1.1">
<metadata></metadata>
<defs>
<font id="freightdispbookregular" horiz-adv-x="1476" >
<font-face units-per-em="2048" ascent="1536" descent="-512" />
<missing-glyph horiz-adv-x="284" />
<glyph horiz-adv-x="0" />
<glyph horiz-adv-x="0" />
<glyph horiz-adv-x="682" />
<glyph unicode=" "  horiz-adv-x="284" />
<glyph unicode="&#x09;" horiz-adv-x="284" />
<glyph unicode="&#xa0;" horiz-adv-x="284" />
<glyph unicode="!" horiz-adv-x="507" d="M143 78q0 41 33 72.5t82 31.5q47 0 77 -31.5t30 -72.5t-30 -75t-77 -34q-49 0 -82 34t-33 75zM167 1245q1 19 8 33t25.5 23.5t49.5 9.5h16q31 0 48.5 -9.5t24.5 -23.5t8 -32.5t-1 -37.5l-76 -831q-2 -10 -12 -10t-12 10l-78 831q-2 18 -1 37z" />
<glyph unicode="&#x22;" horiz-adv-x="641" d="M8 825l254 490l-18 8l86 -35l-299 -463h-23zM309 825l232 498h2l106 -45l-319 -453h-21z" />
<glyph unicode="#" horiz-adv-x="1052" d="M-23 387v33h287l115 434h-279v35h289l107 405h36l-108 -405h342l108 405h37l-106 -405h278v-35h-288l-113 -434h276v-33h-286l-105 -397h-37l105 397h-342l-105 -397h-36l104 397h-279zM301 420h342l115 434h-340z" />
<glyph unicode="$" horiz-adv-x="940" d="M49 348h33l84 -207q49 -66 129 -100l147 559q0 2 -2 2h-4q-72 25 -133 55.5t-107 71.5t-73 96.5t-27 130.5q0 68 27 131.5t78 112.5t124.5 78t168.5 29q37 0 70.5 -3.5t64.5 -7.5l57 217h35l-59 -223q23 -6 42 -11t35 -11l90 26l13 -338h-33l-109 246q-23 16 -53 31 l-9 -36t-23.5 -89t-32 -115.5t-31.5 -117t-23 -91.5l-10 -36h2q80 -27 148.5 -61t120 -79t81 -106.5t29.5 -145.5q0 -76 -32.5 -145.5t-92 -122.5t-142.5 -85t-183 -32q-33 0 -66 2t-68 7l-84 -318h-34l84 322q-55 8 -108.5 20t-100.5 29zM223 1030q0 -55 19.5 -95t53.5 -72 t83 -56.5t106 -46.5l129 487q-61 23 -131 23q-59 0 -107 -19.5t-82 -51.5t-52.5 -76t-18.5 -93zM328 29q59 -18 129 -19q68 0 123 20.5t96 57.5t63.5 88t22.5 111q0 117 -75 184.5t-212 116.5l-6 -24q-6 -23 -16.5 -62t-23.5 -89.5t-28 -103.5q-32 -122 -73 -280z" />
<glyph unicode="%" horiz-adv-x="1216" d="M23 1030q0 57 19 109.5t55 91.5t88.5 62.5t115.5 23.5q66 0 118 -23.5t89 -62.5t56.5 -91.5t19.5 -109.5t-19.5 -108.5t-56.5 -90t-89 -61t-118 -22.5q-63 0 -115.5 22.5t-88.5 61t-55 90t-19 108.5zM68 1030q0 -100 62 -171t171 -71q111 0 174.5 71t63.5 171 q0 49 -16.5 94t-47.5 79t-75 53.5t-99 19.5q-53 0 -96 -19.5t-74 -53.5t-47 -79t-16 -94zM119 -29l928 1340h47l-926 -1340h-49zM635 248q0 57 19.5 109.5t55 91t87 62.5t116.5 24q66 0 118 -24t88 -62.5t55.5 -91t19.5 -109.5t-19.5 -108.5t-55.5 -90.5t-88 -61.5 t-118 -22.5t-117 22.5t-86.5 61.5t-55 90t-19.5 109zM680 250q0 -102 61 -173t172 -71t173.5 70.5t62.5 173.5q0 49 -16.5 93t-47 78t-73.5 53.5t-99 19.5q-55 0 -98 -19.5t-72.5 -53.5t-46 -78t-16.5 -93z" />
<glyph unicode="&#x26;" horiz-adv-x="1425" d="M27 328q0 72 25.5 136t72.5 119.5t113.5 99.5t148.5 71q-86 47 -138 110.5t-52 149.5q0 53 26.5 106.5t70.5 95t104.5 68.5t127.5 27q76 0 134.5 -21.5t97.5 -55.5t59.5 -76t20.5 -85q0 -80 -61.5 -151.5t-194.5 -116.5q51 -27 104 -68t102.5 -91t91.5 -104.5t70 -107.5 q37 47 71 93t60.5 87t43 73t16.5 48q0 25 -30 42.5t-107 25.5l-41 4l-7 29h471l-6 -29l-41 -4q-35 -2 -61.5 -11.5t-50 -26.5t-48 -44t-55.5 -68l-196 -250q47 -92 82.5 -155.5t68.5 -102.5t65 -56t70 -17q53 0 98.5 30.5t76.5 63.5l20 -23q-25 -27 -53.5 -57.5t-63.5 -56 t-73.5 -43t-81.5 -17.5q-47 0 -87 16.5t-78 53.5t-74 96.5t-77 145.5q-51 -63 -103 -120t-108.5 -100t-119 -67.5t-134.5 -24.5q-86 0 -154.5 30t-116.5 79t-73.5 113.5t-25.5 136.5zM176 395q0 -66 22.5 -121t62.5 -96t95 -64.5t123 -23.5q104 0 188.5 59.5t176.5 163.5 q-74 150 -182.5 259.5t-243.5 164.5q-127 -63 -184.5 -153t-57.5 -189zM330 1073q0 -92 52 -148.5t165 -107.5q92 43 123.5 104.5t31.5 139.5q0 39 -12 77t-36.5 68.5t-59.5 50t-78 19.5q-41 0 -75.5 -16.5t-59.5 -45t-38 -64.5t-13 -77z" />
<glyph unicode="'" horiz-adv-x="329" d="M8 825l254 490l-18 8l86 -35l-299 -463h-23z" />
<glyph unicode="(" horiz-adv-x="696" d="M131 393q0 186 53.5 342t133 275.5t174 202.5t176.5 126l20 -32q-80 -43 -169 -126t-164.5 -200t-126 -265.5t-50.5 -322.5q0 -176 50.5 -324.5t126 -265t164.5 -199.5t169 -126l-20 -33q-82 45 -176.5 129t-174 204t-133 274.5t-53.5 340.5z" />
<glyph unicode=")" horiz-adv-x="696" d="M8 -522q80 43 169 126t165 199.5t126 265t50 324.5q0 174 -50 322.5t-126 265.5t-165 200t-169 126l21 32q82 -43 176 -126t174 -202.5t133 -275t53 -342.5q0 -186 -53 -340.5t-133 -274.5t-174 -204t-176 -129z" />
<glyph unicode="*" horiz-adv-x="647" d="M41 1174q-2 4 2 10t8 6l131 -14l117 -172q2 -4 10 -1t8 7l9 211l88 84q2 2 10 -1.5t6 -3.5l27 -122l-127 -172q-2 -4 3 -11.5t7 -5.5l203 64l106 -64q4 2 4 -6t-4 -10l-106 -60l-203 64q-2 2 -7 -5t-3 -11l121 -173l-23 -118q0 -2 -8 -4t-10 -2l-93 90l-2 204q0 4 -6 7.5 t-8 -0.5l-119 -162l-127 -21q-2 0 -7 6.5t-5 8.5l57 116l191 62q4 4 4 10t-4 10l-191 68z" />
<glyph unicode="+" horiz-adv-x="915" d="M29 461l6 45h399v405h47v-405h400l6 -45h-404l-2 -412h-47v412h-405z" />
<glyph unicode="," horiz-adv-x="370" d="M51 -244q31 16 59.5 40t51 52.5t37 63.5t14.5 74t-16.5 65.5t-40 39.5t-49 15.5t-41.5 -8.5q-8 20 -5.5 43t16 41.5t37 30.5t56.5 12q66 0 111 -44t45 -122q0 -49 -21.5 -96t-57.5 -89t-82 -77t-95 -57z" />
<glyph unicode="-" horiz-adv-x="602" d="M47 449l6 75h502l-2 -75h-506z" />
<glyph unicode="." horiz-adv-x="403" d="M88 84q0 43 33 76t82 33t79.5 -33t30.5 -76q0 -45 -30.5 -78t-79.5 -33t-82 33t-33 78z" />
<glyph unicode="/" horiz-adv-x="528" d="M29 -483l432 1794h43l-432 -1794h-43z" />
<glyph unicode="0" horiz-adv-x="1103" d="M68 479q0 111 36.5 205t102 162.5t155 106.5t193.5 38q102 0 189 -38t152 -105.5t101.5 -160.5t36.5 -204q0 -113 -35.5 -206t-100 -160.5t-154 -104.5t-193.5 -37t-192.5 37t-153 104.5t-101 160t-36.5 202.5zM221 502q0 -109 22.5 -198t65.5 -153.5t105.5 -99.5 t142.5 -35q74 0 133.5 36t102.5 97.5t66.5 144.5t23.5 177q0 102 -23.5 188t-66.5 149.5t-104.5 99.5t-139.5 36q-74 0 -134.5 -35t-103.5 -95t-66.5 -141t-23.5 -171z" />
<glyph unicode="1" horiz-adv-x="681" d="M70 905l6 25l348 51v-913q0 -12 15.5 -18.5t70.5 -10.5l90 -8l6 -31h-487l6 31l94 8q39 2 54.5 9t15.5 24v811z" />
<glyph unicode="2" horiz-adv-x="894" d="M43 41q150 121 252 209t164.5 158.5t89 130t26.5 123.5q0 94 -57 155.5t-153 61.5q-86 0 -150.5 -43t-118.5 -134l-22 13q63 125 154 199.5t212 74.5q57 0 107.5 -19.5t88.5 -54t59.5 -81t21.5 -101.5q0 -74 -34 -139.5t-100.5 -135t-162.5 -149.5t-223 -182v-4h387 q53 0 89 10t62.5 33.5t47 61.5t40.5 94l17 45l28 -2l-67 -365h-752z" />
<glyph unicode="3" horiz-adv-x="819" d="M14 -270q0 41 27 66.5t68 25.5q59 0 93 -51.5t25 -120.5q4 0 33 -7.5t51 -7.5q59 0 115.5 23t100.5 64.5t72 103t28 141.5q0 135 -78 220t-219 85q-47 0 -91 -11t-83 -28l-13 25q88 57 160 103.5t123 92.5t78.5 96t27.5 114q0 92 -59 154.5t-158 62.5q-168 0 -264 -176 q-2 0 -13 7t-9 7q59 127 152 198.5t214 71.5q59 0 110.5 -20.5t88.5 -55t58.5 -82t21.5 -100.5q0 -59 -23.5 -107.5t-62.5 -90t-91.5 -78.5t-109.5 -74v-4q88 2 157.5 -22.5t118 -68.5t74 -106.5t25.5 -136.5q0 -88 -40 -170t-109.5 -145.5t-164.5 -101.5t-204 -38 q-117 0 -173.5 44t-56.5 98z" />
<glyph unicode="4" horiz-adv-x="942" d="M18 55l633 918h39v-830l240 -2l-33 -110h-207v-408h-131v408h-539zM121 143h438v631h-4z" />
<glyph unicode="5" horiz-adv-x="796" d="M-29 -279q0 37 27 63t68 26q29 0 50 -14.5t36.5 -37t25.5 -51.5t15 -57q16 -4 36.5 -8t42.5 -4q59 0 115.5 26.5t99.5 72.5t70 108.5t27 134.5q0 80 -35 147.5t-99.5 119.5t-155.5 91t-204 59l143 564h510l-26 -144h-479l-76 -295q268 -53 407.5 -176t139.5 -293 q0 -90 -40 -174t-110 -148.5t-163 -103.5t-199 -39q-111 0 -168.5 35t-57.5 98z" />
<glyph unicode="6" horiz-adv-x="989" d="M63 475q0 166 67 314.5t183.5 264t275.5 190.5t343 93l6 -26q-152 -25 -271.5 -90.5t-206.5 -156.5t-143.5 -202.5t-83.5 -228.5l3 -4q63 68 151 113.5t184 45.5q80 0 145.5 -28.5t113 -79.5t74 -121t26.5 -151q0 -98 -35 -179.5t-93.5 -137.5t-136 -87t-161.5 -31 q-102 0 -184 39t-138.5 106.5t-87.5 159t-31 197.5zM215 467q0 -94 20.5 -177t59.5 -145.5t96 -98.5t129 -36q121 0 191.5 94.5t70.5 251.5q0 76 -22.5 140.5t-60 111.5t-91 74t-114.5 27q-76 0 -143.5 -32t-119.5 -89q-6 -12 -11 -51t-5 -70z" />
<glyph unicode="7" horiz-adv-x="868" d="M49 643l39 318h752l4 -31l-559 -1307h-115l592 1194l-2 10h-412q-68 0 -109.5 -5t-69.5 -20.5t-43 -41t-28 -68.5l-8 -24q-4 -10 -6 -17.5t-4 -9.5q-2 0 -6 1t-11 1h-14z" />
<glyph unicode="8" horiz-adv-x="952" d="M66 307q0 57 22.5 107.5t64.5 93.5t98 75.5t124 53.5v2q-55 31 -104.5 62.5t-86.5 69.5t-57.5 85t-20.5 105q0 63 27 125.5t76 112.5t118.5 82t155.5 32q78 0 144.5 -24.5t116 -68.5t77 -103.5t27.5 -129.5q0 -92 -73 -169t-189 -124v-2q63 -33 118.5 -66.5t96.5 -75.5 t64.5 -95.5t23.5 -120.5q0 -74 -32 -140.5t-87 -115.5t-132 -78t-167 -29q-86 0 -159.5 26t-128 71t-86 106.5t-31.5 132.5zM203 311q0 -61 20.5 -117.5t58 -97.5t93 -65.5t123.5 -24.5q129 0 199.5 72t70.5 180q0 70 -31.5 124t-83 97t-117 78t-133.5 66q-88 -47 -144 -126 t-56 -186zM229 1038q0 -63 27 -111t72 -87t104 -70.5t125 -62.5q72 47 114 115.5t42 160.5q0 55 -17.5 108.5t-51.5 95.5t-80 67.5t-105 25.5q-51 0 -93 -20.5t-73 -54.5t-47.5 -77t-16.5 -90z" />
<glyph unicode="9" horiz-adv-x="989" d="M49 -338q152 25 270.5 89.5t206.5 156.5t144.5 202.5t83.5 227.5h-4q-61 -66 -148.5 -112t-183.5 -46q-80 0 -145.5 30t-113.5 81t-74 121.5t-26 152.5q0 98 35 178t93.5 136.5t136 87t161.5 30.5q100 0 181.5 -38.5t138.5 -106.5t88 -160t31 -198q0 -166 -66.5 -314.5 t-183.5 -263.5t-275.5 -188.5t-343.5 -92.5zM203 618q0 -76 22.5 -141t61.5 -113.5t91.5 -76t113.5 -27.5q160 0 264 121q4 14 11 52t7 71q0 92 -20.5 175t-60.5 145.5t-97 99.5t-129 37q-119 0 -191.5 -94.5t-72.5 -248.5z" />
<glyph unicode=":" horiz-adv-x="399" d="M88 84q0 41 33 72.5t82 31.5t79.5 -31.5t30.5 -72.5q0 -45 -30.5 -78t-79.5 -33t-82 33t-33 78zM88 715q0 41 33 72.5t82 31.5t79.5 -31.5t30.5 -72.5q0 -43 -30.5 -78t-79.5 -35t-82 35t-33 78z" />
<glyph unicode=";" horiz-adv-x="370" d="M51 -244q31 18 59.5 41t51 52.5t37 63.5t14.5 73t-16.5 64.5t-40 39.5t-49 16.5t-41.5 -8.5q-8 20 -5.5 43t16 41.5t37 29.5t56.5 11q66 0 111 -44t45 -120q0 -49 -21.5 -96t-57.5 -89t-82 -76t-95 -56zM78 713q0 43 32.5 74.5t82.5 31.5q47 0 78.5 -31.5t31.5 -74.5 t-31.5 -77t-78.5 -34q-49 0 -82 34t-33 77z" />
<glyph unicode="&#x3c;" horiz-adv-x="897" d="M25 467v31l817 395l14 -43l-756 -365v-4l756 -368l-14 -43z" />
<glyph unicode="=" horiz-adv-x="909" d="M47 281l6 45h803l6 -45h-815zM47 684h815l-6 -47h-803z" />
<glyph unicode="&#x3e;" horiz-adv-x="897" d="M41 113l756 368v4l-756 365l14 43l817 -395v-31l-817 -397z" />
<glyph unicode="?" horiz-adv-x="645" d="M70 1231q0 35 31.5 57.5t107.5 22.5q84 0 152.5 -32t117.5 -83t77 -116.5t28 -133.5q0 -55 -11.5 -93t-36 -64.5t-62.5 -47t-91 -45.5q-37 -16 -67.5 -29.5t-54 -29.5t-37 -37.5t-13.5 -52.5q0 -47 34 -93t77 -87h-31q-25 20 -52.5 48.5t-52 60.5t-40 64.5t-15.5 63.5 q0 45 13.5 76t39 55.5t66.5 45t96 44.5q100 43 149.5 75t49.5 79q0 33 -17.5 66.5t-55.5 61.5t-98.5 46t-144.5 18q-43 0 -78.5 -6t-60.5 -12q-20 27 -20 78zM186 80q0 41 32 71.5t79 30.5q49 0 79 -30.5t30 -71.5q0 -43 -30 -76t-79 -33q-47 0 -79 33t-32 76z" />
<glyph unicode="@" horiz-adv-x="1609" d="M63 502q2 168 66 315.5t172.5 258t253.5 174t309 63.5q147 0 274.5 -49.5t220.5 -136.5t145 -206.5t50 -261.5q-2 -113 -40.5 -213t-103 -174.5t-147.5 -118.5t-171 -44q-113 0 -162 49t-47 110q0 12 6 45t14 71t19.5 74t19.5 54h-10q-53 -84 -101.5 -154.5t-94.5 -122 t-88 -80t-83 -28.5q-37 0 -68.5 14.5t-55 39t-38 58t-14.5 70.5q0 68 26.5 143.5t69.5 147.5t95.5 136.5t103.5 111.5q47 47 99.5 73.5t105.5 26.5q55 0 91 -50t42 -128h8l72 211l117 -6l-134 -357l-61 -239q-41 -115 -11.5 -161t122.5 -46q72 0 139 38t121.5 103.5 t87.5 154.5t35 191q2 135 -48.5 248t-138.5 195t-207.5 129t-261.5 47q-156 0 -294 -61.5t-241.5 -167t-164 -246.5t-62.5 -301q-2 -152 50.5 -279t146.5 -219t224 -143t286 -51q88 0 169 21.5t150.5 60t126 91t93.5 111.5l18 -26q-39 -61 -97.5 -115.5t-131 -93.5 t-156.5 -61.5t-176 -22.5q-162 0 -299 53t-235.5 150.5t-153 230.5t-52.5 293zM524 354q0 -66 32 -101.5t71 -35.5q29 0 65.5 29.5t78.5 82t87 123t88 150.5q16 31 29.5 67t13.5 52q-2 23 -17.5 49.5t-39 49t-52 37.5t-59.5 15q-53 0 -98 -45q-35 -33 -71 -90t-64.5 -123.5 t-46 -135t-17.5 -124.5z" />
<glyph unicode="A" horiz-adv-x="1261" d="M-16 0l6 31l51 6q39 6 64.5 17.5t49 46t52.5 103t72 187.5l272 762l-16 59q14 4 31.5 15.5t33.5 25t29.5 27.5t19.5 27h23l379 -1121q16 -45 27.5 -72.5t25.5 -44t32.5 -23.5t47.5 -9l78 -6l6 -31h-529l6 31l84 6q53 3 69 31q6 11 6 31q0 27 -13 69l-119 362h-403 l-97 -270q-25 -68 -35 -110q-6 -24 -6 -41q-1 -14 3 -24q8 -24 35.5 -33t80.5 -15l66 -6l6 -31h-438zM381 571h377l-178 543h-7q-55 -152 -96 -270q-18 -51 -34.5 -99.5t-30 -87.5t-22.5 -63z" />
<glyph unicode="B" horiz-adv-x="1159" d="M59 0l7 31l88 8q45 4 63.5 12t18.5 19v1144q0 10 -15.5 16.5t-81.5 12.5l-71 6l-7 31h496q123 0 211 -21.5t143.5 -59.5t81 -88t25.5 -107q0 -53 -20.5 -102.5t-64.5 -89.5t-112.5 -68.5t-165.5 -43.5v-6q106 -6 186.5 -35.5t133.5 -75.5t79.5 -105.5t26.5 -125.5 q0 -162 -135 -257t-387 -95h-500zM397 68l152 -33q16 0 29 2q10 2 18 2t4 0q154 8 230.5 95t76.5 208q0 74 -27.5 134.5t-76.5 104.5t-119 67.5t-154 23.5h-30.5t-39 -1t-37.5 -2t-26 -1v-600zM397 709h123q162 4 242 81.5t80 184.5q0 133 -80 199.5t-248 66.5h-117v-532z " />
<glyph unicode="C" horiz-adv-x="1363" d="M68 629q0 152 52 276.5t147 214.5t226.5 140.5t288.5 50.5q102 0 189.5 -23.5t142.5 -50.5l121 47l12 -387h-33l-133 297q-43 33 -120.5 56.5t-184.5 23.5q-125 0 -223 -48t-167 -133t-105.5 -199t-36.5 -245q0 -143 39 -261t109.5 -202t170 -131t217.5 -47 q76 0 135.5 15.5t107.5 45t88 72.5t77 97l59 143h35l-68 -334l-73 -2q-59 -27 -163 -51.5t-208 -24.5q-152 0 -281 47t-222 133.5t-146 208t-53 271.5z" />
<glyph unicode="D" horiz-adv-x="1347" d="M59 0l7 31l88 8q45 4 63.5 12t18.5 19v1147q0 10 -15.5 15t-81.5 11l-71 6l-7 31l488 6h15q169 0 299 -43q136 -45 230.5 -127t142.5 -196.5t48 -251.5q0 -141 -51 -263t-149.5 -212.5t-243 -141.5t-332.5 -51h-449zM397 70l160 -33q137 4 240.5 52t173 128t104.5 184.5 t35 219.5q0 131 -36 244.5t-109.5 198.5t-185 133t-263.5 48h-119v-1175z" />
<glyph unicode="E" horiz-adv-x="1181" d="M57 0l6 31l89 8q84 8 84 31v1147q0 10 -15.5 15t-79.5 11l-75 6l-7 31h955l26 -365h-32l-21 84q-23 63 -47.5 109.5t-64 77.5t-104 45t-167.5 14h-207v-563l142 2q70 2 112.5 7t70.5 18.5t42 38t27 63.5l20 59l29 -2l-41 -413l-29 2l-4 57q-2 43 -12.5 67.5t-35 38 t-70.5 18.5t-120 7l-131 2v-604l224 -6q115 0 187.5 20.5t118.5 55t73.5 82t50.5 104.5l24 80l35 -2l-70 -377h-983z" />
<glyph unicode="F" horiz-adv-x="1118" d="M57 0l6 31l93 8q47 4 63.5 12t16.5 19v1147q0 10 -14.5 15t-78.5 11l-77 6l-7 31h959l29 -371h-35l-19 80q-20 63 -43.5 111.5t-65.5 80t-110.5 48t-181.5 16.5h-195v-575l131 2q70 2 114 7t70.5 18.5t41 38t26.5 63.5l21 57h28l-41 -414l-28 2l-4 58q-2 43 -12.5 67.5 t-35 38t-69.5 18.5t-121 7l-121 2v-567q0 -12 15.5 -19.5t79.5 -11.5l118 -6l6 -31h-559z" />
<glyph unicode="G" horiz-adv-x="1417" d="M68 625q0 152 53 277.5t148.5 215.5t227.5 141.5t289 51.5q100 0 186.5 -22.5t139.5 -49.5l119 45l6 -385h-33l-125 295q-41 33 -116.5 56.5t-186.5 23.5q-123 0 -221 -49t-167 -134t-106.5 -200t-37.5 -246q0 -141 40 -259t111.5 -202t171 -130t217.5 -46q78 0 154 19.5 t121 48.5v420q0 10 -18.5 16t-82.5 10l-98 8l-6 29h535l-7 -29l-88 -10q-45 -4 -62.5 -12t-17.5 -19v-385l115 5l2 -23q-59 -20 -131 -40.5t-146.5 -37t-148.5 -27t-137 -10.5q-152 0 -280 46t-222 131t-146 206t-52 271z" />
<glyph unicode="H" horiz-adv-x="1480" d="M59 0l7 31l88 8q45 4 63.5 12t18.5 19v1147q0 10 -15.5 15t-81.5 11l-71 6l-7 31h517l-7 -31l-94 -8q-45 -4 -62.5 -12t-17.5 -19v-538h686v545q0 10 -16 15t-80 11l-78 6l-6 31h516l-6 -31l-88 -8q-45 -4 -63.5 -12t-18.5 -19v-1147q0 -10 16.5 -15t79.5 -11l72 -6 l6 -31h-514l6 31l92 8q45 4 63.5 12t18.5 19v563h-686v-570q0 -10 15.5 -15t79.5 -11l77 -6l6 -31h-516z" />
<glyph unicode="I" horiz-adv-x="673" d="M70 0l6 31l100 8q45 4 62.5 12t17.5 19v1147q0 10 -15.5 15t-78.5 11l-84 6l-6 31h532l-6 -31l-98 -8q-47 -4 -64.5 -12t-17.5 -19v-1147q0 -10 16.5 -15t79.5 -11l82 -6l6 -31h-532z" />
<glyph unicode="J" horiz-adv-x="665" d="M-94 -131q0 41 27.5 69.5t74.5 28.5q35 0 58.5 -17.5t35 -43t10.5 -55t-18 -56.5q86 0 135.5 89t49.5 292v1041q0 10 -15.5 16t-81.5 10l-86 6l-6 31h533l-7 -31l-96 -8q-45 -4 -63.5 -12t-18.5 -19v-1050q0 -57 -29.5 -128t-79.5 -133.5t-116.5 -104.5t-142.5 -42 q-72 0 -118 33t-46 84z" />
<glyph unicode="K" horiz-adv-x="1331" d="M59 0l7 31l90 8q47 4 63.5 12t16.5 19v1147q0 6 -3.5 9t-12.5 6t-27.5 6t-51.5 5l-73 6l-7 31h523l-6 -31l-101 -8q-45 -4 -62.5 -12t-17.5 -19v-651l379 387q96 96 144.5 152.5t58.5 87.5t-15.5 42t-78.5 15l-90 6l-4 31h489l-6 -31l-45 -4q-45 -4 -74 -11t-65.5 -37 t-95 -89t-163.5 -166l-137 -139l416 -641q27 -43 43 -66.5t31.5 -36t33 -16.5t44.5 -8l57 -4l6 -31h-496l7 31l65 6q55 4 55 38q0 31 -34 91l-334 530l-191 -190v-443q0 -10 15.5 -15t79.5 -11l83 -6l7 -31h-523z" />
<glyph unicode="L" horiz-adv-x="1120" d="M59 0l7 31l92 8q45 4 61.5 12t16.5 19v1147q0 10 -14.5 15t-78.5 11l-75 6l-7 31h551l-6 -31l-129 -8q-45 -4 -62.5 -12t-17.5 -19v-1167l183 -6q113 0 182 18.5t113.5 53t71 85t50.5 111.5l27 94h37l-70 -399h-932z" />
<glyph unicode="M" horiz-adv-x="1683" d="M37 0l6 31l78 6q66 4 91.5 25.5t29.5 84.5l30 1041q-23 43 -104 53l-86 8l-6 31h377l397 -1042h4l406 1042h370l-6 -31l-119 -6q-41 -4 -55 -14t-16 -21l22 -1087q2 -47 17.5 -63.5t74.5 -20.5l84 -6l6 -31h-524l6 31l111 8q41 5 55 23q12 16 12 52v11l-24 1061h-6 l-463 -1174h-33l-428 1127q-6 14 -17.5 26.5t-15.5 20.5l-24 -1041v-12q1 -49 29 -69q32 -22 114 -27l68 -6l6 -31h-467z" />
<glyph unicode="N" horiz-adv-x="1427" d="M41 1282h344l784 -1034h5l-3 887q0 59 -28.5 78.5t-104.5 29.5l-69 6l-6 31h442l-6 -31l-70 -6q-57 -6 -87 -27.5t-30 -85.5l-2 -1140h-39l-878 1151h-4l2 -994q0 -59 28.5 -80.5t104.5 -29.5l70 -6l6 -31h-445l6 31l72 6q55 6 86 27.5t31 87.5l2 991q-16 31 -49 59.5 t-99 40.5l-57 8z" />
<glyph unicode="O" d="M68 635q0 133 53 255t145 215t215 148.5t260 55.5q143 0 265 -49.5t212.5 -137.5t141.5 -211t51 -270q0 -133 -53 -255t-145.5 -214t-215.5 -146.5t-262 -54.5q-143 0 -266 48.5t-212 136.5t-139 209.5t-50 269.5zM244 641q0 -143 37.5 -260t105.5 -200t159 -128t197 -45 q109 0 199 43t154.5 124t100.5 197.5t36 262.5q0 143 -38 261t-105.5 202t-158.5 130t-198 46q-106 0 -196.5 -44t-156 -126t-101 -199t-35.5 -264z" />
<glyph unicode="P" horiz-adv-x="1112" d="M39 0l6 31l109 8q45 4 63.5 12t18.5 19v1147q0 10 -15.5 15t-79.5 11l-94 6l-6 31h543q242 0 359.5 -86t117.5 -231q0 -84 -37 -153t-101.5 -117t-153.5 -74.5t-194 -26.5q-47 0 -95 4t-83 8v-541q0 -10 15.5 -16t79.5 -10l118 -6l6 -31h-577zM397 649q35 -10 76 -16 t100 -6q150 0 233 79.5t83 227.5q0 150 -81 232q-77 78 -248 77h-17h-146v-594z" />
<glyph unicode="Q" d="M68 635q0 133 53 255t145 215t215 148.5t260 55.5q143 0 265 -49.5t212.5 -137.5t141.5 -211t51 -270q0 -113 -38 -216t-104.5 -188t-157.5 -147.5t-200 -93.5q51 -111 110.5 -176.5t132.5 -97t161 -35.5q22 -1 45 -1q70 0 149 9q0 -8 2 -14t2 -15q-20 -6 -50.5 -12 t-64.5 -10t-67.5 -7.5t-60.5 -3.5q-82 0 -162 13.5t-150.5 50.5t-130 103.5t-102.5 170.5q-141 2 -262 51.5t-208 137.5t-137 208.5t-50 266.5zM244 641q0 -143 37.5 -260t105.5 -200t159 -128t197 -45q109 0 199 43t154.5 124t100.5 197.5t36 262.5q0 143 -38 261 t-105.5 202t-158.5 130t-198 46q-106 0 -196.5 -44t-156 -126t-101 -200t-35.5 -263z" />
<glyph unicode="R" horiz-adv-x="1253" d="M39 0l6 31l109 8q29 4 55.5 12t26.5 19v1147q0 10 -15.5 15t-81.5 11l-92 6l-6 31h526q238 0 359 -85t121 -239q0 -61 -24 -115.5t-66 -97.5t-100 -74.5t-128 -47.5l295 -453q27 -39 47.5 -63.5t41 -39t42 -20.5t49.5 -8l47 -6l9 -31h-320l-35 61l-340 551q-14 2 -36.5 4 t-47 6.5t-47 8.5t-37.5 10v-578q0 -10 31 -16t64 -10l94 -6l6 -31h-553zM397 680q16 -6 41 -11t51.5 -9.5t51.5 -6.5t43 -2q133 4 211.5 81t78.5 216q0 141 -91 222q-83 74 -241 74q-16 0 -32 -1h-18.5t-38.5 -2q-25 -2 -56 -2v-559z" />
<glyph unicode="S" horiz-adv-x="999" d="M80 348h33l55 -155q51 -96 133 -140.5t186 -44.5q70 0 126.5 21.5t96.5 59.5t61.5 90t21.5 112q0 63 -21.5 110.5t-61.5 84t-99.5 65.5t-137.5 55q-72 25 -134.5 55.5t-109.5 71.5t-74.5 96.5t-27.5 131.5q0 70 26.5 133t78 110t125 76t165.5 29q78 0 139.5 -11.5 t108.5 -27.5l90 24l12 -338h-30l-111 250q-43 29 -97 47.5t-120 18.5q-121 0 -190.5 -68.5t-69.5 -167.5q0 -59 22.5 -102t63.5 -76t96.5 -57.5t120.5 -48.5q80 -27 147.5 -61t118.5 -78t80 -104t29 -144q0 -78 -34 -149t-93.5 -125t-143.5 -87t-184 -33h-17q-84 -1 -176 17 q-100 20 -182 49z" />
<glyph unicode="T" horiz-adv-x="1280" d="M59 926l70 354h1038l43 -354h-32l-21 86q-25 61 -52.5 104t-66.5 70.5t-92 42t-129 16.5h-96v-1182q0 -10 15.5 -15t78.5 -11l103 -6l6 -31h-568l6 31l115 8q47 4 64.5 12t17.5 19v1175h-96q-74 -2 -128 -21.5t-93 -51t-68 -71.5t-51 -87l-27 -88h-37z" />
<glyph unicode="U" horiz-adv-x="1390" d="M29 1282h549l-7 -31l-106 -8q-45 -4 -63.5 -13t-18.5 -20v-747q0 -223 100.5 -319.5t292.5 -96.5q184 0 279.5 110.5t95.5 327.5v326q0 143 -2 324q0 59 -34 80.5t-109 27.5l-70 8l-6 31h452l-6 -31l-71 -8q-57 -6 -86 -27.5t-29 -85.5l-2 -649q0 -244 -115.5 -377 t-355.5 -133q-252 0 -373 108.5t-121 362.5v775q0 10 -16.5 15t-79.5 11l-92 8z" />
<glyph unicode="V" horiz-adv-x="1275" d="M-18 1282h526l-6 -31l-90 -6q-54 -1 -70 -23q-6 -8 -6 -24q0 -26 16 -72l348 -948h7l290 815q27 78 39 125q7 28 8 49q0 14 -4 25q-8 27 -37.5 37t-84.5 16l-60 6l-6 31h442l-6 -31l-53 -8q-37 -4 -60.5 -14t-46 -41t-48 -90.5t-62.5 -163.5l-344 -957h-56l-417 1119 q-16 47 -28.5 74.5t-26 43t-31 21.5t-47.5 8l-80 8z" />
<glyph unicode="W" horiz-adv-x="1980" d="M-16 1280h524l-6 -31l-84 -4q-50 -1 -68 -23q-7 -9 -8 -26q0 -25 16 -70l328 -942h4l293 770l-51 142q-16 43 -28.5 70.5t-27 44t-34 23.5t-49.5 9l-78 6l-6 31h522l-6 -31l-84 -4q-53 -3 -67 -25q-6 -9 -6 -26q0 -25 13 -68l336 -938h4l271 797q29 78 40 125q6 27 6 47 q0 15 -4 27q-8 28 -37.5 39.5t-84.5 17.5l-66 8l-6 31h442l-6 -31l-49 -6q-37 -6 -60.5 -16t-44 -41t-43 -90.5t-59.5 -161.5l-331 -957h-48l-335 924h-2l-353 -924h-49l-399 1119q-16 45 -27.5 72.5t-26 43t-33 22.5t-48.5 9l-78 6z" />
<glyph unicode="X" horiz-adv-x="1284" d="M-10 0l6 31l55 4q39 4 67.5 13t56.5 32.5t58.5 63.5t75.5 104l262 379l-317 467q-51 80 -80 112.5t-76 36.5l-73 6l-9 31h525l-4 -29l-91 -4q-61 -4 -61 -37q0 -32 57 -123l230 -346h2l203 303q41 61 56 97.5t10 58t-28.5 29.5t-64.5 14l-74 6l-8 31h471l-6 -31l-57 -4 q-37 -2 -65 -11t-55.5 -30.5t-58 -60.5t-73.5 -103l-228 -329l383 -566q18 -29 31.5 -48t27 -31.5t30 -19.5t40.5 -9l72 -6l6 -31h-522l6 31l88 4q60 5 66 31q1 4 0 7q0 27 -35 79l-293 442h-2l-10 -14q-11 -15 -27 -39.5t-37.5 -56t-44.5 -64.5l-119 -176 q-39 -61 -56 -99.5t-13 -61t28.5 -31.5t65.5 -13l72 -8l6 -31h-469z" />
<glyph unicode="Y" horiz-adv-x="1243" d="M-10 1280h524l-6 -31l-78 -4q-66 -4 -70 -33v-5q0 -29 39 -97l277 -483h6l221 401q33 61 49 100q12 30 12 52q0 6 -2 12q-4 25 -27.5 36t-70.5 17l-65 4l-6 31h440l-6 -31l-58 -4q-33 -4 -56 -12t-47 -29.5t-49.5 -60.5t-62.5 -107l-252 -446v-527q0 -10 16.5 -15 t82.5 -11l100 -6l6 -31h-569l6 31l117 8q45 4 63.5 12t18.5 19v493l-328 559q-35 63 -64.5 90t-84.5 31l-70 6z" />
<glyph unicode="Z" horiz-adv-x="1150" d="M66 0v25l813 1214v6h-304q-111 0 -182 -18.5t-117.5 -52t-73 -80.5t-46.5 -107l-19 -76h-33l29 369h936v-27l-809 -1210v-6l322 -2q123 0 199.5 19.5t124.5 56t76 90t52 121.5l25 84h39l-60 -406h-972z" />
<glyph unicode="[" horiz-adv-x="665" d="M135 -487v1783h504v-39h-459v-1706h459v-38h-504z" />
<glyph unicode="\" horiz-adv-x="503" d="M-2 1311h43l432 -1794h-43z" />
<glyph unicode="]" horiz-adv-x="665" d="M27 -449h456v1706h-456v39h503v-1783h-503v38z" />
<glyph unicode="^" horiz-adv-x="776" d="M113 1001l262 390h26l263 -390h-23l-250 240h-4l-252 -240h-22z" />
<glyph unicode="_" horiz-adv-x="927" d="M23 -72l6 74h870l6 -74h-882z" />
<glyph unicode="`" horiz-adv-x="776" d="M94 1397h170l215 -379h-18z" />
<glyph unicode="a" horiz-adv-x="843" d="M53 682q0 37 38 78t95.5 73.5t126 54t127.5 21.5q70 0 121 -15t83 -52q32 -38 46 -100q11 -46 11 -110q0 -22 -1 -46l-20 -436v-10q0 -40 14 -56q16 -18 47 -18q23 0 47.5 17t49.5 40l16 -19q-16 -20 -35.5 -42.5t-42 -42t-48 -32t-54.5 -12.5q-53 0 -89 38t-40 110l-4 2 q-57 -59 -122 -103.5t-138 -44.5q-45 0 -86 16.5t-70 44.5t-46.5 64.5t-17.5 79.5q0 55 25 101.5t82 86.5t152.5 75.5t236.5 70.5l2 70v19q-1 66 -13 110q-14 51 -41.5 81.5t-66.5 43t-82 12.5q-31 0 -61.5 -8t-54 -18.5t-39 -22.5t-15.5 -21q0 -6 7.5 -14t16.5 -20.5 t16 -29t7 -34.5q0 -33 -24.5 -57.5t-65.5 -24.5q-39 0 -64.5 21.5t-25.5 58.5zM205 221q0 -72 42 -111.5t103 -39.5q55 0 101.5 24.5t93.5 67.5l10 321q-106 -27 -175 -55.5t-108 -61t-53 -68.5t-14 -77z" />
<glyph unicode="b" horiz-adv-x="989" d="M-31 1305l2 22l281 68v-662l6 -4q59 70 138 120t177 50q78 0 144.5 -31.5t116 -89t78 -136.5t28.5 -175q0 -113 -39 -204t-101.5 -155.5t-144.5 -100.5t-168 -36q-72 0 -142.5 20.5t-117.5 45.5h-4l-94 -78h-16v1239q0 47 -12.5 64.5t-51.5 25.5zM252 176 q41 -68 108.5 -116t149.5 -48q61 0 112.5 31t86 85t54 128t19.5 162q0 82 -20.5 151.5t-58 120.5t-90 81t-117.5 30q-78 0 -137.5 -36t-106.5 -85v-504z" />
<glyph unicode="c" horiz-adv-x="849" d="M49 418q0 102 35 192t96.5 157t145.5 104.5t184 37.5q63 0 116.5 -14t92.5 -39t61.5 -59.5t22.5 -75.5q0 -45 -29 -71.5t-63 -26.5q-45 1 -73 33q-22 25 -22 59q0 10 2 20q0 35 14.5 49.5t14.5 24.5q-6 18 -48 41.5t-95 23.5q-61 0 -116.5 -28.5t-97.5 -80.5t-65.5 -125 t-23.5 -159q0 -88 24.5 -162.5t67.5 -127t102.5 -82t128.5 -29.5q88 0 152.5 35t120.5 121l24 -13q-63 -117 -152 -183.5t-212 -66.5q-86 0 -161 34t-130 94.5t-86 141.5t-31 175z" />
<glyph unicode="d" horiz-adv-x="1015" d="M49 412q0 113 39 203t103.5 153t148.5 97t172 34q66 0 119 -13.5t100 -35.5h4v358q0 47 -11 65.5t-52 22.5l-99 17l5 22l296 60v-1280q0 -29 8.5 -41.5t32.5 -16.5l103 -16l-2 -23l-281 -51v170l-6 2q-59 -68 -136 -117t-175 -49q-78 0 -145.5 32t-117 90.5t-78 139 t-28.5 177.5zM207 461q0 -82 20.5 -153.5t58.5 -124t92 -83t120 -30.5q80 0 135 34.5t102 81.5v510q-39 68 -106.5 116t-147.5 48q-63 0 -114.5 -29.5t-86 -84t-54 -127t-19.5 -158.5z" />
<glyph unicode="e" horiz-adv-x="872" d="M49 418q0 102 33 191t91 155.5t140 105.5t179 39q76 0 135 -21.5t100 -60.5t62.5 -90t21.5 -110q0 -14 -1 -26.5t-3 -27.5l-598 5q-4 -18 -6 -47t-2 -52q0 -88 24.5 -161.5t67.5 -127t102.5 -82t128.5 -28.5q88 0 154.5 35t124.5 121l22 -13q-66 -117 -154.5 -183.5 t-211.5 -66.5q-88 0 -163 34t-130 94.5t-86 141.5t-31 175zM213 608l442 2q0 53 -10 101.5t-33.5 84t-58.5 57t-82 21.5q-43 0 -83 -20t-74.5 -56t-61.5 -85t-39 -105z" />
<glyph unicode="f" horiz-adv-x="585" d="M20 803l25 76h129l4 53q8 111 44 193.5t90.5 139t121 85t133.5 28.5q66 0 104 -29.5t38 -70.5q0 -35 -25 -59.5t-63 -24.5q-41 0 -74 33t-43 84l-4 12l-33 4q-84 -29 -116 -124t-32 -242v-82h242l-24 -80h-218v-740q0 -12 12.5 -17t67.5 -9l93 -2l6 -31h-453l6 31l55 2 q39 4 55.5 8t16.5 20v738z" />
<glyph unicode="g" horiz-adv-x="913" d="M18 -283q0 45 21.5 84t55.5 72t74 56.5t79 39.5v4q-88 10 -143.5 48t-55.5 98q0 37 19.5 69.5t50.5 58t69.5 45t75.5 30.5l2 4q-76 29 -131 97.5t-55 166.5q0 68 26.5 126t72.5 100t109.5 66.5t135.5 24.5q66 0 122 -19.5t101 -49.5l252 32l-12 -96l-199 25l-2 -8 q35 -33 57.5 -81t22.5 -106q0 -63 -26.5 -119.5t-75 -98.5t-112 -65.5t-136.5 -23.5q-31 0 -64 4t-49 8q-47 -10 -86 -40.5t-39 -73.5q0 -90 160 -91q20 0 50 1t62.5 2.5t64.5 2.5t54 1q143 0 222 -64.5t79 -169.5q0 -84 -37.5 -154.5t-105.5 -122t-162 -81t-207 -29.5 q-158 0 -249 61.5t-91 165.5zM135 -242q0 -49 23.5 -90t65.5 -70.5t98 -45t124 -15.5q66 0 125.5 19.5t103.5 54.5t69.5 80t25.5 98q0 82 -57.5 131t-192.5 53q-16 1 -33 1q-34 0 -71 -3q-54 -4 -127 -8q-25 -10 -51.5 -28.5t-49 -46t-38 -60.5t-15.5 -70zM227 612 q0 -129 54.5 -206.5t140.5 -77.5q90 0 145.5 70.5t55.5 191.5q0 129 -49.5 208t-151.5 79q-86 0 -140.5 -74t-54.5 -191z" />
<glyph unicode="h" horiz-adv-x="1013" d="M8 1305l2 20l279 68v-656l4 -2q33 27 71.5 57.5t81.5 56t90.5 42t98.5 16.5q96 0 160 -59q68 -70 67 -205v-582q0 -10 11.5 -17t74.5 -11l49 -2l7 -31h-416l6 31l55 2q47 4 59.5 11t12.5 19v533q0 111 -47 158t-137 47q-74 0 -137.5 -32t-110.5 -75v-262v-373 q0 -12 14 -17t72 -9l53 -2l6 -31h-416l7 31l51 2q39 4 55 9t16 21v1131q0 49 -11 67.5t-52 26.5z" />
<glyph unicode="i" horiz-adv-x="475" d="M31 815l4 21l276 69v-846q0 -12 14.5 -17t69.5 -9l51 -2l7 -31h-418l6 31l57 2q39 4 55.5 9t16.5 21v601q0 41 -3 66.5t-11.5 40.5t-23.5 22.5t-38 11.5zM119 1194q0 35 24.5 70.5t77.5 35.5t77 -34.5t24 -69.5t-25 -69.5t-76 -34.5q-53 0 -77.5 34.5t-24.5 67.5z" />
<glyph unicode="j" horiz-adv-x="446" d="M-160 -412q0 39 28 62.5t62 23.5q45 0 78 -35.5t47 -97.5q57 14 81 85t24 192v846q0 41 -3 66.5t-11.5 40.5t-22.5 22.5t-39 11.5l-64 10l5 21l276 69v-968q-2 -90 -28.5 -172t-71.5 -145.5t-101.5 -100.5t-117.5 -37q-66 0 -104 29.5t-38 76.5zM109 1194q0 35 24.5 70.5 t77.5 35.5t76.5 -34.5t23.5 -69.5t-24.5 -69.5t-75.5 -34.5q-53 0 -77.5 34.5t-24.5 67.5z" />
<glyph unicode="k" horiz-adv-x="950" d="M8 1305l2 20l279 68v-977l221 215q53 49 90 95t37 71q0 43 -88 49l-45 4l-4 29h395l-6 -29l-51 -6q-29 -2 -53.5 -14.5t-53.5 -36t-64.5 -60.5t-86.5 -88q-27 -23 -48 -41q-8 -8 -16 -15t-14 -14l-15 -14l273 -420q18 -31 32.5 -50t29 -31.5t31.5 -17.5t42 -7l41 -4 l6 -31h-272l-39 68l-246 395l-96 -92v-312q0 -12 14 -17t70 -9l51 -2l6 -31h-412l7 31l51 2q39 4 55 9t16 21v1131q0 49 -11 67.5t-52 26.5z" />
<glyph unicode="l" horiz-adv-x="468" d="M18 1305l2 20l283 68v-1334q0 -12 13.5 -17t70.5 -9l51 -2l6 -31h-413l4 31l55 2q41 4 56.5 9t15.5 21v1100q0 37 -3 59.5t-10.5 36t-19.5 19.5t-33 10z" />
<glyph unicode="m" horiz-adv-x="1548" d="M31 815l2 21l278 69l-6 -166l6 -2q29 29 64 58.5t73.5 55.5t82.5 42t94 16q51 0 92 -16t69 -45q18 -20 34 -50t22 -65l2 -2q31 31 66.5 62.5t75.5 57.5t85 42t94 16q100 0 164 -63q33 -35 49.5 -88t16.5 -119v-578q0 -6 2 -10t10 -7t25.5 -5t48.5 -6l47 -2l6 -31h-412 l6 31l54 2q45 4 58 11t13 19v535q0 109 -44 156t-134 47q-33 0 -66.5 -8.5t-63.5 -22.5t-53.5 -33.5t-37.5 -40.5q0 -4 -1 -28.5t-1 -26.5v-580q0 -6 2 -10t10 -7t25.5 -5t48.5 -6l51 -2l6 -31h-413l6 31l53 2q45 4 57.5 11t12.5 19v535q0 109 -44 156t-130 47 q-68 0 -125.5 -30t-102.5 -69v-266v-377q0 -12 15.5 -17t70.5 -9l56 -2l4 -31h-418l6 31l53 2q41 4 57.5 9t16.5 21v599q0 43 -3 68.5t-11.5 40.5t-23.5 22.5t-38 11.5z" />
<glyph unicode="n" horiz-adv-x="1036" d="M31 815l2 21l278 69l-4 -170l6 -2q33 29 72 58.5t82 56t90 43t98 16.5q47 0 89 -14t71 -45q68 -68 68 -207v-580q0 -10 12 -16t74 -12l51 -2l6 -31h-414l6 31l54 2q47 4 59 11t12 19v533q0 111 -47 158t-139 47q-72 0 -135.5 -32t-112.5 -75v-262v-373q0 -12 15.5 -17 t70.5 -9l54 -2l6 -31h-418l6 31l53 2q41 4 57.5 9t16.5 21v601q0 41 -3 66.5t-11.5 40.5t-22.5 22.5t-37 11.5z" />
<glyph unicode="o" horiz-adv-x="1013" d="M49 436q0 98 36 185.5t97.5 151t146.5 100t183 36.5t181 -34.5t143.5 -96t94.5 -145.5t34 -182q0 -100 -35 -188.5t-96.5 -153t-145.5 -101.5t-182 -37t-182 36t-145.5 98.5t-95.5 147.5t-34 183zM213 467q0 -123 28.5 -224.5t88.5 -160.5q33 -35 78 -55.5t104 -20.5 q63 0 116.5 33t91.5 89t59.5 132t21.5 160q0 117 -26.5 216t-86.5 159q-35 35 -80 57t-104 22q-66 0 -120 -32.5t-92 -89t-58.5 -130t-20.5 -155.5z" />
<glyph unicode="p" horiz-adv-x="1015" d="M2 815l2 21l279 69l-2 -172l6 -4q59 70 137 120t176 50q78 0 145.5 -31.5t116.5 -89t77 -136.5t28 -175q0 -113 -38 -204t-101.5 -155.5t-145.5 -100.5t-168 -36q-68 0 -127 15.5t-102 36.5h-4v-480q0 -10 14 -15t70 -9l88 -2l6 -31h-453l6 31l56 2q39 4 56 8t17 20v1119 q0 41 -3 66.5t-11 39.5t-22.5 21.5t-36.5 11.5zM281 170q41 -63 107.5 -110.5t148.5 -47.5q63 0 113 31t86 85t54.5 128t18.5 162q0 82 -20.5 151.5t-57.5 120.5t-90 81t-119 30q-78 0 -137 -36t-104 -85v-510z" />
<glyph unicode="q" horiz-adv-x="1001" d="M49 412q0 113 39 203t103.5 153t148.5 97t172 34q72 0 138.5 -19.5t115.5 -48.5h4l90 87h14v-1371q0 -16 17.5 -20t58.5 -8l56 -2l6 -31h-453l6 31l86 2q55 4 69.5 9t14.5 17v592l-6 2q-59 -68 -136 -117t-175 -49q-78 0 -145.5 32t-117 90.5t-78 139t-28.5 177.5z M207 465q0 -82 20.5 -154.5t58.5 -126t92 -84t120 -30.5q80 0 135 34.5t102 81.5v506q-39 70 -106.5 119t-147.5 49q-63 0 -114.5 -29.5t-86 -83t-54 -125t-19.5 -157.5z" />
<glyph unicode="r" horiz-adv-x="718" d="M33 815l2 21l276 69l-4 -319h4q57 160 123 241.5t154 81.5q53 0 85 -30.5t32 -71.5q0 -39 -25 -69.5t-70 -30.5q-37 0 -67.5 25.5t-36.5 78.5q-61 -18 -108.5 -91t-88.5 -204v-457q0 -12 13.5 -17t66.5 -9l84 -2l6 -31h-442l6 31l53 2q41 4 57.5 9t16.5 21v601 q0 41 -3 66.5t-11.5 40.5t-22.5 22.5t-37 11.5z" />
<glyph unicode="s" horiz-adv-x="743" d="M61 266h35l43 -119q39 -68 95.5 -104.5t121.5 -36.5q90 0 147.5 50t57.5 128q0 84 -62.5 130t-164.5 79q-45 16 -90 37t-81 50.5t-57.5 71.5t-21.5 101q0 55 22.5 101.5t61.5 81t94 54t119 19.5q53 0 98 -9t86 -26l66 21l12 -246h-35l-84 172q-27 20 -64.5 36.5 t-84.5 16.5q-84 0 -130 -41.5t-46 -111.5q0 -41 15 -69.5t44 -50t69 -38t87 -33.5q51 -18 99 -39.5t86 -52t60.5 -75t22.5 -109.5q0 -55 -23.5 -106.5t-66.5 -90.5t-106.5 -62.5t-143.5 -23.5q-76 0 -140.5 12.5t-121.5 34.5z" />
<glyph unicode="t" horiz-adv-x="647" d="M14 801l13 47l125 47l104 168l63 -4l-2 -180h304l-25 -78h-279q-2 -168 -6 -297q-2 -55 -3 -108.5t-2 -94.5t-2 -67l-1 -27v-7q0 -68 36 -102q38 -35 103 -35q53 0 95.5 21.5t78.5 50.5l13 -20q-57 -55 -121.5 -99.5t-140.5 -44.5q-85 1 -145 49q-58 47 -58 158v8l10 611 z" />
<glyph unicode="u" horiz-adv-x="991" d="M0 881h287l-4 -596q0 -111 48 -159t140 -48q74 0 133.5 31.5t106.5 72.5v256v330q0 47 -16.5 60.5t-69.5 17.5l-54 6l-6 29h289v-758q0 -29 7 -40t34 -15l100 -17l-2 -22l-280 -62l2 176h-4q-33 -29 -71 -59.5t-81 -55t-89 -41t-97 -16.5q-98 0 -166 62q-63 70 -64 207 v579q0 6 -2 10.5t-10 7.5t-25.5 5t-50.5 4l-49 6z" />
<glyph unicode="v" horiz-adv-x="931" d="M-18 879h413l-4 -29l-51 -4q-48 -4 -58 -24q-4 -7 -3 -17q0 -19 12 -49l231 -584l185 485q23 57 30.5 92t1.5 55.5t-28.5 29t-63.5 10.5l-47 6l-6 29h348l-6 -29l-39 -4q-29 -2 -46 -10.5t-32.5 -30t-32 -60t-43.5 -104.5l-256 -659h-45l-305 759q-14 31 -23.5 50.5 t-19.5 31t-22.5 15.5t-34.5 6l-49 6z" />
<glyph unicode="w" horiz-adv-x="1437" d="M-16 879h413l-6 -29l-47 -4q-48 -4 -62 -20q-6 -7 -6 -19q0 -17 11 -45l215 -592l198 481l-36 97q-12 31 -21.5 48t-21 27.5t-26.5 15.5t-38 7l-45 4l-6 29h412l-7 -29l-47 -4q-47 -4 -58 -22.5t5 -61.5l240 -596l161 483q18 55 25.5 92t0.5 58.5t-29.5 31t-63.5 13.5 l-43 6l-6 29h346l-6 -29l-35 -4q-31 -2 -49.5 -11.5t-33.5 -31t-30.5 -61.5t-38.5 -105l-223 -655h-47l-258 622l-258 -622h-45l-277 743q-14 37 -23 60.5t-20.5 36t-25 17.5t-35.5 7l-49 4z" />
<glyph unicode="x" horiz-adv-x="927" d="M-2 0l6 29l57 8q41 6 77 33.5t93 105.5l172 234l-231 327q-39 55 -64.5 80t-62.5 29l-41 4l-6 29h410l-7 -29l-51 -6q-41 -4 -45 -26v-6q0 -23 29 -67l160 -225h2l139 205q35 50 35 79q0 35 -52 40l-57 6l-6 29h346l-6 -29l-55 -6q-20 -2 -40 -10.5t-39.5 -24.5t-42 -43 t-50.5 -68l-152 -204l250 -353q41 -53 65.5 -77.5t59.5 -28.5l41 -4l6 -31h-410l7 29l49 8q43 4 43 34q0 23 -27 62l-174 252h-2l-160 -233q-37 -52 -37 -81q0 -32 49 -36l64 -6l6 -29h-348z" />
<glyph unicode="y" horiz-adv-x="917" d="M-20 879h411l-4 -29l-47 -4q-47 -4 -58 -24q-3 -6 -3 -17q0 -19 12 -49l239 -580l177 486q20 55 27 89.5t0 53t-29.5 27t-63.5 12.5l-47 6l-6 29h350l-6 -29l-43 -4q-29 -2 -46.5 -10.5t-31.5 -30t-29.5 -60t-40.5 -104.5l-237 -635l-76 -242q-47 -147 -102.5 -219.5 t-147.5 -72.5q-51 0 -86 27.5t-35 68.5t27 67.5t68 26.5q43 0 69.5 -26.5t36.5 -67.5q47 12 78 68.5t65 162.5l60 183v2l-326 757q-14 31 -23.5 50.5t-19.5 31t-22.5 15.5t-34.5 6l-49 6z" />
<glyph unicode="z" horiz-adv-x="856" d="M43 0v25l565 821h-143q-86 0 -139.5 -11.5t-88 -35t-55 -59t-39.5 -87.5l-22 -84h-33l4 310h686v-25l-567 -819l160 -2q86 0 143 12t98 35.5t70 59.5t55 81l43 88h31l-72 -309h-696z" />
<glyph unicode="{" horiz-adv-x="622" d="M-23 406l11 22q55 4 106 13.5t92 28.5t65.5 50t24.5 76q0 53 -13 102.5t-28.5 101.5t-28.5 108.5t-13 121.5q0 68 28.5 123t80.5 94t124 61.5t160 26.5l4 -26q-152 -18 -215.5 -70.5t-63.5 -144.5q0 -53 13.5 -104.5t31 -103.5t30.5 -107.5t13 -119.5q0 -102 -89 -167.5 t-224 -81.5v-9q135 -18 224 -82.5t89 -168.5q0 -61 -13 -117t-30.5 -108t-31 -103t-13.5 -103q0 -92 63.5 -145t215.5 -72l-4 -26q-88 4 -160 26.5t-124 62.5t-80.5 94t-28.5 124q0 66 13 122t28.5 107t28.5 101.5t13 101.5q0 45 -20 74.5t-59 49t-91.5 30t-117.5 14.5z" />
<glyph unicode="|" horiz-adv-x="389" d="M174 -469v1796h41v-1796h-41z" />
<glyph unicode="}" horiz-adv-x="622" d="M10 -498q152 18 214.5 71.5t62.5 145.5q0 51 -13.5 102.5t-30 103.5t-29.5 107.5t-13 117.5q0 53 23.5 95t65.5 73.5t98 53t124 29.5v9q-68 8 -124 28.5t-98 53t-65.5 74.5t-23.5 93q0 63 13 119t29.5 108t30 103t13.5 105q0 92 -62.5 144t-214.5 71l2 26 q88 -4 161 -26.5t125 -61.5t81 -94t29 -123q0 -66 -13.5 -122t-30 -108t-29.5 -101.5t-13 -102.5q0 -45 24.5 -76t65.5 -50t92 -28.5t106 -13.5l11 -22l-11 -23q-63 -4 -116.5 -14.5t-92.5 -30t-59 -49t-20 -74.5q0 -51 13 -101.5t29.5 -101.5t30 -107.5t13.5 -121.5 q0 -70 -29 -124t-81 -94t-125 -62.5t-161 -26.5z" />
<glyph unicode="~" horiz-adv-x="776" d="M86 334q14 111 50 160t106 49q41 0 86 -20.5t89 -44t83 -44t67 -20.5q35 0 60.5 21.5t40.5 92.5h22q-14 -109 -48.5 -160t-104.5 -51q-43 0 -88.5 20.5t-88.5 45.5t-81.5 45.5t-67.5 20.5q-37 0 -62.5 -20.5t-37.5 -94.5h-25z" />
<glyph unicode="&#xa1;" horiz-adv-x="507" d="M143 1192q0 43 32 75.5t79 32.5t79 -32.5t32 -75.5q0 -41 -32 -73t-79 -32t-79 32t-32 73zM168 25.5q0 17.5 2 35.5l72 836q2 8 12 8t12 -8l74 -836q2 -18 1 -35.5t-8 -31.5t-23.5 -23.5t-45.5 -9.5h-18q-31 0 -47.5 9.5t-23.5 23.5t-7 31.5z" />
<glyph unicode="&#xa2;" horiz-adv-x="851" d="M47 424q0 102 35 190t96.5 154t146.5 103.5t185 37.5q63 0 113 -12l5 15q5 16 11 41.5t15.5 58t17.5 65.5q23 80 49 178h35l-101 -368q66 -23 103 -62t37 -88q0 -39 -27 -63.5t-59 -24.5q-37 0 -61.5 22.5t-31.5 61.5l-174 -643q20 -4 41 -8t43 -4q88 0 152.5 36 t120.5 122l22 -13q-66 -117 -152.5 -184.5t-209.5 -67.5q-12 0 -23.5 1t-23.5 3l-82 -303h-35l84 310q-74 14 -134.5 55t-104.5 99.5t-68.5 132t-24.5 155.5zM201 481q0 -139 58 -238.5t151 -140.5l200 744q-18 12 -45.5 20t-62.5 8q-61 0 -115.5 -27.5t-96.5 -79.5 t-65.5 -124t-23.5 -162z" />
<glyph unicode="&#xa3;" horiz-adv-x="1019" d="M8 86q0 59 46 98t141 39q39 0 79.5 -8t85.5 -22q10 29 15.5 58.5t5.5 57.5q0 66 -15.5 132.5t-31.5 138.5h-223l6 36h209q-10 43 -16.5 87.5t-6.5 91.5q0 100 32 190t91 158.5t143 108.5t187 40q98 0 157.5 -39t59.5 -106q0 -35 -26.5 -62.5t-63.5 -27.5q-31 0 -50.5 14 t-28.5 38t-8 51.5t13 51.5q-14 12 -44 24.5t-71 12.5q-49 0 -94 -20.5t-80 -60.5t-55.5 -100t-20.5 -140q0 -72 11.5 -149t21.5 -163h264l7 -36h-267q4 -33 6 -66t2 -68q0 -63 -20 -133.5t-57 -136.5q86 -27 173 -54.5t165 -27.5q86 0 134 49.5t68 186.5l25 -4 q-2 -76 -22.5 -141.5t-56.5 -112.5t-85 -74t-108 -27q-102 0 -187.5 41t-159.5 84q-45 -55 -99 -90t-114 -35q-61 0 -99 31t-38 84zM37 86q0 -41 30.5 -63.5t77.5 -22.5q51 0 97.5 32t81.5 85q-47 27 -90.5 44t-83.5 17q-51 0 -82 -24.5t-31 -67.5z" />
<glyph unicode="&#xa4;" horiz-adv-x="999" d="M10 451l6 36h119q-6 61 -6 115q0 29 2 57.5t6 53.5h-127l6 39h127q20 123 69.5 223t121.5 171t160 109.5t184 38.5q127 0 206 -47t79 -121q0 -37 -27 -63.5t-64 -26.5q-35 0 -56 17.5t-30.5 43t-6.5 53.5t16 48q-16 20 -49 39.5t-87 19.5q-74 0 -137 -37.5t-112.5 -104 t-82 -160t-42.5 -203.5h415l7 -39h-426q0 -16 -1 -35t-1 -35q0 -76 12 -156h409l7 -36h-408q18 -88 53 -159t84 -119t107.5 -73.5t122.5 -25.5q193 0 299 178l22 -14q-66 -119 -157 -193t-224 -74q-84 0 -160.5 34t-138 96.5t-104.5 150.5t-62 199h-131z" />
<glyph unicode="&#xa5;" horiz-adv-x="1228" d="M2 1280h520l-6 -31l-78 -4q-66 -4 -71 -32.5t41 -102.5l268 -465h6l213 393q31 61 44 98.5t8 60t-30.5 32.5t-70.5 16l-66 4l-6 31h440l-6 -31l-55 -4q-33 -4 -55.5 -10t-45 -26.5t-47 -58.5t-61.5 -106q-66 -117 -117 -208q-20 -39 -41.5 -77t-38 -67.5t-26.5 -47.5 l-10 -19h368l-2 -37h-379v-228h377l6 -36h-383v-256q0 -10 16.5 -16.5t76.5 -12.5l106 -8l6 -31h-567l6 31l121 10q43 4 60.5 12t17.5 19v252h-387l6 36h381v228h-383l-2 37h366l-295 499q-37 59 -65.5 87t-83.5 32l-70 6z" />
<glyph unicode="&#xa7;" horiz-adv-x="821" d="M37 662q0 84 53 143t129 96q-53 66 -53 148q0 49 20.5 96t58.5 84t91 59.5t119 22.5q104 0 166.5 -42t62.5 -102q0 -33 -23.5 -58.5t-58.5 -25.5q-27 0 -45 13.5t-27.5 35t-9.5 47t8 50.5q-20 23 -44.5 35t-61.5 12q-39 0 -68.5 -14.5t-51 -39t-33 -54t-11.5 -60.5 q0 -41 20.5 -75t56.5 -62.5t81 -55t94 -55.5q51 -29 100 -59.5t88 -67.5t62.5 -80t23.5 -98q0 -84 -53 -144.5t-129 -101.5q55 -63 55 -147q0 -49 -21.5 -96.5t-61 -85t-94 -60t-120.5 -22.5q-104 0 -173.5 42t-69.5 101q0 33 21.5 58.5t56.5 25.5q29 0 47 -13.5t27.5 -35 t9.5 -47t-11 -49.5q23 -23 56.5 -35.5t70.5 -12.5q39 0 70 15.5t52.5 40t32.5 55.5t11 61q0 41 -20.5 74t-55 61.5t-81 56.5t-95.5 54q-51 29 -99 60.5t-87 68.5t-62.5 82t-23.5 101zM131 729q0 -41 16.5 -74.5t45 -63.5t67.5 -55.5t84 -50.5q72 -41 133.5 -77.5 t108.5 -79.5q41 27 71.5 66.5t30.5 88.5q0 43 -16.5 77t-45 62.5t-67.5 54t-84 50.5q-70 41 -132 77t-105 79q-41 -23 -74 -64t-33 -90z" />
<glyph unicode="&#xa8;" horiz-adv-x="776" d="M115 1157q0 33 23.5 69t72.5 36q51 0 74.5 -36t23.5 -69t-23.5 -65.5t-74.5 -32.5q-49 0 -72.5 32.5t-23.5 65.5zM467 1157q0 33 24.5 69t73.5 36t73 -36t24 -69t-24 -65.5t-73 -32.5t-73.5 32.5t-24.5 65.5z" />
<glyph unicode="&#xa9;" horiz-adv-x="1460" d="M61 641q0 139 52.5 261t143.5 213t213 144.5t261 53.5t261 -53.5t213 -144.5t143.5 -213t52.5 -261t-52.5 -261t-143.5 -213t-213 -143.5t-261 -52.5t-261 52.5t-213 143.5t-143.5 213t-52.5 261zM96 641q0 -131 50.5 -246.5t136.5 -203t201.5 -137.5t246.5 -50t246 50 t201 137.5t136 203t50 246.5t-50 247t-136 203t-201 137t-246 50t-246.5 -50t-201.5 -137t-136.5 -203t-50.5 -247zM336 633q0 86 30.5 159.5t85 128t131 84t169.5 29.5q61 0 113.5 -13t86.5 -30l74 29l8 -236h-20l-86 174q-25 18 -71 34t-109 16q-70 0 -125.5 -28 t-95.5 -76t-61.5 -113.5t-21.5 -143.5q0 -84 24 -153.5t65.5 -119.5t99 -78t127.5 -28q88 0 140 37t93 103l41 84h21l-39 -207l-45 -4q-35 -14 -97.5 -26.5t-121.5 -12.5q-92 0 -169 28.5t-131.5 79.5t-85 124t-30.5 159z" />
<glyph unicode="&#xaa;" horiz-adv-x="645" d="M41 1130q0 29 29.5 60t76 55.5t99.5 41t102 16.5q96 0 149.5 -51.5t49.5 -168.5l-15 -348q-2 -76 52 -76q20 0 38.5 12.5t36.5 28.5l7 -12q-23 -31 -60 -66.5t-84 -35.5q-94 0 -104 121q-51 -53 -107.5 -87t-109.5 -34q-66 0 -112 44t-46 105q0 78 88 142.5t295 111.5 l4 70q0 55 -13.5 92t-36 59.5t-53 31.5t-61.5 9q-47 0 -80.5 -19.5t-33.5 -31.5q0 -6 16 -27.5t16 -48.5q0 -25 -19.5 -44t-51.5 -19q-31 0 -51.5 19.5t-20.5 49.5zM166 776q0 -51 28.5 -81.5t81.5 -30.5q37 0 75 21.5t69 49.5l6 228q-78 -18 -128 -40t-80 -45.5t-41 -49 t-11 -52.5z" />
<glyph unicode="&#xab;" horiz-adv-x="874" d="M35 436v35l414 311l10 -16l-266 -311l268 -314l-10 -16zM395 436v35l422 340l10 -16l-278 -340l278 -340l-10 -19z" />
<glyph unicode="&#xad;" horiz-adv-x="602" d="M47 449l6 75h502l-2 -75h-506z" />
<glyph unicode="&#xae;" horiz-adv-x="1460" d="M61 641q0 139 52.5 261t143.5 213t213 144.5t261 53.5t261 -53.5t213 -144.5t143.5 -213t52.5 -261t-52.5 -261t-143.5 -213t-213 -143.5t-261 -52.5t-261 52.5t-213 143.5t-143.5 213t-52.5 261zM96 641q0 -131 50.5 -246.5t136.5 -203t201.5 -137.5t246.5 -50t246 50 t201 137.5t136 203t50 246.5t-50 247t-136 203t-201 137t-246 50t-246.5 -50t-201.5 -137t-136.5 -203t-50.5 -247zM391 266l4 25l70 8q16 2 30.5 8t14.5 12v652q0 8 -8 11t-45 7l-60 6l-6 27h322q141 0 213.5 -53.5t72.5 -141.5q0 -72 -52 -126t-134 -72l170 -260 q31 -47 51.5 -58.5t55.5 -15.5l32 -4l6 -25h-198l-19 35l-200 322q-16 2 -50 7t-51 9v-324q0 -6 18.5 -11t37.5 -7l63 -6l4 -25h-342zM610 670q20 -8 53.5 -13.5t51.5 -5.5q80 4 129 47t49 125q0 84 -55.5 129t-163.5 39l-64 -2v-319z" />
<glyph unicode="&#xaf;" horiz-adv-x="774" d="M127 1079l12 60h508l-8 -60h-512z" />
<glyph unicode="&#xb0;" horiz-adv-x="659" d="M49 1032q0 57 19.5 109.5t55.5 91.5t88 61.5t118 22.5t118 -22.5t87.5 -61.5t55 -91t19.5 -110q0 -57 -19.5 -108.5t-55 -90t-87.5 -61t-118 -22.5q-63 0 -115.5 22.5t-89.5 61t-56.5 90t-19.5 108.5zM94 1032q0 -102 62.5 -173t173.5 -71t175 71t64 173q0 51 -17 95 t-48 78t-75 53.5t-99 19.5t-98.5 -19.5t-74 -53.5t-47 -78t-16.5 -95z" />
<glyph unicode="&#xb1;" horiz-adv-x="671" d="M92 0l6 31l95 8q78 4 77 33v823q0 10 -13 17.5t-69 11.5l-90 6l-6 31h490l-7 -31l-96 -6q-76 -2 -76 -33v-823q0 -12 12.5 -18.5t67.5 -10.5l90 -8l7 -31h-488z" />
<glyph unicode="&#xb4;" horiz-adv-x="776" d="M297 1018l215 379h170l-365 -379h-20z" />
<glyph unicode="&#xb6;" horiz-adv-x="894" d="M61 926q0 174 119 264t348 90h244v-1346h-43v641q-41 -8 -96 -12t-98 -4q-227 0 -350.5 97.5t-123.5 269.5z" />
<glyph unicode="&#xb7;" horiz-adv-x="403" d="M88 449q0 43 33 75.5t82 32.5t79.5 -32.5t30.5 -75.5q0 -45 -30.5 -78t-79.5 -33t-82 32.5t-33 78.5z" />
<glyph unicode="&#xb8;" horiz-adv-x="776" d="M193 -510q145 23 227 67t82 115q0 55 -46 83t-120 28q-37 0 -70 -6t-61 -15v21l201 225h40l-129 -143q59 8 109.5 1t89.5 -27.5t60.5 -52.5t21.5 -75q0 -55 -31.5 -96t-86 -69.5t-127 -47t-152.5 -26.5z" />
<glyph unicode="&#xba;" horiz-adv-x="774" d="M31 938q0 74 27.5 140.5t74.5 116.5t112.5 79t141.5 29q78 0 143.5 -28t112.5 -77t72.5 -113.5t25.5 -138.5q0 -76 -26.5 -141.5t-73.5 -114.5t-111.5 -77.5t-142.5 -28.5t-143.5 27.5t-112.5 75.5t-73.5 112.5t-26.5 138.5zM170 958q0 -94 21.5 -171.5t66.5 -120.5 q27 -27 62.5 -40.5t70.5 -13.5q47 0 86 26t66.5 69t42 100t14.5 121q0 90 -19.5 168t-60.5 118q-29 31 -63.5 45.5t-73.5 14.5q-49 0 -88 -24.5t-66.5 -67.5t-43 -100.5t-15.5 -123.5z" />
<glyph unicode="&#xbb;" horiz-adv-x="880" d="M47 115l279 340l-277 340l10 16l420 -340v-35l-422 -340zM416 141l266 314l-266 311l10 16l416 -311v-35l-416 -311z" />
<glyph unicode="&#xbf;" horiz-adv-x="645" d="M63 338q0 55 11.5 92t36 63.5t62.5 47t91 45.5q72 33 121 61.5t49 87.5q0 47 -32.5 92t-75.5 86h30q25 -18 52.5 -46.5t52 -60.5t40 -64.5t15.5 -61.5q0 -45 -13.5 -77t-39 -56.5t-66.5 -45t-96 -44.5q-102 -43 -150.5 -74t-48.5 -80q0 -31 17.5 -65.5t55.5 -62.5 t98.5 -46t144.5 -18q43 0 80 6t61 12q8 -10 13.5 -31.5t5.5 -46.5q0 -35 -32 -57.5t-108 -22.5q-84 0 -152.5 32t-117.5 83t-77 116.5t-28 135.5zM242 1202q0 43 29.5 76t78.5 33q47 0 79 -33t32 -76q0 -41 -32 -71.5t-79 -30.5q-49 0 -78.5 30.5t-29.5 71.5z" />
<glyph unicode="&#xc0;" horiz-adv-x="1261" d="M-16 0l6 31l51 6q39 6 64.5 17.5t49 46t52.5 103t72 187.5l272 762l-16 59q14 4 31.5 15.5t33.5 25t29.5 27.5t19.5 27h23l379 -1121q16 -45 27.5 -72.5t25.5 -44t32.5 -23.5t47.5 -9l78 -6l6 -31h-529l6 31l84 6q53 4 68.5 31.5t-6.5 99.5l-119 362h-403l-97 -270 q-25 -68 -35 -109.5t-2.5 -65.5t35 -33t80.5 -15l66 -6l6 -31h-438zM301 1741h170l215 -379h-18zM381 571h377l-178 543h-7q-55 -152 -96 -270q-18 -51 -34.5 -99.5t-30 -87.5t-22.5 -63z" />
<glyph unicode="&#xc1;" horiz-adv-x="1261" d="M-16 0l6 31l51 6q39 6 64.5 17.5t49 46t52.5 103t72 187.5l272 762l-16 59q14 4 31.5 15.5t33.5 25t29.5 27.5t19.5 27h23l379 -1121q16 -45 27.5 -72.5t25.5 -44t32.5 -23.5t47.5 -9l78 -6l6 -31h-529l6 31l84 6q53 4 68.5 31.5t-6.5 99.5l-119 362h-403l-97 -270 q-25 -68 -35 -109.5t-2.5 -65.5t35 -33t80.5 -15l66 -6l6 -31h-438zM381 571h377l-178 543h-7q-55 -152 -96 -270q-18 -51 -34.5 -99.5t-30 -87.5t-22.5 -63zM553 1362l215 379h170l-365 -379h-20z" />
<glyph unicode="&#xc2;" horiz-adv-x="1261" d="M-16 0l6 31l51 6q39 6 64.5 17.5t49 46t52.5 103t72 187.5l272 762l-16 59q14 4 31.5 15.5t33.5 25t29.5 27.5t19.5 27h23l379 -1121q16 -45 27.5 -72.5t25.5 -44t32.5 -23.5t47.5 -9l78 -6l6 -31h-529l6 31l84 6q53 4 68.5 31.5t-6.5 99.5l-119 362h-403l-97 -270 q-25 -68 -35 -109.5t-2.5 -65.5t35 -33t80.5 -15l66 -6l6 -31h-438zM365 1345l262 390h26l263 -390h-23l-250 240h-4l-252 -240h-22zM381 571h377l-178 543h-7q-55 -152 -96 -270q-18 -51 -34.5 -99.5t-30 -87.5t-22.5 -63z" />
<glyph unicode="&#xc3;" horiz-adv-x="1261" d="M-16 0l6 31l51 6q39 6 64.5 17.5t49 46t52.5 103t72 187.5l272 762l-16 59q14 4 31.5 15.5t33.5 25t29.5 27.5t19.5 27h23l379 -1121q16 -45 27.5 -72.5t25.5 -44t32.5 -23.5t47.5 -9l78 -6l6 -31h-529l6 31l84 6q53 4 68.5 31.5t-6.5 99.5l-119 362h-403l-97 -270 q-25 -68 -35 -109.5t-2.5 -65.5t35 -33t80.5 -15l66 -6l6 -31h-438zM326 1393q14 111 50 159.5t106 48.5q41 0 86 -20t89 -44t83 -44.5t67 -20.5q35 0 60.5 21.5t40.5 93.5h22q-14 -109 -48.5 -160t-104.5 -51q-43 0 -88.5 20.5t-88.5 45t-81.5 45t-67.5 20.5 q-37 0 -62.5 -20.5t-37.5 -93.5h-25zM381 571h377l-178 543h-7q-55 -152 -96 -270q-18 -51 -34.5 -99.5t-30 -87.5t-22.5 -63z" />
<glyph unicode="&#xc4;" horiz-adv-x="1261" d="M-16 0l6 31l51 6q39 6 64.5 17.5t49 46t52.5 103t72 187.5l272 762l-16 59q14 4 31.5 15.5t33.5 25t29.5 27.5t19.5 27h23l379 -1121q16 -45 27.5 -72.5t25.5 -44t32.5 -23.5t47.5 -9l78 -6l6 -31h-529l6 31l84 6q53 4 68.5 31.5t-6.5 99.5l-119 362h-403l-97 -270 q-25 -68 -35 -109.5t-2.5 -65.5t35 -33t80.5 -15l66 -6l6 -31h-438zM355 1495q0 33 23.5 69t72.5 36q51 0 74.5 -36t23.5 -69t-23.5 -65.5t-74.5 -32.5q-49 0 -72.5 32.5t-23.5 65.5zM381 571h377l-178 543h-7q-55 -152 -96 -270q-18 -51 -34.5 -99.5t-30 -87.5t-22.5 -63z M707 1495q0 33 24.5 69t73.5 36t73 -36t24 -69t-24 -65.5t-73 -32.5t-73.5 32.5t-24.5 65.5z" />
<glyph unicode="&#xc5;" horiz-adv-x="1261" d="M-16 0l6 31l51 6q39 6 64.5 17.5t49 46t52.5 103t72 187.5l309 864q-66 16 -102.5 64.5t-36.5 114.5q0 74 48 128t134 54t134 -54.5t48 -127.5q0 -61 -32.5 -109.5t-92.5 -64.5l363 -1074q16 -45 27.5 -72.5t25.5 -44t32.5 -23.5t47.5 -9l78 -6l6 -31h-529l6 31l84 6 q53 4 68.5 31.5t-6.5 99.5l-119 360h-405l-95 -268q-25 -68 -35 -109.5t-2.5 -65.5t35 -33t80.5 -15l66 -6l6 -31h-438zM381 571h377l-178 545h-7zM481 1432q0 -63 39 -108.5t111 -45.5q70 0 109.5 45t39.5 109q0 61 -40 108t-109 47q-72 0 -111 -47t-39 -108z" />
<glyph unicode="&#xc6;" horiz-adv-x="1710" d="M-109 0l7 31l86 8q25 4 48 15.5t52 42t65.5 85t88.5 146.5l481 843q16 31 -0.5 47.5t-104.5 22.5l-88 6l-6 33h1026l27 -365h-31l-20 84q-23 63 -44.5 109.5t-59.5 76t-99.5 44t-163.5 14.5h-201v-561l119 2q70 2 113 7t69.5 18.5t42 38t27.5 63.5l21 61l26 -4l-41 -413 l-26 2l-7 57q-2 43 -12 67.5t-34.5 38t-69.5 18.5t-119 7l-109 2v-604l185 -6q117 2 191.5 21.5t123.5 54t79 82t52 104.5l23 80l34 -2l-69 -377h-971l6 31l111 12q43 4 60.5 13.5t17.5 19.5v452h-400l-135 -241q-39 -70 -60.5 -116t-21.5 -73.5t20.5 -41t65.5 -19.5l82 -8 l6 -29h-463zM422 571h375v650h-9z" />
<glyph unicode="&#xc7;" horiz-adv-x="1363" d="M68 629q0 152 52 276.5t147 214.5t226.5 140.5t288.5 50.5q102 0 189.5 -23.5t142.5 -50.5l121 47l12 -387h-33l-133 297q-43 33 -120.5 56.5t-184.5 23.5q-125 0 -223 -48t-167 -133t-105.5 -199t-36.5 -245q0 -143 39 -261t109.5 -202t170 -131t217.5 -47 q76 0 135.5 15.5t107.5 45t88 72.5t77 97l59 143h35l-68 -334l-73 -2q-27 -12 -66 -24.5t-83 -23.5t-93 -18.5t-98 -9.5l-94 -104q59 8 109 1t89 -27.5t60.5 -52.5t21.5 -75q0 -55 -31.5 -96t-86 -69.5t-127 -47t-152.5 -26.5l-8 18q145 23 227 67t82 115q0 55 -46 83 t-120 28q-37 0 -69.5 -6t-61.5 -15v21l166 186q-150 2 -277 49.5t-219 133.5t-144 206.5t-52 270.5z" />
<glyph unicode="&#xc8;" horiz-adv-x="1181" d="M57 0l6 31l89 8q84 8 84 31v1147q0 10 -15.5 15t-79.5 11l-75 6l-7 31h955l26 -365h-32l-21 84q-23 63 -47.5 109.5t-64 77.5t-104 45t-167.5 14h-207v-563l142 2q70 2 112.5 7t70.5 18.5t42 38t27 63.5l20 59l29 -2l-41 -413l-29 2l-4 57q-2 43 -12.5 67.5t-35 38 t-70.5 18.5t-120 7l-131 2v-604l224 -6q115 0 187.5 20.5t118.5 55t73.5 82t50.5 104.5l24 80l35 -2l-70 -377h-983zM293 1741h170l215 -379h-18z" />
<glyph unicode="&#xc9;" horiz-adv-x="1181" d="M57 0l6 31l89 8q84 8 84 31v1147q0 10 -15.5 15t-79.5 11l-75 6l-7 31h955l26 -365h-32l-21 84q-23 63 -47.5 109.5t-64 77.5t-104 45t-167.5 14h-207v-563l142 2q70 2 112.5 7t70.5 18.5t42 38t27 63.5l20 59l29 -2l-41 -413l-29 2l-4 57q-2 43 -12.5 67.5t-35 38 t-70.5 18.5t-120 7l-131 2v-604l224 -6q115 0 187.5 20.5t118.5 55t73.5 82t50.5 104.5l24 80l35 -2l-70 -377h-983zM533 1362l215 379h170l-365 -379h-20z" />
<glyph unicode="&#xca;" horiz-adv-x="1181" d="M57 0l6 31l89 8q84 8 84 31v1147q0 10 -15.5 15t-79.5 11l-75 6l-7 31h955l26 -365h-32l-21 84q-23 63 -47.5 109.5t-64 77.5t-104 45t-167.5 14h-207v-563l142 2q70 2 112.5 7t70.5 18.5t42 38t27 63.5l20 59l29 -2l-41 -413l-29 2l-4 57q-2 43 -12.5 67.5t-35 38 t-70.5 18.5t-120 7l-131 2v-604l224 -6q115 0 187.5 20.5t118.5 55t73.5 82t50.5 104.5l24 80l35 -2l-70 -377h-983zM314 1345l262 390h26l263 -390h-23l-250 240h-4l-252 -240h-22z" />
<glyph unicode="&#xcb;" horiz-adv-x="1181" d="M57 0l6 31l89 8q84 8 84 31v1147q0 10 -15.5 15t-79.5 11l-75 6l-7 31h955l26 -365h-32l-21 84q-23 63 -47.5 109.5t-64 77.5t-104 45t-167.5 14h-207v-563l142 2q70 2 112.5 7t70.5 18.5t42 38t27 63.5l20 59l29 -2l-41 -413l-29 2l-4 57q-2 43 -12.5 67.5t-35 38 t-70.5 18.5t-120 7l-131 2v-604l224 -6q115 0 187.5 20.5t118.5 55t73.5 82t50.5 104.5l24 80l35 -2l-70 -377h-983zM308 1495q0 33 23.5 69t72.5 36q51 0 74.5 -36t23.5 -69t-23.5 -65.5t-74.5 -32.5q-49 0 -72.5 32.5t-23.5 65.5zM660 1495q0 33 24.5 69t73.5 36t73 -36 t24 -69t-24 -65.5t-73 -32.5t-73.5 32.5t-24.5 65.5z" />
<glyph unicode="&#xcc;" horiz-adv-x="673" d="M24 1741h170l215 -379h-18zM70 0l6 31l100 8q45 4 62.5 12t17.5 19v1147q0 10 -15.5 15t-78.5 11l-84 6l-6 31h532l-6 -31l-98 -8q-47 -4 -64.5 -12t-17.5 -19v-1147q0 -10 16.5 -15t79.5 -11l82 -6l6 -31h-532z" />
<glyph unicode="&#xcd;" horiz-adv-x="673" d="M70 0l6 31l100 8q45 4 62.5 12t17.5 19v1147q0 10 -15.5 15t-78.5 11l-84 6l-6 31h532l-6 -31l-98 -8q-47 -4 -64.5 -12t-17.5 -19v-1147q0 -10 16.5 -15t79.5 -11l82 -6l6 -31h-532zM264 1362l215 379h170l-365 -379h-20z" />
<glyph unicode="&#xce;" horiz-adv-x="673" d="M64 1345l262 390h26l263 -390h-23l-250 240h-4l-252 -240h-22zM70 0l6 31l100 8q45 4 62.5 12t17.5 19v1147q0 10 -15.5 15t-78.5 11l-84 6l-6 31h532l-6 -31l-98 -8q-47 -4 -64.5 -12t-17.5 -19v-1147q0 -10 16.5 -15t79.5 -11l82 -6l6 -31h-532z" />
<glyph unicode="&#xcf;" horiz-adv-x="673" d="M68 1497q0 33 23.5 69t72.5 36q51 0 74.5 -36t23.5 -69t-23.5 -65.5t-74.5 -32.5q-49 0 -72.5 32.5t-23.5 65.5zM70 0l6 31l100 8q45 4 62.5 12t17.5 19v1147q0 10 -15.5 15t-78.5 11l-84 6l-6 31h532l-6 -31l-98 -8q-47 -4 -64.5 -12t-17.5 -19v-1147q0 -10 16.5 -15 t79.5 -11l82 -6l6 -31h-532zM420 1497q0 33 24.5 69t73.5 36t73 -36t24 -69t-24 -65.5t-73 -32.5t-73.5 32.5t-24.5 65.5z" />
<glyph unicode="&#xd0;" horiz-adv-x="1363" d="M49 0l6 31l103 10q43 4 60.5 12t17.5 19v555h-181l6 41h175v544q0 18 -93 29l-86 8l-6 31l494 6q178 2 315 -43t230.5 -127t142.5 -196.5t49 -251.5q0 -143 -51 -265t-149.5 -211.5t-243 -140.5t-332.5 -51h-457zM395 70l160 -33q137 2 241.5 50t174 128t104.5 184.5 t35 218.5q0 133 -36 247t-109.5 199t-185 133t-265.5 48h-119v-577h299l6 -41h-305v-557z" />
<glyph unicode="&#xd1;" horiz-adv-x="1427" d="M41 1282h344l784 -1034h5l-3 887q0 59 -28.5 78.5t-104.5 29.5l-69 6l-6 31h442l-6 -31l-70 -6q-57 -6 -87 -27.5t-30 -85.5l-2 -1140h-39l-878 1151h-4l2 -994q0 -59 28.5 -80.5t104.5 -29.5l70 -6l6 -31h-445l6 31l72 6q55 6 86 27.5t31 87.5l2 991q-16 31 -49 59.5 t-99 40.5l-57 8zM438 1393q14 111 50 159.5t106 48.5q41 0 86 -20t89 -44t83 -44.5t67 -20.5q35 0 60.5 21.5t40.5 93.5h22q-14 -109 -48.5 -160t-104.5 -51q-43 0 -88.5 20.5t-88.5 45t-81.5 45t-67.5 20.5q-37 0 -62.5 -20.5t-37.5 -93.5h-25z" />
<glyph unicode="&#xd2;" d="M68 635q0 133 53 255t145 215t215 148.5t260 55.5q143 0 265 -49.5t212.5 -137.5t141.5 -211t51 -270q0 -133 -53 -255t-145.5 -214t-215.5 -146.5t-262 -54.5q-143 0 -266 48.5t-212 136.5t-139 209.5t-50 269.5zM244 641q0 -143 37.5 -260t105.5 -200t159 -128t197 -45 q109 0 199 43t154.5 124t100.5 197.5t36 262.5q0 143 -38 261t-105.5 202t-158.5 130t-198 46q-106 0 -196.5 -44t-156 -126t-101 -199t-35.5 -264zM416 1741h170l215 -379h-18z" />
<glyph unicode="&#xd3;" d="M68 635q0 133 53 255t145 215t215 148.5t260 55.5q143 0 265 -49.5t212.5 -137.5t141.5 -211t51 -270q0 -133 -53 -255t-145.5 -214t-215.5 -146.5t-262 -54.5q-143 0 -266 48.5t-212 136.5t-139 209.5t-50 269.5zM244 641q0 -143 37.5 -260t105.5 -200t159 -128t197 -45 q109 0 199 43t154.5 124t100.5 197.5t36 262.5q0 143 -38 261t-105.5 202t-158.5 130t-198 46q-106 0 -196.5 -44t-156 -126t-101 -199t-35.5 -264zM666 1362l215 379h170l-365 -379h-20z" />
<glyph unicode="&#xd4;" d="M68 635q0 133 53 255t145 215t215 148.5t260 55.5q143 0 265 -49.5t212.5 -137.5t141.5 -211t51 -270q0 -133 -53 -255t-145.5 -214t-215.5 -146.5t-262 -54.5q-143 0 -266 48.5t-212 136.5t-139 209.5t-50 269.5zM244 641q0 -143 37.5 -260t105.5 -200t159 -128t197 -45 q109 0 199 43t154.5 124t100.5 197.5t36 262.5q0 143 -38 261t-105.5 202t-158.5 130t-198 46q-106 0 -196.5 -44t-156 -126t-101 -199t-35.5 -264zM465 1345l262 390h26l263 -390h-23l-250 240h-4l-252 -240h-22z" />
<glyph unicode="&#xd5;" d="M68 635q0 133 53 255t145 215t215 148.5t260 55.5q143 0 265 -49.5t212.5 -137.5t141.5 -211t51 -270q0 -133 -53 -255t-145.5 -214t-215.5 -146.5t-262 -54.5q-143 0 -266 48.5t-212 136.5t-139 209.5t-50 269.5zM244 641q0 -143 37.5 -260t105.5 -200t159 -128t197 -45 q109 0 199 43t154.5 124t100.5 197.5t36 262.5q0 143 -38 261t-105.5 202t-158.5 130t-198 46q-106 0 -196.5 -44t-156 -126t-101 -199t-35.5 -264zM440 1393q14 111 50 159.5t106 48.5q41 0 86 -20t89 -44t83 -44.5t67 -20.5q35 0 60.5 21.5t40.5 93.5h22 q-14 -109 -48.5 -160t-104.5 -51q-43 0 -88.5 20.5t-88.5 45t-81.5 45t-67.5 20.5q-37 0 -62.5 -20.5t-37.5 -93.5h-25z" />
<glyph unicode="&#xd6;" d="M68 635q0 133 53 255t145 215t215 148.5t260 55.5q143 0 265 -49.5t212.5 -137.5t141.5 -211t51 -270q0 -133 -53 -255t-145.5 -214t-215.5 -146.5t-262 -54.5q-143 0 -266 48.5t-212 136.5t-139 209.5t-50 269.5zM244 641q0 -143 37.5 -260t105.5 -200t159 -128t197 -45 q109 0 199 43t154.5 124t100.5 197.5t36 262.5q0 143 -38 261t-105.5 202t-158.5 130t-198 46q-106 0 -196.5 -44t-156 -126t-101 -199t-35.5 -264zM469 1495q0 33 23.5 69t72.5 36q51 0 74.5 -36t23.5 -69t-23.5 -65.5t-74.5 -32.5q-49 0 -72.5 32.5t-23.5 65.5zM821 1495 q0 33 24.5 69t73.5 36t73 -36t24 -69t-24 -65.5t-73 -32.5t-73.5 32.5t-24.5 65.5z" />
<glyph unicode="&#xd8;" d="M68 635q0 133 53 255t145 215t215 148.5t260 55.5q178 0 324 -76q16 29 33.5 59.5t34.5 57.5q18 31 36 61h43l-114 -197q143 -86 228 -233t85 -340q0 -133 -53 -255t-145.5 -214t-215.5 -146.5t-262 -54.5q-172 0 -315 70l-111 -191h-43l121 209q-147 82 -233 230.5 t-86 345.5zM244 641q0 -166 50 -294t136 -212q166 287 297 514q55 96 109.5 189.5t96.5 165t67 115.5l24 44q-59 53 -133 81t-158 28q-106 0 -196.5 -44t-156 -126t-101 -199t-35.5 -262zM459 109q123 -100 284 -101q109 0 199 43t154.5 124t100.5 197.5t36 262.5 q0 162 -48 289t-132 213z" />
<glyph unicode="&#xd9;" horiz-adv-x="1390" d="M29 1282h549l-7 -31l-106 -8q-45 -4 -63.5 -13t-18.5 -20v-747q0 -223 100.5 -319.5t292.5 -96.5q184 0 279.5 110.5t95.5 327.5v326q0 143 -2 324q0 59 -34 80.5t-109 27.5l-70 8l-6 31h452l-6 -31l-71 -8q-57 -6 -86 -27.5t-29 -85.5l-2 -649q0 -244 -115.5 -377 t-355.5 -133q-252 0 -373 108.5t-121 362.5v775q0 10 -16.5 15t-79.5 11l-92 8zM422 1741h170l215 -379h-18z" />
<glyph unicode="&#xda;" horiz-adv-x="1390" d="M29 1282h549l-7 -31l-106 -8q-45 -4 -63.5 -13t-18.5 -20v-747q0 -223 100.5 -319.5t292.5 -96.5q184 0 279.5 110.5t95.5 327.5v326q0 143 -2 324q0 59 -34 80.5t-109 27.5l-70 8l-6 31h452l-6 -31l-71 -8q-57 -6 -86 -27.5t-29 -85.5l-2 -649q0 -244 -115.5 -377 t-355.5 -133q-252 0 -373 108.5t-121 362.5v775q0 10 -16.5 15t-79.5 11l-92 8zM649 1362l215 379h170l-365 -379h-20z" />
<glyph unicode="&#xdb;" horiz-adv-x="1390" d="M29 1282h549l-7 -31l-106 -8q-45 -4 -63.5 -13t-18.5 -20v-747q0 -223 100.5 -319.5t292.5 -96.5q184 0 279.5 110.5t95.5 327.5v326q0 143 -2 324q0 59 -34 80.5t-109 27.5l-70 8l-6 31h452l-6 -31l-71 -8q-57 -6 -86 -27.5t-29 -85.5l-2 -649q0 -244 -115.5 -377 t-355.5 -133q-252 0 -373 108.5t-121 362.5v775q0 10 -16.5 15t-79.5 11l-92 8zM457 1345l262 390h26l263 -390h-23l-250 240h-4l-252 -240h-22z" />
<glyph unicode="&#xdc;" horiz-adv-x="1390" d="M29 1282h549l-7 -31l-106 -8q-45 -4 -63.5 -13t-18.5 -20v-747q0 -223 100.5 -319.5t292.5 -96.5q184 0 279.5 110.5t95.5 327.5v326q0 143 -2 324q0 59 -34 80.5t-109 27.5l-70 8l-6 31h452l-6 -31l-71 -8q-57 -6 -86 -27.5t-29 -85.5l-2 -649q0 -244 -115.5 -377 t-355.5 -133q-252 0 -373 108.5t-121 362.5v775q0 10 -16.5 15t-79.5 11l-92 8zM473 1495q0 33 23.5 69t72.5 36q51 0 74.5 -36t23.5 -69t-23.5 -65.5t-74.5 -32.5q-49 0 -72.5 32.5t-23.5 65.5zM825 1495q0 33 24.5 69t73.5 36t73 -36t24 -69t-24 -65.5t-73 -32.5 t-73.5 32.5t-24.5 65.5z" />
<glyph unicode="&#xdd;" horiz-adv-x="1243" d="M-10 1280h524l-6 -31l-78 -4q-66 -4 -70 -32.5t39 -102.5l277 -483h6l221 401q33 61 48.5 100t11 64t-28 36t-70.5 17l-65 4l-6 31h440l-6 -31l-58 -4q-33 -4 -56 -12t-47 -29.5t-49.5 -60.5t-62.5 -107l-252 -446v-527q0 -10 16.5 -15t82.5 -11l100 -6l6 -31h-569l6 31 l117 8q45 4 63.5 12t18.5 19v493l-328 559q-35 63 -64.5 90t-84.5 31l-70 6zM588 1364l215 379h170l-365 -379h-20z" />
<glyph unicode="&#xde;" horiz-adv-x="1122" d="M39 0l6 31l109 8q45 4 63.5 12t18.5 19v1147q0 10 -15.5 15t-79.5 11l-94 6l-6 31h551l-6 -31l-109 -8q-80 -8 -80 -31v-196h109q37 0 78 -2q242 0 359.5 -91.5t117.5 -238.5q0 -82 -37 -151.5t-101.5 -120t-153.5 -78t-194 -27.5q-49 0 -96 6t-82 11v-259 q0 -10 15.5 -16t79.5 -10l118 -6l6 -31h-577zM397 367q35 -8 76 -15.5t102 -7.5q150 0 232 83t82 230q0 152 -84 238t-273 82h-65q-31 0 -70 -2v-608z" />
<glyph unicode="&#xdf;" horiz-adv-x="1019" d="M20 803l25 71l131 7l2 53q18 207 115.5 325.5t251.5 118.5q150 0 235.5 -71.5t85.5 -190.5q0 -55 -19.5 -98t-53 -77t-79 -56.5t-96.5 -36.5q61 -33 125 -87t116 -121t86 -142.5t34 -155.5q0 -74 -24.5 -140.5t-67.5 -116.5t-100.5 -80t-122.5 -30q-96 0 -162 45.5 t-66 114.5q0 45 29 75t72 30t64.5 -26t22.5 -57.5t-19.5 -58t-59.5 -28.5q14 -23 45 -42.5t78 -19.5q84 0 134 64.5t50 169.5q0 152 -97.5 305t-293.5 270v17q133 23 200.5 88t67.5 198q0 45 -14.5 85t-41 71t-63.5 49t-80 18q-109 0 -160 -79.5t-51 -253.5v-1008h-274l6 29 l58 4q37 2 53 6t16 20v736z" />
<glyph unicode="&#xe0;" horiz-adv-x="843" d="M53 682q0 37 38 78t95.5 73.5t126 54t127.5 21.5q70 0 121 -15t83 -52t46.5 -99.5t9.5 -156.5l-20 -436q-2 -47 14.5 -65.5t46.5 -18.5q23 0 47.5 17t49.5 40l16 -19q-16 -20 -35.5 -42.5t-42 -42t-48 -32t-54.5 -12.5q-53 0 -89 38t-40 110l-4 2q-57 -59 -122 -103.5 t-138 -44.5q-45 0 -86 16.5t-70 44.5t-46.5 64.5t-17.5 79.5q0 55 25 101.5t82 86.5t152.5 75.5t236.5 70.5l2 70q2 78 -12.5 129t-42 81.5t-66.5 43t-82 12.5q-31 0 -61.5 -8t-54 -18.5t-39 -22.5t-15.5 -21q0 -6 7.5 -14t16.5 -20.5t16 -29t7 -34.5q0 -33 -24.5 -57.5 t-65.5 -24.5q-39 0 -64.5 21.5t-25.5 58.5zM110 1397h170l215 -379h-18zM205 221q0 -72 42 -111.5t103 -39.5q55 0 101.5 24.5t93.5 67.5l10 321q-106 -27 -175 -55.5t-108 -61t-53 -68.5t-14 -77z" />
<glyph unicode="&#xe1;" horiz-adv-x="843" d="M53 682q0 37 38 78t95.5 73.5t126 54t127.5 21.5q70 0 121 -15t83 -52t46.5 -99.5t9.5 -156.5l-20 -436q-2 -47 14.5 -65.5t46.5 -18.5q23 0 47.5 17t49.5 40l16 -19q-16 -20 -35.5 -42.5t-42 -42t-48 -32t-54.5 -12.5q-53 0 -89 38t-40 110l-4 2q-57 -59 -122 -103.5 t-138 -44.5q-45 0 -86 16.5t-70 44.5t-46.5 64.5t-17.5 79.5q0 55 25 101.5t82 86.5t152.5 75.5t236.5 70.5l2 70q2 78 -12.5 129t-42 81.5t-66.5 43t-82 12.5q-31 0 -61.5 -8t-54 -18.5t-39 -22.5t-15.5 -21q0 -6 7.5 -14t16.5 -20.5t16 -29t7 -34.5q0 -33 -24.5 -57.5 t-65.5 -24.5q-39 0 -64.5 21.5t-25.5 58.5zM205 221q0 -72 42 -111.5t103 -39.5q55 0 101.5 24.5t93.5 67.5l10 321q-106 -27 -175 -55.5t-108 -61t-53 -68.5t-14 -77zM338 1018l215 379h170l-365 -379h-20z" />
<glyph unicode="&#xe2;" horiz-adv-x="843" d="M53 682q0 37 38 78t95.5 73.5t126 54t127.5 21.5q70 0 121 -15t83 -52t46.5 -99.5t9.5 -156.5l-20 -436q-2 -47 14.5 -65.5t46.5 -18.5q23 0 47.5 17t49.5 40l16 -19q-16 -20 -35.5 -42.5t-42 -42t-48 -32t-54.5 -12.5q-53 0 -89 38t-40 110l-4 2q-57 -59 -122 -103.5 t-138 -44.5q-45 0 -86 16.5t-70 44.5t-46.5 64.5t-17.5 79.5q0 55 25 101.5t82 86.5t152.5 75.5t236.5 70.5l2 70q2 78 -12.5 129t-42 81.5t-66.5 43t-82 12.5q-31 0 -61.5 -8t-54 -18.5t-39 -22.5t-15.5 -21q0 -6 7.5 -14t16.5 -20.5t16 -29t7 -34.5q0 -33 -24.5 -57.5 t-65.5 -24.5q-39 0 -64.5 21.5t-25.5 58.5zM123 1001l262 390h26l263 -390h-23l-250 240h-4l-252 -240h-22zM205 221q0 -72 42 -111.5t103 -39.5q55 0 101.5 24.5t93.5 67.5l10 321q-106 -27 -175 -55.5t-108 -61t-53 -68.5t-14 -77z" />
<glyph unicode="&#xe3;" horiz-adv-x="843" d="M53 682q0 37 38 78t95.5 73.5t126 54t127.5 21.5q70 0 121 -15t83 -52t46.5 -99.5t9.5 -156.5l-20 -436q-2 -47 14.5 -65.5t46.5 -18.5q23 0 47.5 17t49.5 40l16 -19q-16 -20 -35.5 -42.5t-42 -42t-48 -32t-54.5 -12.5q-53 0 -89 38t-40 110l-4 2q-57 -59 -122 -103.5 t-138 -44.5q-45 0 -86 16.5t-70 44.5t-46.5 64.5t-17.5 79.5q0 55 25 101.5t82 86.5t152.5 75.5t236.5 70.5l2 70q2 78 -12.5 129t-42 81.5t-66.5 43t-82 12.5q-31 0 -61.5 -8t-54 -18.5t-39 -22.5t-15.5 -21q0 -6 7.5 -14t16.5 -20.5t16 -29t7 -34.5q0 -33 -24.5 -57.5 t-65.5 -24.5q-39 0 -64.5 21.5t-25.5 58.5zM115 1049q14 111 50 159.5t106 48.5q41 0 86 -20t89 -44t83 -44.5t67 -20.5q35 0 60.5 21.5t40.5 93.5h22q-14 -109 -48.5 -160t-104.5 -51q-43 0 -88.5 20.5t-88.5 45t-81.5 45t-67.5 20.5q-37 0 -62.5 -20.5t-37.5 -93.5h-25z M205 221q0 -72 42 -111.5t103 -39.5q55 0 101.5 24.5t93.5 67.5l10 321q-106 -27 -175 -55.5t-108 -61t-53 -68.5t-14 -77z" />
<glyph unicode="&#xe4;" horiz-adv-x="843" d="M53 682q0 37 38 78t95.5 73.5t126 54t127.5 21.5q70 0 121 -15t83 -52t46.5 -99.5t9.5 -156.5l-20 -436q-2 -47 14.5 -65.5t46.5 -18.5q23 0 47.5 17t49.5 40l16 -19q-16 -20 -35.5 -42.5t-42 -42t-48 -32t-54.5 -12.5q-53 0 -89 38t-40 110l-4 2q-57 -59 -122 -103.5 t-138 -44.5q-45 0 -86 16.5t-70 44.5t-46.5 64.5t-17.5 79.5q0 55 25 101.5t82 86.5t152.5 75.5t236.5 70.5l2 70q2 78 -12.5 129t-42 81.5t-66.5 43t-82 12.5q-31 0 -61.5 -8t-54 -18.5t-39 -22.5t-15.5 -21q0 -6 7.5 -14t16.5 -20.5t16 -29t7 -34.5q0 -33 -24.5 -57.5 t-65.5 -24.5q-39 0 -64.5 21.5t-25.5 58.5zM123 1157q0 33 23.5 69t72.5 36q51 0 74.5 -36t23.5 -69t-23.5 -65.5t-74.5 -32.5q-49 0 -72.5 32.5t-23.5 65.5zM205 221q0 -72 42 -111.5t103 -39.5q55 0 101.5 24.5t93.5 67.5l10 321q-106 -27 -175 -55.5t-108 -61t-53 -68.5 t-14 -77zM475 1157q0 33 24.5 69t73.5 36t73 -36t24 -69t-24 -65.5t-73 -32.5t-73.5 32.5t-24.5 65.5z" />
<glyph unicode="&#xe5;" horiz-adv-x="843" d="M53 682q0 37 38 78t95.5 73.5t126 54t127.5 21.5q70 0 121 -15t83 -52t46.5 -99.5t9.5 -156.5l-20 -436q-2 -47 14.5 -65.5t46.5 -18.5q23 0 47.5 17t49.5 40l16 -19q-16 -20 -35.5 -42.5t-42 -42t-48 -32t-54.5 -12.5q-53 0 -89 38t-40 110l-4 2q-57 -59 -122 -103.5 t-138 -44.5q-45 0 -86 16.5t-70 44.5t-46.5 64.5t-17.5 79.5q0 55 25 101.5t82 86.5t152.5 75.5t236.5 70.5l2 70q2 78 -12.5 129t-42 81.5t-66.5 43t-82 12.5q-31 0 -61.5 -8t-54 -18.5t-39 -22.5t-15.5 -21q0 -6 7.5 -14t16.5 -20.5t16 -29t7 -34.5q0 -33 -24.5 -57.5 t-65.5 -24.5q-39 0 -64.5 21.5t-25.5 58.5zM205 221q0 -72 42 -111.5t103 -39.5q55 0 101.5 24.5t93.5 67.5l10 321q-106 -27 -175 -55.5t-108 -61t-53 -68.5t-14 -77zM242 1214q0 76 48 130.5t134 54.5t134 -54.5t48 -130.5t-48 -130t-134 -54t-134 54.5t-48 129.5z M275 1214q0 -63 38.5 -109t110.5 -46q70 0 109 46t39 109t-39 109.5t-109 46.5q-72 0 -110.5 -46t-38.5 -110z" />
<glyph unicode="&#xe6;" horiz-adv-x="1376" d="M53 682q0 37 38 78t95.5 73.5t126 54t131.5 21.5q98 0 153.5 -32.5t78.5 -110.5q59 68 136 105.5t181 37.5q76 0 135.5 -21.5t100.5 -60.5t62.5 -90t21.5 -110q0 -25 -6 -54q-168 0 -299 2q-55 0 -109.5 1.5t-96.5 1.5h-68h-27q-2 -18 -4.5 -47t-2.5 -52q0 -88 25 -161.5 t68 -127t102 -82t127 -28.5q90 0 157.5 35t125.5 121l22 -13q-66 -117 -157 -183.5t-214 -66.5q-117 0 -209 59.5t-141 153.5q-82 -94 -159.5 -154.5t-161.5 -60.5q-47 0 -88 16.5t-71 45t-47.5 66.5t-17.5 81q0 53 24 100.5t81 88.5t152.5 77.5t236.5 69.5l6 72 q4 76 -11 126t-44 80.5t-68 44t-82 13.5q-31 0 -61.5 -8t-54 -18.5t-39 -22.5t-15.5 -21q0 -6 7.5 -14t16.5 -20.5t16 -29t7 -34.5q0 -33 -24.5 -57.5t-65.5 -24.5q-39 0 -64.5 21.5t-25.5 58.5zM205 219q0 -72 43 -114t106 -42q66 0 120 39t118 113q-41 94 -41 207v30.5 t2 28.5q-106 -27 -174 -56.5t-107 -61t-53 -67.5t-14 -77zM713 608q123 0 221 2q41 0 81 1t71.5 1h49.5h19q2 53 -8 101.5t-33.5 84.5t-58.5 56t-84 20q-43 0 -83 -20t-75 -56t-61.5 -85.5t-38.5 -104.5z" />
<glyph unicode="&#xe7;" horiz-adv-x="849" d="M49 418q0 102 35 192t96.5 157t145.5 104.5t184 37.5q63 0 116.5 -14t92.5 -39t61.5 -59.5t22.5 -75.5q0 -45 -29 -71.5t-63 -26.5q-45 0 -73 32.5t-20 79.5q0 35 14.5 49.5t14.5 24.5q-6 18 -48 41.5t-95 23.5q-61 0 -116.5 -28.5t-97.5 -80.5t-65.5 -125t-23.5 -159 q0 -88 24.5 -162.5t67.5 -127t102.5 -82t128.5 -29.5q88 0 152.5 35t120.5 121l24 -13q-57 -106 -135 -170.5t-182 -77.5l-101 -110q59 8 109.5 1t89.5 -27.5t60.5 -52.5t21.5 -75q0 -55 -31.5 -96t-86 -69.5t-127 -47t-152.5 -26.5l-8 18q145 23 227 67t82 115q0 55 -46 83 t-120 28q-37 0 -70 -6t-61 -15v21l170 190h-4q-86 0 -161 34t-130 94.5t-86 141.5t-31 175z" />
<glyph unicode="&#xe8;" horiz-adv-x="872" d="M49 418q0 102 33 191t91 155.5t140 105.5t179 39q76 0 135 -21.5t100 -60.5t62.5 -90t21.5 -110q0 -14 -1 -26.5t-3 -27.5l-598 5q-4 -18 -6 -47t-2 -52q0 -88 24.5 -161.5t67.5 -127t102.5 -82t128.5 -28.5q88 0 154.5 35t124.5 121l22 -13q-66 -117 -154.5 -183.5 t-211.5 -66.5q-88 0 -163 34t-130 94.5t-86 141.5t-31 175zM160 1397h170l215 -379h-18zM213 608l442 2q0 53 -10 101.5t-33.5 84t-58.5 57t-82 21.5q-43 0 -83 -20t-74.5 -56t-61.5 -85t-39 -105z" />
<glyph unicode="&#xe9;" horiz-adv-x="872" d="M49 418q0 102 33 191t91 155.5t140 105.5t179 39q76 0 135 -21.5t100 -60.5t62.5 -90t21.5 -110q0 -14 -1 -26.5t-3 -27.5l-598 5q-4 -18 -6 -47t-2 -52q0 -88 24.5 -161.5t67.5 -127t102.5 -82t128.5 -28.5q88 0 154.5 35t124.5 121l22 -13q-66 -117 -154.5 -183.5 t-211.5 -66.5q-88 0 -163 34t-130 94.5t-86 141.5t-31 175zM213 608l442 2q0 53 -10 101.5t-33.5 84t-58.5 57t-82 21.5q-43 0 -83 -20t-74.5 -56t-61.5 -85t-39 -105zM377 1018l215 379h170l-365 -379h-20z" />
<glyph unicode="&#xea;" horiz-adv-x="872" d="M49 418q0 102 33 191t91 155.5t140 105.5t179 39q76 0 135 -21.5t100 -60.5t62.5 -90t21.5 -110q0 -14 -1 -26.5t-3 -27.5l-598 5q-4 -18 -6 -47t-2 -52q0 -88 24.5 -161.5t67.5 -127t102.5 -82t128.5 -28.5q88 0 154.5 35t124.5 121l22 -13q-66 -117 -154.5 -183.5 t-211.5 -66.5q-88 0 -163 34t-130 94.5t-86 141.5t-31 175zM187 1001l262 390h26l263 -390h-23l-250 240h-4l-252 -240h-22zM213 608l442 2q0 53 -10 101.5t-33.5 84t-58.5 57t-82 21.5q-43 0 -83 -20t-74.5 -56t-61.5 -85t-39 -105z" />
<glyph unicode="&#xeb;" horiz-adv-x="872" d="M49 418q0 102 33 191t91 155.5t140 105.5t179 39q76 0 135 -21.5t100 -60.5t62.5 -90t21.5 -110q0 -14 -1 -26.5t-3 -27.5l-598 5q-4 -18 -6 -47t-2 -52q0 -88 24.5 -161.5t67.5 -127t102.5 -82t128.5 -28.5q88 0 154.5 35t124.5 121l22 -13q-66 -117 -154.5 -183.5 t-211.5 -66.5q-88 0 -163 34t-130 94.5t-86 141.5t-31 175zM178 1157q0 33 23.5 69t72.5 36q51 0 74.5 -36t23.5 -69t-23.5 -65.5t-74.5 -32.5q-49 0 -72.5 32.5t-23.5 65.5zM213 608l442 2q0 53 -10 101.5t-33.5 84t-58.5 57t-82 21.5q-43 0 -83 -20t-74.5 -56t-61.5 -85 t-39 -105zM530 1157q0 33 24.5 69t73.5 36t73 -36t24 -69t-24 -65.5t-73 -32.5t-73.5 32.5t-24.5 65.5z" />
<glyph unicode="&#xec;" horiz-adv-x="475" d="M-66 1397h170l215 -379h-18zM31 815l4 21l276 69v-846q0 -12 14.5 -17t69.5 -9l51 -2l7 -31h-418l6 31l57 2q39 4 55.5 9t16.5 21v601q0 41 -3 66.5t-11.5 40.5t-23.5 22.5t-38 11.5z" />
<glyph unicode="&#xed;" horiz-adv-x="475" d="M31 815l4 21l276 69v-846q0 -12 14.5 -17t69.5 -9l51 -2l7 -31h-418l6 31l57 2q39 4 55.5 9t16.5 21v601q0 41 -3 66.5t-11.5 40.5t-23.5 22.5t-38 11.5zM154 1018l215 379h170l-365 -379h-20z" />
<glyph unicode="&#xee;" horiz-adv-x="475" d="M-12 1001l241 390h27l238 -390h-23l-227 240h-4l-230 -240h-22zM31 815l4 21l276 69v-846q0 -12 14.5 -17t69.5 -9l51 -2l7 -31h-418l6 31l57 2q39 4 55.5 9t16.5 21v601q0 41 -3 66.5t-11.5 40.5t-23.5 22.5t-38 11.5z" />
<glyph unicode="&#xef;" horiz-adv-x="475" d="M-30 1157q0 33 23.5 69t72.5 36q51 0 74.5 -36t23.5 -69t-23.5 -65.5t-74.5 -32.5q-49 0 -72.5 32.5t-23.5 65.5zM31 815l4 21l276 69v-846q0 -12 14.5 -17t69.5 -9l51 -2l7 -31h-418l6 31l57 2q39 4 55.5 9t16.5 21v601q0 41 -3 66.5t-11.5 40.5t-23.5 22.5t-38 11.5z M322 1157q0 33 24.5 69t73.5 36t73 -36t24 -69t-24 -65.5t-73 -32.5t-73.5 32.5t-24.5 65.5z" />
<glyph unicode="&#xf0;" horiz-adv-x="989" d="M41 436q0 100 34 186.5t93 150t140 99t175 35.5q125 0 215 -59q-41 86 -99 161.5t-142 135.5l-281 -92l4 43l234 78q-57 35 -125 59t-148 41l13 26q188 -25 338 -102q0 2 38.5 14.5t85.5 28.5q55 18 125 41l4 -43l-204 -68q98 -57 171.5 -133.5t125 -164t77 -181.5 t25.5 -188q0 -113 -33 -210t-92 -169t-142 -113t-186 -41q-98 0 -180 36t-141.5 98.5t-92 147.5t-32.5 183zM205 469q0 -217 79 -340t214 -123q125 0 200.5 106.5t75.5 305.5q0 102 -20.5 186t-59.5 143.5t-92 92t-119 32.5q-127 0 -202.5 -108.5t-75.5 -294.5z" />
<glyph unicode="&#xf1;" horiz-adv-x="1036" d="M31 815l2 21l278 69l-4 -170l6 -2q33 29 72 58.5t82 56t90 43t98 16.5q47 0 89 -14t71 -45q68 -68 68 -207v-580q0 -10 12 -16t74 -12l51 -2l6 -31h-414l6 31l54 2q47 4 59 11t12 19v533q0 111 -47 158t-139 47q-72 0 -135.5 -32t-112.5 -75v-262v-373q0 -12 15.5 -17 t70.5 -9l54 -2l6 -31h-418l6 31l53 2q41 4 57.5 9t16.5 21v601q0 41 -3 66.5t-11.5 40.5t-22.5 22.5t-37 11.5zM221 1049q14 111 50 159.5t106 48.5q41 0 86 -20t89 -44t83 -44.5t67 -20.5q35 0 60.5 21.5t40.5 93.5h22q-14 -109 -48.5 -160t-104.5 -51q-43 0 -88.5 20.5 t-88.5 45t-81.5 45t-67.5 20.5q-37 0 -62.5 -20.5t-37.5 -93.5h-25z" />
<glyph unicode="&#xf2;" horiz-adv-x="1013" d="M49 436q0 98 36 185.5t97.5 151t146.5 100t183 36.5t181 -34.5t143.5 -96t94.5 -145.5t34 -182q0 -100 -35 -188.5t-96.5 -153t-145.5 -101.5t-182 -37t-182 36t-145.5 98.5t-95.5 147.5t-34 183zM178 1397h170l215 -379h-18zM213 467q0 -123 28.5 -224.5t88.5 -160.5 q33 -35 78 -55.5t104 -20.5q63 0 116.5 33t91.5 89t59.5 132t21.5 160q0 117 -26.5 216t-86.5 159q-35 35 -80 57t-104 22q-66 0 -120 -32.5t-92 -89t-58.5 -130t-20.5 -155.5z" />
<glyph unicode="&#xf3;" horiz-adv-x="1013" d="M49 436q0 98 36 185.5t97.5 151t146.5 100t183 36.5t181 -34.5t143.5 -96t94.5 -145.5t34 -182q0 -100 -35 -188.5t-96.5 -153t-145.5 -101.5t-182 -37t-182 36t-145.5 98.5t-95.5 147.5t-34 183zM213 467q0 -123 28.5 -224.5t88.5 -160.5q33 -35 78 -55.5t104 -20.5 q63 0 116.5 33t91.5 89t59.5 132t21.5 160q0 117 -26.5 216t-86.5 159q-35 35 -80 57t-104 22q-66 0 -120 -32.5t-92 -89t-58.5 -130t-20.5 -155.5zM442 1018l215 379h170l-365 -379h-20z" />
<glyph unicode="&#xf4;" horiz-adv-x="1013" d="M49 436q0 98 36 185.5t97.5 151t146.5 100t183 36.5t181 -34.5t143.5 -96t94.5 -145.5t34 -182q0 -100 -35 -188.5t-96.5 -153t-145.5 -101.5t-182 -37t-182 36t-145.5 98.5t-95.5 147.5t-34 183zM213 467q0 -123 28.5 -224.5t88.5 -160.5q33 -35 78 -55.5t104 -20.5 q63 0 116.5 33t91.5 89t59.5 132t21.5 160q0 117 -26.5 216t-86.5 159q-35 35 -80 57t-104 22q-66 0 -120 -32.5t-92 -89t-58.5 -130t-20.5 -155.5zM232 1001l262 390h26l263 -390h-23l-250 240h-4l-252 -240h-22z" />
<glyph unicode="&#xf5;" horiz-adv-x="1013" d="M49 436q0 98 36 185.5t97.5 151t146.5 100t183 36.5t181 -34.5t143.5 -96t94.5 -145.5t34 -182q0 -100 -35 -188.5t-96.5 -153t-145.5 -101.5t-182 -37t-182 36t-145.5 98.5t-95.5 147.5t-34 183zM205 1049q14 111 50 159.5t106 48.5q41 0 86 -20t89 -44t83 -44.5 t67 -20.5q35 0 60.5 21.5t40.5 93.5h22q-14 -109 -48.5 -160t-104.5 -51q-43 0 -88.5 20.5t-88.5 45t-81.5 45t-67.5 20.5q-37 0 -62.5 -20.5t-37.5 -93.5h-25zM213 467q0 -123 28.5 -224.5t88.5 -160.5q33 -35 78 -55.5t104 -20.5q63 0 116.5 33t91.5 89t59.5 132t21.5 160 q0 117 -26.5 216t-86.5 159q-35 35 -80 57t-104 22q-66 0 -120 -32.5t-92 -89t-58.5 -130t-20.5 -155.5z" />
<glyph unicode="&#xf6;" horiz-adv-x="1013" d="M49 436q0 98 36 185.5t97.5 151t146.5 100t183 36.5t181 -34.5t143.5 -96t94.5 -145.5t34 -182q0 -100 -35 -188.5t-96.5 -153t-145.5 -101.5t-182 -37t-182 36t-145.5 98.5t-95.5 147.5t-34 183zM213 467q0 -123 28.5 -224.5t88.5 -160.5q33 -35 78 -55.5t104 -20.5 q63 0 116.5 33t91.5 89t59.5 132t21.5 160q0 117 -26.5 216t-86.5 159q-35 35 -80 57t-104 22q-66 0 -120 -32.5t-92 -89t-58.5 -130t-20.5 -155.5zM234 1157q0 33 23.5 69t72.5 36q51 0 74.5 -36t23.5 -69t-23.5 -65.5t-74.5 -32.5q-49 0 -72.5 32.5t-23.5 65.5zM586 1157 q0 33 24.5 69t73.5 36t73 -36t24 -69t-24 -65.5t-73 -32.5t-73.5 32.5t-24.5 65.5z" />
<glyph unicode="&#xf7;" horiz-adv-x="1124" d="M68 479q0 111 37.5 205t103 161.5t157 106.5t197.5 39t196.5 -38t157 -105.5t103.5 -160.5t37 -204t-38 -204t-104.5 -160.5t-158 -105.5t-197.5 -38t-196.5 38t-156 104.5t-102 159t-36.5 202.5zM115 481q0 -98 33.5 -183t93 -146.5t141.5 -96.5t178 -35t178 35 t141.5 97.5t93.5 147.5t34 183t-34 183.5t-93.5 148t-140.5 98t-177 35.5t-178 -35.5t-142.5 -98t-94 -148.5t-33.5 -185z" />
<glyph unicode="&#xf8;" horiz-adv-x="1013" d="M49 436q0 98 36 185.5t97.5 151t146.5 100t183 36.5q59 0 111.5 -13t99.5 -36l178 309h39l-188 -325q98 -59 155.5 -161.5t57.5 -231.5q0 -100 -35 -188.5t-96.5 -153t-145.5 -101.5t-182 -37q-125 0 -227 58l-160 -275h-37l168 291q-94 61 -147.5 162.5t-53.5 228.5z M213 467q0 -104 20.5 -192.5t61.5 -151.5l391 674q-35 35 -79 56t-103 21q-66 0 -120 -32.5t-92 -89t-58.5 -130t-20.5 -155.5zM317 96q4 -6 13 -14q33 -35 78 -55.5t104 -20.5q63 0 116.5 33t91.5 89t59.5 132t21.5 160q0 106 -22.5 198.5t-69.5 151.5z" />
<glyph unicode="&#xf9;" horiz-adv-x="991" d="M0 881h287l-4 -596q0 -111 48 -159t140 -48q74 0 133.5 31.5t106.5 72.5v256v330q0 47 -16.5 60.5t-69.5 17.5l-54 6l-6 29h289v-758q0 -29 7 -40t34 -15l100 -17l-2 -22l-280 -62l2 176h-4q-33 -29 -71 -59.5t-81 -55t-89 -41t-97 -16.5q-98 0 -166 62q-63 70 -64 207 v579q0 6 -2 10.5t-10 7.5t-25.5 5t-50.5 4l-49 6zM205 1397h170l215 -379h-18z" />
<glyph unicode="&#xfa;" horiz-adv-x="991" d="M0 881h287l-4 -596q0 -111 48 -159t140 -48q74 0 133.5 31.5t106.5 72.5v256v330q0 47 -16.5 60.5t-69.5 17.5l-54 6l-6 29h289v-758q0 -29 7 -40t34 -15l100 -17l-2 -22l-280 -62l2 176h-4q-33 -29 -71 -59.5t-81 -55t-89 -41t-97 -16.5q-98 0 -166 62q-63 70 -64 207 v579q0 6 -2 10.5t-10 7.5t-25.5 5t-50.5 4l-49 6zM422 1018l215 379h170l-365 -379h-20z" />
<glyph unicode="&#xfb;" horiz-adv-x="991" d="M0 881h287l-4 -596q0 -111 48 -159t140 -48q74 0 133.5 31.5t106.5 72.5v256v330q0 47 -16.5 60.5t-69.5 17.5l-54 6l-6 29h289v-758q0 -29 7 -40t34 -15l100 -17l-2 -22l-280 -62l2 176h-4q-33 -29 -71 -59.5t-81 -55t-89 -41t-97 -16.5q-98 0 -166 62q-63 70 -64 207 v579q0 6 -2 10.5t-10 7.5t-25.5 5t-50.5 4l-49 6zM211 1001l262 390h26l263 -390h-23l-250 240h-4l-252 -240h-22z" />
<glyph unicode="&#xfc;" horiz-adv-x="991" d="M0 881h287l-4 -596q0 -111 48 -159t140 -48q74 0 133.5 31.5t106.5 72.5v256v330q0 47 -16.5 60.5t-69.5 17.5l-54 6l-6 29h289v-758q0 -29 7 -40t34 -15l100 -17l-2 -22l-280 -62l2 176h-4q-33 -29 -71 -59.5t-81 -55t-89 -41t-97 -16.5q-98 0 -166 62q-63 70 -64 207 v579q0 6 -2 10.5t-10 7.5t-25.5 5t-50.5 4l-49 6zM219 1157q0 33 23.5 69t72.5 36q51 0 74.5 -36t23.5 -69t-23.5 -65.5t-74.5 -32.5q-49 0 -72.5 32.5t-23.5 65.5zM571 1157q0 33 24.5 69t73.5 36t73 -36t24 -69t-24 -65.5t-73 -32.5t-73.5 32.5t-24.5 65.5z" />
<glyph unicode="&#xfd;" horiz-adv-x="917" d="M-20 879h411l-4 -29l-47 -4q-47 -4 -57.5 -23.5t8.5 -66.5l239 -580l177 486q20 55 27 89.5t0 53t-29.5 27t-63.5 12.5l-47 6l-6 29h350l-6 -29l-43 -4q-29 -2 -46.5 -10.5t-31.5 -30t-29.5 -60t-40.5 -104.5l-237 -635l-76 -242q-47 -147 -102.5 -219.5t-147.5 -72.5 q-51 0 -86 27.5t-35 68.5t27 67.5t68 26.5q43 0 69.5 -26.5t36.5 -67.5q47 12 78 68.5t65 162.5l60 183v2l-326 757q-14 31 -23.5 50.5t-19.5 31t-22.5 15.5t-34.5 6l-49 6zM397 1018l215 379h170l-365 -379h-20z" />
<glyph unicode="&#xfe;" horiz-adv-x="989" d="M-31 1303l2 22l281 68v-662l6 -4q63 72 140 122t175 50q78 0 145.5 -31.5t117 -89t77 -136.5t27.5 -173q0 -111 -38 -203t-102.5 -157.5t-146.5 -101.5t-172 -36q-66 0 -123 15.5t-100 33.5h-6v-477q0 -10 14.5 -15t73.5 -9l84 -2l6 -31h-450l6 31l55 2q39 4 55.5 9 t16.5 21v1645q0 47 -12.5 65.5t-53.5 26.5zM252 170q41 -66 108.5 -112t145.5 -46q63 0 113.5 31t86 84t55 127t19.5 160q0 82 -20.5 152.5t-57 122.5t-90 82t-118.5 30q-76 0 -135.5 -37t-106.5 -88v-506z" />
<glyph unicode="&#xff;" horiz-adv-x="917" d="M-20 879h411l-4 -29l-47 -4q-47 -4 -57.5 -23.5t8.5 -66.5l239 -580l177 486q20 55 27 89.5t0 53t-29.5 27t-63.5 12.5l-47 6l-6 29h350l-6 -29l-43 -4q-29 -2 -46.5 -10.5t-31.5 -30t-29.5 -60t-40.5 -104.5l-237 -635l-76 -242q-47 -147 -102.5 -219.5t-147.5 -72.5 q-51 0 -86 27.5t-35 68.5t27 67.5t68 26.5q43 0 69.5 -26.5t36.5 -67.5q47 12 78 68.5t65 162.5l60 183v2l-326 757q-14 31 -23.5 50.5t-19.5 31t-22.5 15.5t-34.5 6l-49 6zM203 1157q0 33 23.5 69t72.5 36q51 0 74.5 -36t23.5 -69t-23.5 -65.5t-74.5 -32.5 q-49 0 -72.5 32.5t-23.5 65.5zM555 1157q0 33 24.5 69t73.5 36t73 -36t24 -69t-24 -65.5t-73 -32.5t-73.5 32.5t-24.5 65.5z" />
<glyph unicode="&#x152;" horiz-adv-x="1884" d="M68 618q0 141 50 261t148.5 209.5t243.5 139.5t336 50l870 2l27 -365h-29l-22 84q-23 63 -47.5 109.5t-66.5 76t-107.5 44t-167.5 14.5h-191v-561l125 2q70 2 114 7t72.5 18.5t44 38t27.5 63.5l23 59l26 -2l-41 -413l-26 2l-7 57q-2 43 -13 67.5t-37.5 38t-73 18.5 t-121.5 7l-113 2v-604l207 -6q115 2 188.5 21.5t121.5 54t76 82t50 104.5l25 80l35 -2l-72 -377h-940q-176 -2 -313.5 43t-230.5 126t-142 195.5t-49 253.5zM240 666q0 -131 35.5 -246t109.5 -199t185.5 -132t265.5 -48h118v1169l-157 31q-139 -2 -243.5 -49t-174.5 -126 t-104.5 -182.5t-34.5 -217.5z" />
<glyph unicode="&#x153;" horiz-adv-x="1624" d="M49 436q0 98 36 185.5t98.5 151t146.5 100t182 36.5q123 0 220 -55t155 -154q57 96 149 152.5t209 56.5q74 0 133.5 -21.5t101.5 -60.5t63.5 -90t21.5 -110q0 -25 -6 -54q-166 0 -297 2q-55 0 -109.5 1.5t-96.5 1.5h-68h-27q-4 -18 -5.5 -47t-1.5 -52q0 -88 25 -161.5 t68 -127t102 -82t127 -28.5q88 0 155.5 35t124.5 121l23 -13q-66 -117 -157 -183.5t-214 -66.5q-113 0 -195.5 54.5t-135.5 146.5q-59 -92 -155.5 -147.5t-215.5 -55.5q-98 0 -182 36t-145.5 98.5t-95.5 147.5t-34 183zM213 463q0 -119 29.5 -219.5t87.5 -159.5 q33 -35 78 -56.5t104 -21.5q63 0 116.5 33t91.5 88t59.5 131t21.5 162q0 117 -26.5 215t-84.5 158q-35 35 -81 58t-105 23q-66 0 -120 -32.5t-92 -88t-58.5 -130t-20.5 -160.5zM967 608l442 4q0 53 -11.5 101.5t-34 84.5t-58 56t-82.5 20q-43 0 -83 -20t-75 -56t-60.5 -85 t-37.5 -105z" />
<glyph unicode="&#x178;" horiz-adv-x="1243" d="M-10 1280h524l-6 -31l-78 -4q-66 -4 -70 -32.5t39 -102.5l277 -483h6l221 401q33 61 48.5 100t11 64t-28 36t-70.5 17l-65 4l-6 31h440l-6 -31l-58 -4q-33 -4 -56 -12t-47 -29.5t-49.5 -60.5t-62.5 -107l-252 -446v-527q0 -10 16.5 -15t82.5 -11l100 -6l6 -31h-569l6 31 l117 8q45 4 63.5 12t18.5 19v493l-328 559q-35 63 -64.5 90t-84.5 31l-70 6zM363 1499q0 33 23.5 69t72.5 36q51 0 74.5 -36t23.5 -69t-23.5 -65.5t-74.5 -32.5q-49 0 -72.5 32.5t-23.5 65.5zM715 1499q0 33 24.5 69t73.5 36t73 -36t24 -69t-24 -65.5t-73 -32.5t-73.5 32.5 t-24.5 65.5z" />
<glyph unicode="&#x2c6;" horiz-adv-x="776" d="M113 1001l262 390h26l263 -390h-23l-250 240h-4l-252 -240h-22z" />
<glyph unicode="&#x2dc;" horiz-adv-x="776" d="M86 1049q14 111 50 159.5t106 48.5q41 0 86 -20t89 -44t83 -44.5t67 -20.5q35 0 60.5 21.5t40.5 93.5h22q-14 -109 -48.5 -160t-104.5 -51q-43 0 -88.5 20.5t-88.5 45t-81.5 45t-67.5 20.5q-37 0 -62.5 -20.5t-37.5 -93.5h-25z" />
<glyph unicode="&#x2000;" horiz-adv-x="871" />
<glyph unicode="&#x2001;" horiz-adv-x="1743" />
<glyph unicode="&#x2002;" horiz-adv-x="871" />
<glyph unicode="&#x2003;" horiz-adv-x="1743" />
<glyph unicode="&#x2004;" horiz-adv-x="581" />
<glyph unicode="&#x2005;" horiz-adv-x="435" />
<glyph unicode="&#x2006;" horiz-adv-x="290" />
<glyph unicode="&#x2007;" horiz-adv-x="290" />
<glyph unicode="&#x2008;" horiz-adv-x="217" />
<glyph unicode="&#x2009;" horiz-adv-x="348" />
<glyph unicode="&#x200a;" horiz-adv-x="96" />
<glyph unicode="&#x2010;" horiz-adv-x="602" d="M47 449l6 75h502l-2 -75h-506z" />
<glyph unicode="&#x2011;" horiz-adv-x="602" d="M47 449l6 75h502l-2 -75h-506z" />
<glyph unicode="&#x2012;" horiz-adv-x="602" d="M47 449l6 75h502l-2 -75h-506z" />
<glyph unicode="&#x2013;" horiz-adv-x="899" d="M23 446l6 74h845l-2 -74h-849z" />
<glyph unicode="&#x2014;" horiz-adv-x="1859" d="M23 446l6 74h1808l-2 -74h-1812z" />
<glyph unicode="&#x2018;" horiz-adv-x="376" d="M53 1018q0 49 20.5 95t55.5 88t82 77t100 59l17 -14q-31 -20 -59.5 -44t-52 -53.5t-38 -63.5t-14.5 -75t19.5 -66.5t46 -38.5t52 -17t37.5 -2q4 -18 -1 -38t-19 -36.5t-35.5 -26.5t-52.5 -10q-66 0 -112 44t-46 122z" />
<glyph unicode="&#x2019;" horiz-adv-x="374" d="M49 860q29 18 58.5 42t52 52.5t37 62.5t14.5 73q0 43 -19.5 68.5t-46 38.5t-51 17.5t-37.5 4.5q-2 18 3.5 37.5t18.5 36t35.5 27.5t53.5 11q63 0 108.5 -47t45.5 -125q0 -49 -20.5 -95t-55.5 -87t-81 -75t-97 -58z" />
<glyph unicode="&#x201a;" horiz-adv-x="374" d="M49 -244q29 18 58.5 42t52 52.5t37 62.5t14.5 73q0 43 -19.5 68.5t-46 38.5t-51 17.5t-37.5 4.5q-2 18 3.5 37.5t18.5 36t35.5 27.5t53.5 11q63 0 108.5 -47t45.5 -125q0 -49 -20.5 -95t-55.5 -87t-81 -75t-97 -58z" />
<glyph unicode="&#x201c;" horiz-adv-x="718" d="M53 1018q0 49 20.5 95t55.5 88t82 77t100 59l17 -14q-31 -20 -59.5 -44t-52 -53.5t-38 -63.5t-14.5 -75t19.5 -66.5t46 -38.5t52 -17t37.5 -2q4 -18 -1 -38t-19 -36.5t-35.5 -26.5t-52.5 -10q-66 0 -112 44t-46 122zM401 1018q0 49 20.5 95t56.5 88t82 77t97 59l19 -14 q-31 -20 -59.5 -44t-52 -53.5t-38 -63.5t-14.5 -75t19.5 -66.5t46 -38.5t51 -17t37.5 -2q4 -18 -1.5 -38t-18.5 -36.5t-35.5 -26.5t-53.5 -10q-63 0 -109.5 44t-46.5 122z" />
<glyph unicode="&#x201d;" horiz-adv-x="716" d="M49 860q29 18 58.5 42t52 52.5t37 62.5t14.5 73q0 43 -19.5 68.5t-46 38.5t-51 17.5t-37.5 4.5q-2 18 3.5 37.5t18.5 36t35.5 27.5t53.5 11q63 0 108.5 -47t45.5 -125q0 -49 -20.5 -95t-55.5 -87t-81 -75t-97 -58zM397 860q29 18 58.5 42t52 52.5t37 62.5t14.5 73 q0 43 -19.5 68.5t-46 38.5t-51 17.5t-36.5 4.5q-2 18 3 37.5t18 36t34.5 27.5t52.5 11q66 0 111 -47t45 -125q0 -49 -20.5 -95t-55.5 -87t-81 -75t-99 -58z" />
<glyph unicode="&#x201e;" horiz-adv-x="716" d="M49 -244q29 18 58.5 42t52 52.5t37 62.5t14.5 73q0 43 -19.5 68.5t-46 38.5t-51 17.5t-37.5 4.5q-2 18 3.5 37.5t18.5 36t35.5 27.5t53.5 11q63 0 108.5 -47t45.5 -125q0 -49 -20.5 -95t-55.5 -87t-81 -75t-97 -58zM397 -244q29 18 58.5 42t52 52.5t37 62.5t14.5 73 q0 43 -19.5 68.5t-46 38.5t-51 17.5t-36.5 4.5q-2 18 3 37.5t18 36t34.5 27.5t52.5 11q66 0 111 -47t45 -125q0 -49 -20.5 -95t-55.5 -87t-81 -75t-99 -58z" />
<glyph unicode="&#x2022;" horiz-adv-x="888" d="M51 475q0 23 12.5 63t31 83t39 80.5t34.5 52.5q16 16 53 35.5t80 37t84 29.5t61 12q23 0 63 -12t83 -29.5t81 -37t52 -35.5q16 -14 35.5 -52t37 -81t30 -83t12.5 -63t-12.5 -62.5t-30 -82.5t-37 -80t-35.5 -53q-14 -16 -52 -37t-81 -38.5t-84 -29.5t-64 -12q-20 0 -61 12 t-84 29.5t-80 38t-51 37.5q-14 16 -34.5 53t-39 80t-31 83t-12.5 62z" />
<glyph unicode="&#x2026;" horiz-adv-x="1206" d="M213 84q0 43 31.5 76t81.5 33q49 0 79.5 -33t30.5 -76q0 -45 -30.5 -78t-79.5 -33t-81 33t-32 78zM492 84q0 43 31.5 76t80.5 33t80 -33t31 -76q0 -45 -31 -78t-80 -33t-80.5 33t-31.5 78zM770 84q0 43 32 76t81 33t79.5 -33t30.5 -76q0 -45 -30.5 -78t-79.5 -33t-81 33 t-32 78z" />
<glyph unicode="&#x202f;" horiz-adv-x="348" />
<glyph unicode="&#x2039;" horiz-adv-x="524" d="M41 436v35l420 340l10 -16l-276 -340l276 -340l-8 -19z" />
<glyph unicode="&#x203a;" horiz-adv-x="524" d="M53 115l277 340l-277 340l13 16l419 -340v-35l-422 -340z" />
<glyph unicode="&#x205f;" horiz-adv-x="435" />
<glyph unicode="&#x20ac;" horiz-adv-x="999" d="M10 451l6 36h119q-6 61 -6 115q0 29 2 57.5t6 53.5h-127l6 39h127q20 123 69.5 223t121.5 171t160 109.5t184 38.5q127 0 206 -47t79 -121q0 -37 -27 -63.5t-64 -26.5q-35 0 -56 17.5t-30.5 43t-6.5 53.5t16 48q-16 20 -49 39.5t-87 19.5q-74 0 -137 -37.5t-112.5 -104 t-82 -160t-42.5 -203.5h415l7 -39h-426q0 -16 -1 -35t-1 -35q0 -76 12 -156h409l7 -36h-408q18 -88 53 -159t84 -119t107.5 -73.5t122.5 -25.5q193 0 299 178l22 -14q-66 -119 -157 -193t-224 -74q-84 0 -160.5 34t-138 96.5t-104.5 150.5t-62 199h-131z" />
<glyph unicode="&#x2122;" horiz-adv-x="1136" d="M47 1135l16 145h402l8 -145h-18l-9 34q-18 45 -41.5 66.5t-82.5 21.5h-23v-395q0 -4 5 -5t22 -5l43 -4l2 -23h-224l5 23l49 4q23 2 22 12v393h-20q-57 -2 -83 -25.5t-44 -64.5l-10 -32h-19zM516 825l4 23l33 2q23 2 30 11t7 48l10 326q-6 10 -12 13t-19 5l-39 7l-2 20 h162l113 -344h8l123 344h166l-4 -20l-45 -7q-20 -2 -21 -12l8 -364q2 -14 6.5 -17.5t22.5 -7.5l37 -4l2 -23h-209v23l43 4q12 4 16.5 8t1.5 19l-6 360h-6l-151 -405h-29l-135 397h-4q-2 0 -2 1t-2 1l-9 -326q0 -37 7.5 -46t31.5 -11l33 -2l2 -23h-172z" />
<glyph unicode="&#x25fc;" horiz-adv-x="880" d="M0 0v881h881v-881h-881z" />
<glyph unicode="&#xfb01;" horiz-adv-x="1028" d="M20 803l25 76h129l4 51q8 111 47 194.5t97.5 140t133 85t154.5 28.5q78 0 129.5 -32.5t51.5 -92.5q0 -35 -24 -59.5t-62 -24.5q-53 0 -86 41t-31 105l-80 20q-100 -29 -144.5 -123t-44.5 -249v-84h375l164 24v-844q0 -12 14.5 -17t71.5 -9l51 -2l4 -31h-415l6 31l57 2 q41 4 56.5 9t15.5 21v738h-400v-742q0 -12 11.5 -17t66.5 -9l92 -2l7 -31h-451l6 31l55 2q39 4 55.5 9t16.5 21v736z" />
<glyph unicode="&#xfb02;" horiz-adv-x="1026" d="M20 803l25 76h129l4 51q8 111 46 194.5t96.5 140t133 85t154.5 28.5q78 1 127 -32q0 2 19.5 8t42.5 16q27 10 61 23v-1334q0 -12 14.5 -17t71.5 -9l51 -2l4 -31h-415l6 31l55 2q41 4 57.5 9t16.5 21v738h-400v-742q0 -12 11.5 -17t66.5 -9l92 -2l7 -31h-451l6 31l55 2 q39 4 55.5 9t16.5 21v736zM319 879h400v297q-6 -2 -17 -2q-53 0 -87.5 39.5t-32.5 99.5l-76 22q-100 -29 -143.5 -123t-43.5 -249v-84z" />
</font>
</defs>
</svg>
