<?xml  version="1.0" encoding="UTF-8"?>
<!DOCTYPE svg PUBLIC "-//W3C//DTD SVG 1.0//EN" "http://www.w3.org/TR/2001/REC-SVG-20010904/DTD/svg10.dtd" >
<svg xmlns="http://www.w3.org/2000/svg" >
<metadata>
<version>1.0</version>
<id><![CDATA[Didot eText W01 Italic]]></id>
<vendor>Monotype Imaging Inc.</vendor>
<credits>
<name>Fonts.com WebFonts</name>
<URL>http://webfonts.fonts.com</URL>
<role>Home of the Web fonts</role>
</credits>
<license>
<URL>http://webfonts.fonts.com/Legal</URL>
</license>
<copyright><![CDATA[Copyright (c) 2012, 2013 Monotype Imaging Inc. All rights reserved.]]></copyright>
<trademark><![CDATA[Didot eText is a trademark of Monotype Imaging Inc and maybe registered in certain jurisdictions.]]></trademark>
<licensee>
<name></name>
</licensee>
</metadata>
<defs >
<font horiz-adv-x="542" id="bc4d1b74-fa95-4002-94b6-52a2d440ab6e">
<font-face font-family="" panose-1="2 0 5 4 9 0 0 9 0 3" ascent="951" descent="-290" units-per-em="1000" alphabetic="0">
</font-face>
<missing-glyph horiz-adv-x="500" d="M12 665H487V0H12V665ZM250 375L411 618H88L250 375ZM60 91Q60 91 67 101T85 128T110 167T140 212Q175 266 221 333L60 575V91ZM278 333L440 90V575L278 333ZM250 290L88 48H411L250 290Z"  />

<glyph unicode="&#xA;" />
<glyph unicode="&#xD;" />
<glyph unicode=" " horiz-adv-x="241" />
<glyph unicode="!" horiz-adv-x="315" d="M109 182L203 668Q208 695 220 710T255 725Q277 725 290 712T303 678Q303 663 296 645L134 176L109 182ZM30 40Q30 62 45 77T83 93Q105 93 120 78T136 40Q136 18 121 3T83 -13Q61 -13 46 2T30 40Z"  />
<glyph unicode="&quot;" horiz-adv-x="420" d="M202 676Q210 705 220 717T249 730Q275 730 275 706Q275 692 262 663L171 441H137L202 676ZM344 676Q352 705 362 717T391 730Q417 730 417 706Q417 692 404 663L313 441H279L344 676Z"  />
<glyph unicode="#" horiz-adv-x="556" d="M303 227H154L72 0H31L113 227H-9L5 265H127L192 443H67L81 481H206L290 712H331L247 481H396L480 712H521L437 481H557L543 443H423L358 265H482L468 227H344L262 0H221L303 227ZM168 265H317L382 443H233L168 265Z"  />
<glyph unicode="$" horiz-adv-x="630" d="M204 -13Q180 -10 160 -4T125 10T97 22T74 27Q45 27 30 -8L0 0L53 198H85Q83 184 82 176T81 156Q81 106 115 67T213 20L299 340L267 367Q169 447 169 539Q169 581 185 615T230 673T301 711T395 725H403L418 781H450L434 722Q454 719 469 714T496 704T519 695T542 691Q568 691 579 720L609 712L561 530H527Q529 538 530 551T532 576Q532 627 503 655T425 691L350 411L398 373Q432 345 453 324T487 282T503 242T508 197Q508 140 478 95T396 21Q362 1 323 -6T235 -14L216 -87H184L204 -13ZM325 319L244 18Q284 18 318 28T377 56T417 102T432 163Q432 197 419 226T364 288L325 319ZM239 568Q239 535 254 506T304 449L324 432L394 693Q361 693 333 686T284 663T251 624T239 568Z"  />
<glyph unicode="%" horiz-adv-x="792" d="M249 704Q306 704 338 670T371 583Q371 542 356 504T315 435T254 387T179 368Q127 368 94 399T60 491Q60 522 73 559T110 629T170 682T249 704ZM246 672Q213 672 189 653T150 603T127 537T120 467Q120 435 136 418T183 400Q214 400 237 420T277 470T302 538T311 608Q311 637 296 654T246 672ZM601 723L633 705L200 -18L168 0L601 723ZM610 322Q667 322 699 288T732 201Q732 160 717 122T676 53T615 5T540 -14Q488 -14 455 17T421 109Q421 140 434 177T471 247T531 300T610 322ZM607 290Q574 290 550 271T511 221T488 155T481 85Q481 53 497 36T544 18Q575 18 598 38T638 88T663 156T672 226Q672 255 657 272T607 290Z"  />
<glyph unicode="&amp;" horiz-adv-x="874" d="M765 210Q714 -14 580 -14Q531 -14 490 13T417 86Q381 29 343 8T254 -14Q217 -14 182 0T118 40T73 105T56 190Q56 414 340 500Q357 606 403 665T513 725Q556 725 579 702T603 644Q603 601 558 561T421 489Q423 417 432 341T459 199H461Q493 269 518 315T568 389T616 428T670 440Q715 440 741 415T767 352Q767 329 754 316T719 303Q698 303 691 311T683 336Q683 350 687 359T691 384Q691 408 661 408Q640 408 620 396T577 354T529 277T471 158Q494 81 521 50T589 18Q640 18 677 70T734 217L765 210ZM271 18Q307 18 339 40T401 111Q367 168 349 239T331 384Q331 406 332 426T335 466Q264 443 215 409Q180 386 166 355T152 275Q152 154 183 86T271 18ZM521 693Q469 693 446 654T421 521Q502 550 536 582T571 645Q571 667 558 680T521 693Z"  />
<glyph unicode="&apos;" horiz-adv-x="278" d="M202 676Q210 705 220 717T249 730Q275 730 275 706Q275 692 262 663L171 441H137L202 676Z"  />
<glyph unicode="(" horiz-adv-x="294" d="M107 -295Q77 -213 63 -137T48 21Q48 126 70 226T136 416T242 585T386 728L410 708Q331 644 270 567T168 402T106 218T84 21Q84 -57 97 -130T140 -279L107 -295Z"  />
<glyph unicode=")" horiz-adv-x="294" d="M139 728Q169 646 183 570T198 412Q198 307 176 207T110 17T4 -152T-140 -295L-164 -275Q-85 -211 -24 -134T78 31T140 215T162 412Q162 490 149 563T106 712L139 728Z"  />
<glyph unicode="*" horiz-adv-x="444" d="M269 534Q309 550 337 566T385 599Q401 613 417 613Q434 613 446 601T459 571Q459 554 447 542T418 530Q408 530 395 533T356 536Q345 536 337 536T320 535T300 533T270 528Q306 499 334 482T390 457Q418 449 418 418Q418 401 406 389T376 376Q346 376 333 416Q325 438 308 465T266 524Q261 493 260 477T258 440Q258 425 259 415T261 398T264 386T265 376Q265 359 253 347T223 335Q206 335 194 347T182 377Q182 387 185 393T201 414Q231 450 260 526Q217 509 188 493T139 458Q128 447 112 447Q95 447 83 459T70 489Q70 506 81 518T110 530Q116 530 121 529T133 527T149 525T173 524Q183 524 191 524T209 525T229 527T258 532Q227 557 200 574T151 599Q128 607 120 616T111 642Q111 659 123 671T152 684Q170 684 179 676T196 643Q213 597 263 536Q268 567 269 584T270 621Q270 647 267 659T264 683Q264 700 276 712T306 725Q323 725 335 713T347 683Q347 673 344 666T328 645Q297 609 269 534Z"  />
<glyph unicode="+" horiz-adv-x="593" d="M280 224H57V256H280V479H314V256H536V224H314V0H280V224Z"  />
<glyph unicode="&#x2c;" horiz-adv-x="292" d="M-32 -143Q-9 -136 11 -125T47 -98T72 -66T81 -29Q81 -15 77 -6Q67 -13 53 -13Q30 -13 15 2T-1 41Q-1 63 16 78T59 93Q90 93 109 68T129 8Q129 -58 90 -101T-23 -172L-32 -143Z"  />
<glyph unicode="-" horiz-adv-x="420" d="M73 264H297L281 204H57L73 264Z"  />
<glyph unicode="." horiz-adv-x="295" d="M6 44Q6 67 22 83T61 100Q84 100 100 84T117 44Q117 21 101 5T61 -11Q38 -11 22 5T6 44Z"  />
<glyph unicode="/" horiz-adv-x="312" d="M-77 -5L355 734L389 715L-43 -24L-77 -5Z"  />
<glyph unicode="0" horiz-adv-x="507" d="M336 704Q370 704 397 689T444 645T473 579T483 494Q483 395 454 304T378 142T278 29T173 -14Q104 -14 65 42T25 199Q25 259 38 320T73 437T125 542T189 627T261 683T336 704ZM331 672Q297 672 267 641T210 560T163 449T128 329T105 218T97 136Q97 79 119 49T178 18Q210 18 240 49T296 129T343 238T379 358T402 468T411 550Q411 610 389 641T331 672Z"  />
<glyph unicode="1" horiz-adv-x="507" d="M150 32L309 604Q278 584 238 562T152 520L137 547Q299 620 388 704H414L226 32H333L324 0H45L54 32H150Z"  />
<glyph unicode="2" horiz-adv-x="507" d="M-72 21Q-44 46 -6 83T73 161T150 239T214 305Q260 353 290 391T339 460T365 517T373 570Q373 613 348 642T268 672Q244 672 224 665T190 647T168 622T160 592Q160 581 163 573T166 552Q166 535 155 524T124 512Q104 512 92 525T80 559Q80 585 97 611T141 657T205 691T280 704Q319 704 351 692T408 658T445 609T459 548Q459 496 428 445T322 330L23 72H264Q302 72 320 82T347 119L356 148H389L350 0H-63L-72 21Z"  />
<glyph unicode="3" horiz-adv-x="507" d="M122 369Q174 380 208 392T271 421Q316 447 340 490T365 588Q365 628 346 650T289 672Q210 672 210 606Q210 574 198 561T160 547Q145 547 137 557T128 586Q128 609 141 630T176 668T228 694T291 704Q325 704 354 694T405 667T439 626T451 576Q451 515 392 463T229 374L230 371Q311 371 352 336T394 238Q394 191 366 145T294 61T194 0T84 -24Q27 -24 -4 -4T-35 46Q-35 77 1 77Q16 77 24 71T47 45Q61 25 75 17T117 8Q153 8 187 28T248 82T291 158T308 245Q308 290 281 318T206 347Q167 347 131 334L122 369Z"  />
<glyph unicode="4" horiz-adv-x="507" d="M464 632Q390 577 328 525T213 419T113 312T26 198H266L334 449H416L348 198H454L445 165H339L304 32H384L375 0H134L143 32H222L257 165H-31Q44 279 148 401T383 663Q396 677 405 685T422 697T440 703T463 704Q506 704 506 682Q506 677 505 673T500 664T488 651T464 632Z"  />
<glyph unicode="5" horiz-adv-x="507" d="M208 695Q240 693 283 692T372 690Q404 690 424 697T464 732L485 717Q466 684 450 664T417 632T384 618T347 614Q310 614 282 615T221 619L172 447Q281 441 338 397T396 272Q396 218 369 164T298 67T196 -3T79 -30Q29 -30 -5 -14T-40 32Q-40 48 -30 60T-3 72Q17 72 26 63T48 34Q59 17 72 13T110 8Q150 8 186 27T251 80T295 155T312 244Q312 315 266 343T119 371L208 695Z"  />
<glyph unicode="6" horiz-adv-x="507" d="M174 401Q200 421 224 430T277 439Q309 439 336 425T384 386T416 329T428 261Q428 214 409 166T355 77T276 12T178 -14Q105 -14 64 33T23 164Q23 222 39 285T83 408T148 521T228 616T314 680T401 704Q425 704 445 697T479 677T502 648T511 613Q511 590 499 577T467 563Q447 563 435 572T423 597Q423 607 425 615T427 635Q427 666 385 666Q362 666 339 658T292 627T245 568T199 472L172 403L174 401ZM155 356Q141 320 131 284T113 214T101 152T97 102Q97 60 119 39T180 18Q218 18 247 40T302 121Q312 143 321 169T337 222T348 274T352 318Q352 360 329 383T264 407Q237 407 211 394T155 356Z"  />
<glyph unicode="7" horiz-adv-x="507" d="M503 690Q496 649 480 611T437 520Q406 458 375 394T315 269T259 151T211 49Q202 29 194 17T178 -3T158 -12T132 -14Q88 -14 88 12Q88 21 93 32T115 69L344 431Q386 497 410 541T448 614H208Q192 614 180 611T159 599T143 575T129 537H97L137 690H503Z"  />
<glyph unicode="8" horiz-adv-x="507" d="M479 566Q479 516 443 474T319 386L351 361Q398 323 414 287T431 217Q431 172 412 130T359 56T283 5T194 -14Q155 -14 122 0T63 37T23 93T8 161Q8 219 53 272T204 374Q162 411 144 442T125 516Q125 552 138 586T175 646T235 688T315 704Q349 704 379 694T431 666T466 622T479 566ZM225 357Q182 337 154 312T108 259T83 203T76 147Q76 121 84 98T107 57T146 29T198 18Q234 18 264 30T316 65T350 116T363 181Q363 214 347 242T292 302L225 357ZM187 555Q187 520 202 495T254 439L296 405Q356 435 383 480T411 582Q411 625 386 648T312 672Q255 672 221 640T187 555Z"  />
<glyph unicode="9" horiz-adv-x="507" d="M335 289Q288 251 233 251Q198 251 170 265T122 304T90 360T79 429Q79 476 99 525T153 613T232 678T329 704Q402 704 443 656T484 527Q484 468 469 405T428 282T367 168T291 74T205 10T116 -14Q62 -14 31 10T0 74Q0 98 11 112T46 127Q65 127 76 116T88 88Q88 80 86 74T84 55Q84 39 94 32T132 24Q159 24 183 32T229 62T273 123T316 226L337 287L335 289ZM372 390Q412 507 412 583Q412 629 390 650T326 672Q296 672 272 658T228 620T195 567T173 506T160 444T155 390Q155 283 244 283Q270 283 296 295T354 336L372 390Z"  />
<glyph unicode=":" horiz-adv-x="330" d="M33 44Q33 67 49 83T88 100Q111 100 127 84T144 44Q144 21 128 5T88 -11Q65 -11 49 5T33 44ZM131 414Q131 437 147 453T186 470Q209 470 225 454T242 414Q242 391 226 375T186 359Q163 359 147 375T131 414Z"  />
<glyph unicode=";" horiz-adv-x="330" d="M3 -143Q26 -136 46 -125T82 -98T107 -66T116 -29Q116 -15 112 -6Q102 -13 88 -13Q65 -13 50 2T34 41Q34 63 51 78T94 93Q125 93 144 68T164 8Q164 -58 125 -101T12 -172L3 -143ZM131 414Q131 437 147 453T186 470Q209 470 225 454T242 414Q242 391 226 375T186 359Q163 359 147 375T131 414Z"  />
<glyph unicode="&lt;" horiz-adv-x="593" d="M12 236V244L580 480V444L80 240L580 36V0L12 236Z"  />
<glyph unicode="=" horiz-adv-x="593" d="M57 316V348H536V316H57ZM57 132V164H536V132H57Z"  />
<glyph unicode="&gt;" horiz-adv-x="593" d="M580 244V236L12 0V36L512 240L12 444V480L580 244Z"  />
<glyph unicode="?" horiz-adv-x="417" d="M126 186L143 252Q150 278 162 297T195 339L269 419Q303 457 327 509T352 612Q352 650 330 671T265 693Q220 693 200 672T180 606Q180 560 136 560Q118 560 107 572T96 603Q96 625 108 647T143 686T196 714T263 725Q341 725 386 687T432 584Q432 532 407 492T344 421L249 346Q213 317 197 294T174 245L156 177L126 186ZM50 40Q50 62 65 77T103 93Q125 93 140 78T156 40Q156 18 141 3T103 -13Q81 -13 66 2T50 40Z"  />
<glyph unicode="@" horiz-adv-x="841" d="M652 458L559 200Q549 173 546 156T542 124Q542 92 578 92Q612 92 645 111T705 164T748 244T764 347Q764 400 743 448T681 533T584 592T457 614Q381 614 316 584T202 504T125 388T97 250Q97 172 123 110T196 5T306 -62T441 -86Q508 -86 572 -67T704 6L722 -21Q653 -76 578 -97T430 -118Q349 -118 279 -92T156 -19T75 96T45 245Q45 327 78 400T167 527T300 614T463 646Q533 646 594 624T700 562T770 467T796 347Q796 282 777 229T724 138T646 79T552 58Q504 58 483 75T461 119Q461 127 463 135T467 149H465Q423 98 385 78T311 58Q263 58 234 90T204 177Q204 231 235 283T312 376T407 443T494 469Q520 469 537 455T558 416H560L574 458H652ZM536 349Q541 366 541 379Q541 402 528 419T490 437Q448 437 411 406T345 331T300 240T283 159Q283 126 293 108T330 90Q352 90 376 103T424 137T466 186T496 241L536 349Z"  />
<glyph unicode="A" horiz-adv-x="733" d="M-5 32L484 728H533L550 32H664L655 0H341L350 32H453L449 280H209L34 32H128L119 0H-88L-79 32H-5ZM231 312H449L444 612H442L231 312Z"  />
<glyph unicode="B" horiz-adv-x="662" d="M257 680H142L152 712H374Q492 712 557 673T623 558Q623 522 606 492T558 440T481 403T381 384L380 380Q458 362 503 318T549 211Q549 164 523 126T449 59T338 16T197 0H-89L-78 32H23L257 680ZM121 32H206Q268 31 314 51T390 102T436 173T451 251Q451 305 414 337T314 369H241L121 32ZM346 401Q385 401 417 414T473 450T508 507T521 582Q521 630 487 655T393 680H354L253 401H346Z"  />
<glyph unicode="C" horiz-adv-x="671" d="M655 519H624Q630 550 630 576Q630 606 618 628T586 664T537 686T476 693Q438 693 402 677T334 633T275 567T226 486Q206 443 191 399T165 314T149 237T143 171Q143 96 185 57T311 18Q381 18 435 52T531 159L559 145Q513 64 449 25T303 -14Q244 -14 199 6T122 63T74 153T57 270Q57 360 100 449T225 612Q282 661 348 693T479 725Q513 725 538 719T582 706T617 692T649 686Q676 686 691 715L723 709L655 519Z"  />
<glyph unicode="D" horiz-adv-x="808" d="M264 680H149L159 712H467Q534 712 586 692T673 636T727 550T746 438Q746 381 727 324T674 216T592 121T486 49Q431 23 377 12T252 0H-83L-73 32H31L264 680ZM128 32H262Q340 32 413 69T549 188Q573 218 592 256T625 336T646 417T654 492Q654 537 644 572T610 631T548 667T455 680H360L128 32Z"  />
<glyph unicode="E" horiz-adv-x="710" d="M25 32L258 680H144L154 712H733L666 524H634Q637 536 640 560T644 605Q644 640 628 660T564 680H356L253 398H348Q372 398 393 408T431 436T463 477T488 525H520L410 215H378Q381 226 385 246T390 289Q390 329 368 347T296 366H242L121 32H353Q408 32 459 75T562 214H594L517 0H-89L-79 32H25Z"  />
<glyph unicode="F" horiz-adv-x="691" d="M261 680H147L157 712H746L679 524H647Q650 536 653 560T657 605Q657 640 641 660T577 680H359L250 382H392Q416 382 437 392T475 420T507 461T532 509H564L454 199H422Q425 210 429 230T434 273Q434 313 412 331T340 350H239L124 32H241L231 0H-84L-74 32H28L261 680Z"  />
<glyph unicode="G" horiz-adv-x="744" d="M304 -14Q245 -14 200 6T123 63T75 153T58 270Q58 360 101 449T226 612Q283 661 349 693T480 725Q514 725 539 719T583 706T618 692T650 686Q677 686 692 715L724 709L656 519H625Q631 550 631 576Q631 606 619 628T587 664T538 686T477 693Q439 693 403 677T335 633T276 567T227 486Q207 443 192 399T166 314T150 237T144 171Q144 96 186 57T312 18Q375 18 415 49T476 136L508 225H394L403 257H694L685 225H605L524 0H492Q491 25 466 25Q454 25 441 19T409 6T365 -8T304 -14Z"  />
<glyph unicode="H" horiz-adv-x="808" d="M-75 32H28L260 680H147L157 712H472L462 680H358L250 380H572L681 680H566L576 712H890L880 680H777L543 32H658L648 0H332L342 32H446L561 348H239L124 32H239L229 0H-85L-75 32Z"  />
<glyph unicode="I" horiz-adv-x="395" d="M-73 32H30L263 680H149L159 712H475L465 680H359L127 32H241L231 0H-83L-73 32Z"  />
<glyph unicode="J" horiz-adv-x="471" d="M236 680L246 712H559L549 680H446L289 244Q269 189 249 151T200 78Q158 27 119 7T40 -14Q-11 -14 -37 14T-64 88Q-64 120 -46 141T3 163Q23 163 35 152T47 123Q47 109 43 100T34 84T24 68T20 46Q20 33 26 26T50 18Q66 18 79 24T107 49T138 104T176 199L349 680H236Z"  />
<glyph unicode="K" horiz-adv-x="718" d="M693 680L332 400L523 32H633L624 0H314L323 32H417L254 357H240L124 32H237L227 0H-86L-76 32H27L260 680H146L156 712H469L459 680H356L252 389H267L641 678V680H548L557 712H772L763 680H693Z"  />
<glyph unicode="L" horiz-adv-x="660" d="M-88 0L-78 32H25L258 680H144L154 712H470L460 680H355L122 32H353Q408 32 459 75T562 214H594L518 0H-88Z"  />
<glyph unicode="M" horiz-adv-x="895" d="M369 154L754 712H983L974 680H870L637 32H750L740 0H425L434 32H539L773 680H771L285 -15H272L286 680H283L53 32H166L156 0H-96L-86 32H19L251 680H137L146 712H379L367 154H369Z"  />
<glyph unicode="N" horiz-adv-x="736" d="M501 168L684 680H570L579 712H831L822 680H718L466 -15H453L281 662H279L54 32H167L158 0H-94L-85 32H19L250 680H138L147 712H362L499 168H501Z"  />
<glyph unicode="O" horiz-adv-x="790" d="M495 725Q552 725 596 703T671 642T717 550T733 435Q733 379 716 324T669 220T597 127T507 53T404 4T295 -14Q241 -14 198 5T124 62T77 152T60 273Q60 329 78 384T127 490T200 584T290 658T391 707T495 725ZM491 693Q419 693 354 649T244 521Q221 479 203 432T171 339T151 248T144 167Q144 18 298 18Q374 18 440 63T554 200Q575 239 592 284T620 374T638 461T645 539Q645 693 491 693Z"  />
<glyph unicode="P" horiz-adv-x="642" d="M309 290Q286 290 260 292T218 298L123 32H237L226 0H-88L-79 32H27L259 680H145L154 712H406Q452 712 495 700T572 665T626 607T646 529Q646 475 618 431T543 356T436 307T309 290ZM229 329Q246 326 267 324T308 322Q359 322 402 341T478 393T528 467T546 557Q546 617 506 648T394 680H355L229 329Z"  />
<glyph unicode="Q" horiz-adv-x="790" d="M617 -201H583Q480 -201 418 -176T319 -105L286 -66Q274 -52 265 -42T246 -25T225 -10T195 6Q129 38 95 104T60 273Q60 329 78 384T127 490T200 584T290 658T391 707T495 725Q552 725 596 703T671 642T717 550T733 435Q733 379 716 324T669 220T597 127T507 53T404 4T295 -14Q289 -14 283 -14T270 -13V-14Q288 -31 309 -42T359 -57Q391 -62 411 -66T447 -79T477 -100T510 -134Q529 -156 548 -162T595 -169H617V-201ZM491 693Q419 693 354 649T244 521Q221 479 203 432T171 339T151 248T144 167Q144 18 298 18Q374 18 440 63T554 200Q575 239 592 284T620 374T638 461T645 539Q645 693 491 693Z"  />
<glyph unicode="R" horiz-adv-x="660" d="M242 366L123 32H238L226 0H-88L-76 32H27L258 680H143L155 712H404Q452 712 491 701T560 671T605 623T621 560Q621 488 560 443T376 384L375 380Q522 360 522 256Q522 234 519 214T511 172T504 130T500 87Q500 61 514 44T553 26Q568 26 582 32L590 2Q576 -3 562 -4T528 -6Q467 -6 435 21T403 102Q403 120 406 143T414 191T421 240T425 284Q425 326 393 346T288 366H242ZM253 398H313Q403 398 447 428Q521 479 521 582Q521 630 487 655T395 680H354L253 398Z"  />
<glyph unicode="S" horiz-adv-x="617" d="M540 521H510Q515 534 517 550T519 581Q519 635 484 664T380 693Q348 693 321 685T274 661T243 625T232 579Q232 552 245 522T293 459L393 369Q438 327 458 291T478 206Q478 162 458 122T401 52T313 4T201 -14Q168 -14 142 -8T95 6T56 20T21 27Q7 27 -4 18T-17 -5L-49 2L20 197H53Q46 178 44 167T41 142Q41 114 54 92T89 53T142 27T209 18Q249 18 282 28T338 58T373 104T386 164Q386 199 374 228T330 286L241 368Q197 409 178 447T158 534Q158 575 176 610T226 670T298 710T386 725Q414 725 436 720T476 707T509 695T539 689Q565 689 576 715L609 710L540 521Z"  />
<glyph unicode="T" horiz-adv-x="709" d="M405 680H307Q266 680 232 657T172 604T129 543T102 497H70L146 712H791L715 497H683Q688 517 690 541T692 589Q692 627 672 653T600 680H501L268 32H382L372 0H57L67 32H172L405 680Z"  />
<glyph unicode="U" horiz-adv-x="767" d="M137 680L147 712H462L452 680H347L204 283Q196 260 191 242T182 207T177 176T175 145Q175 87 212 53T309 18Q405 18 470 76T574 259L704 680H590L600 712H854L844 680H740L601 234Q558 105 483 46T293 -14Q243 -14 204 -1T139 34T98 88T84 157Q84 173 85 189T91 226T104 271T124 328L251 680H137Z"  />
<glyph unicode="V" horiz-adv-x="723" d="M277 680V105H279L679 680H588L597 712H812L803 680H720L235 -15H183L179 680H70L79 712H389L380 680H277Z"  />
<glyph unicode="W" horiz-adv-x="1070" d="M638 116L1015 680H919L928 712H1153L1144 680H1055L588 -15H544L548 451H545L232 -15H182L190 680H80L89 712H389L380 680H283L277 109H279L548 513L550 680H445L454 712H763L754 680H642L636 116H638Z"  />
<glyph unicode="X" horiz-adv-x="711" d="M402 32L323 329L62 32H139L131 0H-74L-66 32H21L311 363L228 680H111L120 712H432L423 680H327L393 426L613 680H541L550 712H755L746 680H654L405 393L499 32H614L606 0H295L303 32H402Z"  />
<glyph unicode="Y" horiz-adv-x="664" d="M361 302L262 32H377L367 0H52L62 32H174L274 307L203 680H93L102 712H416L407 680H296L359 346L656 680H568L577 712H783L774 680H696L361 302Z"  />
<glyph unicode="Z" horiz-adv-x="657" d="M537 680H335Q227 680 130 499H98L173 712H679L91 32H353Q383 32 410 45T463 83T512 141T558 214H590L512 0H-51L537 680Z"  />
<glyph unicode="[" horiz-adv-x="294" d="M216 712H356L346 676H244L-3 -244H101L91 -280H-49L216 712Z"  />
<glyph unicode="\" horiz-adv-x="312" d="M161 -23L115 716L151 734L197 -5L161 -23Z"  />
<glyph unicode="]" horiz-adv-x="294" d="M1 -280H-139L-129 -244H-27L220 676H116L126 712H266L1 -280Z"  />
<glyph unicode="^" horiz-adv-x="614" d="M297 721H318L494 305H461L307 670L154 305H120L297 721Z"  />
<glyph unicode="_" horiz-adv-x="500" d="M0 -107V-65H500V-107H0Z"  />
<glyph unicode="`" horiz-adv-x="278" d="M101 656Q91 664 85 672T79 690Q79 704 87 713T113 722Q123 722 130 718T147 701L257 552H226L101 656Z"  />
<glyph unicode="a" horiz-adv-x="595" d="M528 457L419 154Q407 121 401 96T394 53Q394 41 401 34T421 27Q445 27 468 46T512 104L540 90Q485 -13 393 -13Q356 -13 336 2T315 47Q315 56 317 70T322 94H320Q268 34 223 11T132 -13Q75 -13 43 25T10 127Q10 169 27 210T72 290T136 361T209 418T282 456T347 470Q379 470 402 454T429 408H431L448 457H528ZM403 329Q408 343 410 353T412 373Q412 402 393 420T342 438Q308 438 277 421T217 375T166 311T126 238T100 166T91 105Q91 63 106 41T154 19Q177 19 206 32T263 68T314 121T350 185L403 329Z"  />
<glyph unicode="b" horiz-adv-x="582" d="M195 366L197 365Q234 417 277 443T366 470Q397 470 422 459T466 427T494 380T504 320Q504 280 489 240T447 163T386 94T315 38T241 1T170 -13Q110 -13 72 20T34 104Q34 123 39 146T57 203L230 689H142L152 721H322L195 366ZM355 438Q310 438 264 399T174 291Q158 266 145 238T123 183T109 131T104 86Q104 19 174 19Q205 19 236 36T295 80T348 144T391 218T420 294T431 362Q431 398 411 418T355 438Z"  />
<glyph unicode="c" horiz-adv-x="478" d="M387 101Q306 -13 188 -13Q150 -13 120 -1T68 33T34 85T22 152Q22 203 47 259T115 362T213 439T328 470Q388 470 417 443T446 371Q446 333 429 317T383 301Q369 301 361 310T353 333Q353 345 357 352T366 365T376 378T380 398Q380 417 368 427T321 438Q273 438 233 406T164 325T119 220T103 116Q103 71 129 45T204 19Q244 19 285 43T359 116L387 101Z"  />
<glyph unicode="d" horiz-adv-x="597" d="M400 323Q405 335 407 347T410 367Q410 399 392 418T342 438Q308 438 277 421T217 376T166 313T126 240T100 168T91 107Q91 21 154 21Q176 21 205 35T263 72T316 124T351 185L400 323ZM444 689L453 721H622L413 137Q394 83 394 53Q394 27 419 27Q444 27 467 44T511 104L540 90Q487 -13 391 -13Q355 -13 335 2T315 47Q315 56 317 70T322 94H320Q268 34 223 11T132 -13Q75 -13 43 24T10 125Q10 167 26 209T70 289T131 361T203 418T275 456T339 470Q374 470 399 455T429 408H431L531 689H444Z"  />
<glyph unicode="e" horiz-adv-x="483" d="M175 230Q158 230 144 231T115 235Q104 203 99 176T94 123Q94 74 119 46T193 17Q238 17 274 41T347 117L375 101Q332 40 286 14T180 -13Q142 -13 112 -2T60 30T26 78T14 138Q14 196 41 255T110 362T206 440T313 470Q370 470 403 445T437 377Q437 343 414 316T354 270T270 241T175 230ZM313 438Q285 438 258 425T207 389T162 335T126 266Q136 264 149 263T179 262Q216 262 250 272T309 300T350 341T365 390Q365 413 351 425T313 438Z"  />
<glyph unicode="f" horiz-adv-x="369" d="M356 425H233L144 87Q122 4 92 -61T27 -171T-49 -241T-131 -265Q-171 -265 -196 -246T-221 -188Q-221 -162 -207 -145T-165 -128Q-137 -128 -137 -158Q-137 -172 -142 -182T-147 -208Q-147 -233 -117 -233Q-98 -233 -78 -222T-38 -185T1 -114T39 -1L153 425H58L67 457H162L170 487Q184 540 212 584T276 659T352 708T432 725Q483 725 515 698T547 628Q547 602 533 587T493 571Q453 571 453 608Q453 618 456 625T464 639T473 651T477 665Q477 693 428 693Q395 693 368 678T318 637T280 574T252 495L242 457H365L356 425Z"  />
<glyph unicode="g" horiz-adv-x="593" d="M501 431Q468 431 440 397Q448 386 453 371T459 338Q459 302 439 267T388 205T319 161T244 144Q168 144 122 181Q80 164 64 145T47 105Q47 91 53 82T77 67T125 58T203 54Q239 53 263 51T303 47T331 42T354 34Q390 19 405 -7T420 -61Q420 -108 398 -149T338 -222T253 -272T153 -291Q108 -291 70 -281T2 -252T-43 -211T-60 -161Q-60 -119 -27 -82T69 -12Q31 -1 15 20T-2 74Q-2 114 20 144T102 201Q77 233 77 280Q77 316 97 350T149 410T221 453T301 470Q338 470 371 457T425 417Q458 459 515 459Q548 459 569 437T590 387Q590 337 542 337Q528 337 519 346T509 369Q509 377 511 381T517 390T523 399T526 412Q526 431 501 431ZM239 -24Q194 -23 160 -22T93 -17Q71 -33 56 -48T32 -80T20 -116T16 -158Q16 -206 52 -232T153 -259Q195 -259 233 -246T301 -210T348 -160T366 -103Q366 -69 337 -47T239 -24ZM298 438Q265 438 240 420T197 375T170 318T160 265Q160 176 245 176Q278 176 302 193T343 238T368 297T377 360Q377 397 358 417T298 438Z"  />
<glyph unicode="h" horiz-adv-x="604" d="M248 689H158L168 721H339L195 333H197Q234 388 286 425T401 463Q446 463 474 439T502 379Q502 370 501 363T498 347T492 326T480 294L415 117Q406 92 403 77T399 50Q399 19 425 19Q471 19 514 101L543 89Q515 35 481 11T398 -13Q361 -13 339 3T316 50Q316 62 319 75T330 110L413 338Q423 364 423 385Q423 406 411 418T375 431Q351 431 320 414T257 365T199 293T155 206L81 0H-2L248 689Z"  />
<glyph unicode="i" horiz-adv-x="307" d="M117 108Q109 85 106 72T102 47Q102 34 110 27T131 19Q155 19 180 41T223 99L253 88Q225 36 191 12T111 -13Q26 -13 26 52Q26 82 42 123L148 425H60L69 457H238L117 108ZM207 661Q207 682 222 697T258 712Q279 712 294 697T309 661Q309 640 294 625T258 610Q237 610 222 625T207 661Z"  />
<glyph unicode="j" horiz-adv-x="314" d="M76 425L86 457H257L91 -5Q68 -68 39 -116T-21 -198T-84 -247T-147 -264Q-185 -264 -209 -241T-233 -180Q-233 -155 -219 -138T-182 -121Q-166 -121 -157 -129T-147 -154Q-147 -170 -153 -179T-159 -203Q-159 -216 -151 -224T-125 -232Q-113 -232 -101 -225T-76 -201T-49 -157T-20 -88L167 425H76ZM221 661Q221 682 236 697T272 712Q293 712 308 697T323 661Q323 640 308 625T272 610Q251 610 236 625T221 661Z"  />
<glyph unicode="k" horiz-adv-x="594" d="M194 297H215Q247 297 276 316T341 386Q367 424 394 443T460 463Q494 463 511 446T528 400Q528 375 513 363T477 350Q460 350 451 359T442 382Q442 395 446 401T450 419Q450 431 437 431Q422 431 406 415T357 357Q334 325 312 308T276 286V283Q309 278 325 261T351 200L376 81Q382 51 390 38T415 25Q433 25 453 44T491 99L521 90Q492 31 458 9T378 -13Q347 -13 329 4T302 59L268 207Q261 238 248 252T209 266H183L88 0H8L254 689H165L176 721H346L194 297Z"  />
<glyph unicode="l" horiz-adv-x="311" d="M117 108Q109 85 106 72T102 47Q102 34 110 27T131 19Q155 19 180 41T223 99L253 88Q225 36 191 12T111 -13Q26 -13 26 52Q26 82 42 123L244 689H156L166 721H334L117 108Z"  />
<glyph unicode="m" horiz-adv-x="873" d="M154 425H64L73 457H241L202 341H204Q300 463 396 463Q441 463 464 440T488 380Q488 372 487 363T481 345H483Q528 403 575 433T667 463Q715 463 741 439T767 381Q767 367 766 356T756 325L681 123Q671 97 668 80T664 49Q664 19 690 19Q714 19 737 40T779 101L808 89Q781 32 746 10T666 -13Q627 -13 604 2T581 49Q581 62 584 75T596 113L677 334Q685 355 688 367T691 393Q691 431 650 431Q625 431 595 414T536 369T481 302T440 223L360 0H280L398 325Q415 367 415 392Q415 412 405 421T377 431Q351 431 321 414T262 369T207 302T165 220L85 0H5L154 425Z"  />
<glyph unicode="n" horiz-adv-x="620" d="M156 425H67L76 457H245L203 333H205Q242 388 293 425T408 463Q453 463 481 439T509 379Q509 370 508 363T505 347T499 326T487 294L422 117Q413 92 410 77T406 50Q406 19 432 19Q478 19 521 101L550 89Q522 35 488 11T405 -13Q368 -13 346 3T323 50Q323 62 326 75T337 110L420 338Q430 364 430 385Q430 406 418 418T382 431Q358 431 327 414T264 365T206 293T162 206L88 0H8L156 425Z"  />
<glyph unicode="o" horiz-adv-x="551" d="M305 470Q345 470 376 454T428 412T461 354T473 289Q473 230 447 176T379 79T286 12T184 -13Q148 -13 117 1T62 40T25 98T12 171Q12 231 38 285T107 380T201 446T305 470ZM291 438Q249 438 213 407T150 330T108 232T93 137Q93 82 118 51T188 19Q231 19 268 51T333 129T376 229T392 325Q392 379 367 408T291 438Z"  />
<glyph unicode="p" horiz-adv-x="596" d="M154 425H62L71 457H239L217 388H219Q245 426 281 448T360 470Q396 470 425 457T474 419T506 360T518 283Q518 232 495 179T432 84T342 14T236 -13Q188 -13 155 10T114 77H112L-2 -247H83L74 -279H-165L-156 -247H-82L154 425ZM131 130Q142 73 169 46T238 19Q276 19 312 49T375 125T419 224T436 322Q436 382 413 410T351 438Q313 438 279 414T202 329L131 130Z"  />
<glyph unicode="q" horiz-adv-x="589" d="M283 -247H362L353 -279H104L113 -247H203L324 89L322 91Q276 37 232 12T142 -13Q114 -13 90 -4T49 23T22 65T12 118Q12 160 28 202T70 283T130 357T200 416T273 455T340 470Q425 470 434 400H436L455 457H535L283 -247ZM401 313Q411 339 411 357Q411 394 392 416T338 438Q307 438 277 420T220 372T170 306T129 232T103 160T93 102Q93 64 109 42T157 19Q183 19 214 35T274 76T325 132T358 191L401 313Z"  />
<glyph unicode="r" horiz-adv-x="430" d="M206 342Q252 409 289 436T361 463Q396 463 418 442T440 388Q440 356 425 338T378 319Q363 319 354 327T344 351Q344 361 348 367T358 378T367 390T372 408Q372 419 364 425T344 431Q324 431 299 413T249 364T200 294T162 213L87 0H7L104 278Q121 329 132 362T151 425H65L74 457H238Q233 434 224 404T204 344L206 342Z"  />
<glyph unicode="s" horiz-adv-x="406" d="M26 137Q38 137 44 129T51 110Q51 94 46 85T41 62Q41 40 55 30T103 19Q154 19 178 42T203 98Q203 112 199 129T175 170L119 244Q101 267 95 287T89 325Q89 353 102 379T137 426T190 458T253 470Q304 470 330 447T356 390Q356 336 308 336Q272 336 272 367Q272 382 278 389T285 408Q285 438 245 438Q202 438 178 418T153 366Q153 351 160 334T189 287L244 215Q259 195 265 175T271 130Q271 100 256 74T216 29T159 -2T91 -13Q37 -13 2 14T-33 83Q-33 107 -17 122T26 137Z"  />
<glyph unicode="t" horiz-adv-x="363" d="M362 425H230L122 126Q111 97 108 82T104 52Q104 19 137 19Q160 19 185 40T233 109L263 97Q233 39 196 13T111 -13Q69 -13 48 5T26 51Q26 84 45 135L150 425H61L70 457H160L200 566H280L240 457H371L362 425Z"  />
<glyph unicode="u" horiz-adv-x="589" d="M119 119Q111 95 108 80T104 54Q104 38 114 29T145 19Q172 19 205 39T270 93T329 169T371 254L441 457H521L399 108Q390 82 387 70T384 48Q384 19 412 19Q438 19 462 41T505 99L535 88Q505 34 469 11T387 -13Q349 -13 328 2T306 47Q306 74 320 113L318 115Q220 -13 122 -13Q77 -13 52 7T26 65Q26 77 29 91T41 132L145 425H57L66 457H237L119 119Z"  />
<glyph unicode="v" horiz-adv-x="490" d="M89 -2Q94 7 97 17T100 43Q100 56 92 81T75 138T58 207T50 280Q50 334 79 378T159 461L183 479L205 456Q182 435 167 418T142 385T130 351T126 311Q126 254 138 201T174 82Q200 100 231 125T291 181Q323 213 344 249T366 323Q366 348 361 363T349 390T337 412T331 437Q331 471 380 471Q408 471 424 452T440 393Q440 357 429 324T398 260T355 202T304 151Q285 134 266 118T229 88T197 63T175 43Q158 26 146 11T127 -18L89 -2Z"  />
<glyph unicode="w" horiz-adv-x="760" d="M359 -2Q364 7 367 17T370 43Q370 53 366 69T354 107T340 152T328 204Q311 180 289 156T245 111T204 71T175 43Q158 26 146 11T127 -18L89 -2Q94 7 97 17T100 43Q100 56 92 81T75 138T58 207T50 280Q50 334 79 378T159 461L183 479L205 456Q182 435 167 418T142 385T130 351T126 311Q126 254 138 201T174 82Q212 114 249 155T321 248Q320 256 320 264T320 280Q320 334 349 378T429 461L453 479L475 456Q452 435 437 418T412 385T400 351T396 311Q396 254 408 201T444 82Q470 100 501 125T561 181Q593 213 614 249T636 323Q636 348 631 363T619 390T607 412T601 437Q601 471 650 471Q678 471 694 452T710 393Q710 357 699 324T668 260T625 202T574 151Q555 134 536 118T499 88T467 63T445 43Q428 26 416 11T397 -18L359 -2Z"  />
<glyph unicode="x" horiz-adv-x="646" d="M238 470Q276 470 304 446T344 369Q375 414 416 442T503 470Q548 470 576 442T604 368Q604 339 586 321T537 303Q505 303 505 333Q505 346 509 354T519 369T529 385T534 408Q534 421 525 429T498 438Q469 438 440 413T380 331Q365 303 352 270T328 204T312 143T306 96Q306 60 321 40T362 19Q437 19 496 120L525 107Q450 -13 355 -13Q317 -13 289 9T249 86Q204 30 165 9T86 -13Q35 -13 6 13T-24 83Q-24 115 -6 133T42 152Q56 152 65 143T74 120Q74 108 70 102T60 88T50 73T45 50Q45 36 54 28T88 19Q106 19 123 24T158 44T191 82T225 144Q237 173 248 205T267 267T281 322T286 363Q286 399 270 418T226 438Q189 438 157 410T98 337L69 350Q134 470 238 470Z"  />
<glyph unicode="y" horiz-adv-x="500" d="M7 342Q21 399 52 434T146 470Q176 470 196 458T228 425T245 375T250 310Q250 250 244 198T227 97H229L340 297Q367 345 388 378T429 431T466 461T507 470Q528 470 540 460T552 433Q552 417 543 407T520 396Q514 396 508 399T494 402Q476 402 460 392T424 360T382 300T327 207Q285 134 246 64T167 -82Q147 -121 125 -154T79 -212T27 -251T-31 -265Q-76 -265 -100 -240T-124 -175Q-124 -123 -67 -123Q-51 -123 -44 -131T-37 -153Q-37 -169 -42 -179T-47 -206Q-47 -217 -38 -224T-12 -232Q16 -232 47 -196T105 -99T148 37T165 195Q165 270 161 315T150 386T134 419T112 427Q87 427 69 403T38 333L7 342Z"  />
<glyph unicode="z" horiz-adv-x="538" d="M334 379Q312 380 281 381T220 384T166 385T132 386Q114 386 105 379T92 358L86 334L55 340Q58 350 62 364T69 394T76 421T82 440Q88 461 123 461Q133 461 154 461T203 459T259 457T315 455T362 454T392 453Q402 453 408 457T419 467L443 447L112 94Q166 94 204 83T271 59T322 35T368 24Q385 24 392 32T400 53Q400 71 381 86Q367 97 362 107T357 133Q357 150 369 162T402 174Q430 174 443 156T456 107Q456 47 419 17T316 -13Q292 -13 267 -7T214 6T158 20T96 26Q66 26 45 11T12 -19L-14 3L334 379Z"  />
<glyph unicode="{" horiz-adv-x="409" d="M22 227Q62 233 90 242T138 266T170 302T191 354L235 518Q250 573 267 610T309 670T369 702T456 712L447 678Q406 678 379 671T332 644T298 594T271 513L233 366Q215 293 179 259T73 217L72 215Q94 214 111 205T139 182T157 151T163 115Q163 104 161 88T150 45L116 -81Q102 -134 102 -167Q102 -202 127 -222T201 -246L190 -280Q64 -264 64 -169Q64 -151 67 -131T81 -73L113 48Q120 73 122 87T125 114Q125 150 100 172T17 206L22 227Z"  />
<glyph unicode="|" horiz-adv-x="234" d="M101 750H133V-250H101V750Z"  />
<glyph unicode="}" horiz-adv-x="409" d="M321 205Q280 199 252 190T203 166T171 130T150 78L105 -86Q90 -142 73 -179T30 -238T-31 -270T-118 -280L-109 -246Q-69 -246 -41 -239T7 -213T41 -162T68 -81L108 66Q118 102 131 128T164 173T209 201T271 215L272 217Q250 218 233 227T205 250T187 281T181 317Q181 328 183 344T194 387L230 513Q244 566 244 599Q244 634 219 654T147 678L158 712Q282 696 282 601Q282 583 278 563T264 505L231 384Q225 361 223 346T220 318Q220 282 244 260T326 226L321 205Z"  />
<glyph unicode="~" horiz-adv-x="593" d="M16 162Q35 234 68 267T153 301Q170 301 190 296T240 280L364 233Q398 219 414 215T447 210Q511 210 549 320H577Q536 180 444 180Q427 180 409 184T356 202L234 249Q180 271 146 271Q111 271 87 247T44 162H16Z"  />
<glyph unicode="&#xA0;" horiz-adv-x="241" />
<glyph unicode="&#xA1;" horiz-adv-x="335" d="M206 252L112 -234Q107 -261 95 -276T60 -291Q38 -291 25 -278T12 -244Q12 -229 19 -211L181 258L206 252ZM285 394Q285 372 270 357T232 341Q210 341 195 356T179 394Q179 416 194 431T232 447Q254 447 269 432T285 394Z"  />
<glyph unicode="&#xA2;" horiz-adv-x="481" d="M387 101Q306 -13 188 -13Q158 -13 131 -4L93 -78L66 -66L104 6Q65 26 44 63T22 152Q22 203 47 259T115 362T213 439T328 470Q333 470 337 470T347 469L375 521L401 509L377 464Q446 442 446 371Q446 333 429 317T383 301Q369 301 361 310T353 333Q353 345 357 352T366 365T376 378T380 398Q380 423 360 431L150 31Q172 19 204 19Q244 19 285 43T359 116L387 101ZM103 116Q103 75 126 49L331 438H321Q273 438 233 406T164 325T119 220T103 116Z"  />
<glyph unicode="&#xA3;" horiz-adv-x="593" d="M246 358L238 266Q233 208 226 166T204 94Q241 81 279 75T351 68Q396 68 423 80T466 127L494 113Q427 -14 332 -14Q304 -14 281 -6T226 22L180 52Q136 -5 77 -5Q41 -5 21 11T0 53Q0 86 20 106T86 126Q102 126 125 121T175 105Q190 139 190 183Q190 202 189 221T185 273L176 358H77L86 390H174Q172 414 170 433T168 472Q168 523 189 569T245 649T324 704T413 725Q443 725 468 716T512 691T542 652T553 602Q553 568 539 549T501 529Q482 529 471 537T460 560Q460 574 465 583T475 602T486 620T491 645Q491 666 473 679T418 693Q384 693 357 681T308 641T274 565T254 448L249 390H396L387 358H246ZM77 27Q121 27 152 70Q129 84 114 89T81 94Q32 94 32 57Q32 42 44 35T77 27Z"  />
<glyph unicode="&#xA4;" horiz-adv-x="556" d="M75 357Q75 394 87 427T122 487L58 552L83 577L147 512Q201 560 278 560Q316 560 349 547T409 511L474 576L499 551L434 487Q456 461 468 428T481 357Q481 282 433 226L498 162L473 137L409 202Q353 154 278 154Q240 154 207 166T147 201L83 137L58 162L123 226Q75 280 75 357ZM275 528Q241 528 211 515T157 478T121 423T107 357Q107 322 120 291T157 236T211 200T278 186Q313 186 344 199T398 236T435 291T449 358Q449 393 436 424T398 478T343 514T275 528Z"  />
<glyph unicode="&#xA5;" horiz-adv-x="648" d="M-3 301H195L197 308L178 408H27L35 440H172L126 680H34L43 712H316L307 680H212L271 339L506 680H427L436 712H620L611 680H546L379 440H516L506 408H357L283 301H478L469 269H273L209 32H306L297 0H22L30 32H123L187 269H-11L-3 301Z"  />
<glyph unicode="&#xA6;" horiz-adv-x="234" d="M101 675H133V325H101V675ZM101 175H133V-175H101V175Z"  />
<glyph unicode="&#xA7;" horiz-adv-x="519" d="M458 651Q458 670 437 681T379 693Q353 693 326 683T277 654T241 612T227 560Q227 525 243 496T295 437L368 380Q410 348 425 320T441 254Q441 196 400 140T283 37Q306 11 316 -12T326 -61Q326 -105 307 -146T255 -220T178 -271T82 -291Q49 -291 21 -283T-28 -260T-60 -224T-72 -177Q-72 -149 -58 -132T-20 -115Q-1 -115 8 -124T18 -148Q18 -161 11 -174T4 -204Q4 -228 28 -243T88 -259Q121 -259 151 -246T204 -211T240 -160T254 -98Q254 -64 241 -38T193 14L119 71Q73 106 53 139T33 218Q33 250 40 276T66 327T114 377T189 432Q172 453 166 473T159 516Q159 563 179 601T233 667T306 710T388 725Q416 725 440 717T482 695T510 661T520 619Q520 553 471 553Q454 553 444 562T433 586Q433 595 437 602T445 616T454 631T458 651ZM240 383Q230 391 223 397T207 412Q170 386 146 365T107 326T87 289T81 251Q81 228 92 207T129 165L241 76L263 57Q317 89 350 129T383 214Q383 243 370 266T328 313L240 383Z"  />
<glyph unicode="&#xA8;" horiz-adv-x="278" d="M270 635Q270 655 283 668T317 682Q337 682 350 669T364 635Q364 615 351 602T317 588Q297 588 284 601T270 635ZM86 635Q86 655 99 668T133 682Q153 682 166 669T180 635Q180 615 167 602T133 588Q113 588 100 601T86 635Z"  />
<glyph unicode="&#xA9;" horiz-adv-x="833" d="M568 447H548Q528 561 422 561Q347 561 313 514T279 361Q279 256 312 210T420 164Q450 164 472 170T509 189T536 226T557 284H576V148H557Q547 161 531 161Q520 161 510 158T488 150T459 143T420 139Q376 139 338 157T272 205T227 275T210 361Q210 408 227 449T273 520T340 568T422 586Q442 586 456 583T482 575T503 567T523 563Q538 563 549 575H568V447ZM416 730Q493 730 561 701T679 621T759 502T789 357Q789 280 760 212T680 94T561 15T416 -14Q339 -14 271 15T153 94T74 213T45 358Q45 435 74 503T153 621T271 701T416 730ZM417 698Q346 698 285 672T177 599T104 490T77 358Q77 287 103 226T176 118T284 45T417 18Q487 18 549 44T657 117T730 225T757 358Q757 428 731 490T658 598T549 671T417 698Z"  />
<glyph unicode="&#xAA;" horiz-adv-x="346" d="M409 717L343 534Q338 520 335 506T332 484Q332 470 343 470Q370 470 399 524L420 515Q400 477 379 460T328 443Q273 443 273 485Q273 489 273 493T275 503Q246 471 223 458T173 444Q137 444 114 468T90 530Q90 561 109 596T157 661T221 710T287 730Q326 730 341 695L349 717H409ZM149 504Q149 468 181 468Q196 468 213 477T247 501T277 534T297 570L322 643Q324 651 325 655T327 667Q327 685 315 696T282 707Q261 707 238 687T195 637T162 571T149 504Z"  />
<glyph unicode="&#xAB;" horiz-adv-x="435" d="M129 69Q20 111 20 211Q20 274 69 317T204 369V337Q147 331 114 291T80 184Q80 124 141 99L129 69ZM278 57Q169 99 169 199Q169 262 218 305T353 357V325Q296 319 263 279T229 172Q229 112 290 87L278 57Z"  />
<glyph unicode="&#xAC;" horiz-adv-x="593" d="M502 303H56V335H536V145H502V303Z"  />
<glyph unicode="&#xAD;" horiz-adv-x="370" d="M63 243H237L221 184H47L63 243Z"  />
<glyph unicode="&#xAE;" horiz-adv-x="606" d="M208 640H152V661H299Q353 661 382 641T412 585Q412 560 398 545T352 521V519Q395 507 409 487T423 426Q424 397 429 386T451 375Q462 375 469 380L478 362Q470 357 462 355T440 353Q398 353 384 370T365 433Q362 473 351 491T308 509H264V378H320V357H152V378H208V640ZM305 530Q332 530 342 541T353 584Q353 615 340 627T301 640H264V530H305ZM61 502Q61 452 80 408T132 331T209 279T303 260Q353 260 397 279T474 331T526 408T545 502Q545 552 526 596T474 673T397 725T303 744Q253 744 209 725T132 673T80 596T61 502ZM35 502Q35 557 56 606T113 691T198 749T303 770Q358 770 407 749T492 692T550 606T571 502Q571 446 550 398T493 313T407 255T303 234Q247 234 199 255T114 312T56 397T35 502Z"  />
<glyph unicode="&#xAF;" horiz-adv-x="278" d="M378 643L362 601H81L97 643H378Z"  />
<glyph unicode="&#xB0;" horiz-adv-x="275" d="M65 592Q65 620 75 644T104 687T147 716T200 727Q228 727 252 717T295 688T324 645T335 592Q335 564 325 540T296 497T253 468T200 457Q172 457 148 467T105 496T76 539T65 592ZM97 592Q97 571 105 552T127 519T160 497T200 489Q221 489 240 497T273 519T295 552T303 592Q303 613 295 632T273 665T240 687T200 695Q179 695 160 687T127 665T105 632T97 592Z"  />
<glyph unicode="&#xB1;" horiz-adv-x="593" d="M57 0V32H536V0H57ZM280 256H57V288H280V479H314V288H536V256H314V65H280V256Z"  />
<glyph unicode="&#xB2;" horiz-adv-x="256" d="M107 489H211Q230 489 238 493T251 509L258 526H280L252 445H48L44 464Q57 474 75 489T113 520T151 552T183 579Q229 618 251 650T274 713Q274 753 228 753Q208 753 196 743T183 714Q181 679 156 679Q145 679 138 685T130 700Q130 715 139 728T163 753T196 770T232 777Q274 777 300 755T326 704Q326 686 319 671T295 638T253 600T190 551L107 489Z"  />
<glyph unicode="&#xB3;" horiz-adv-x="251" d="M134 619Q206 630 237 654T269 724Q269 753 238 753Q217 753 208 746T197 724Q195 707 189 702T170 696Q158 696 151 702T144 717Q144 729 152 740T173 759T204 772T239 777Q274 777 297 758T321 715Q321 683 292 659T208 618Q246 614 264 597T283 552Q283 531 267 511T225 474T170 447T112 436Q85 436 68 447T50 475Q50 486 58 492T78 499Q88 499 92 495T104 477Q109 467 114 464T130 460Q147 460 165 468T197 489T221 519T231 553Q231 576 219 590T186 604Q176 604 166 602T138 595L134 619Z"  />
<glyph unicode="&#xB4;" horiz-adv-x="278" d="M299 692Q317 709 327 715T348 722Q361 722 369 714T378 693Q378 682 371 672T335 645L185 552H151L299 692Z"  />
<glyph unicode="&#xB5;" horiz-adv-x="589" d="M118 117Q103 75 103 46Q103 30 111 21T138 11Q166 11 200 32T268 88T328 166T371 254L441 457H521L399 108Q390 82 387 70T384 48Q384 19 412 19Q436 19 461 41T505 99L535 88Q505 34 469 11T388 -13Q350 -13 328 2T306 47Q306 76 321 115L319 117Q271 54 225 21T136 -13Q115 -13 100 -6T79 19L-24 -279H-105L145 425H57L66 457H237L118 117Z"  />
<glyph unicode="&#xB6;" horiz-adv-x="574" d="M100 -73Q121 -44 146 9T203 147L248 272Q210 277 177 293T120 335T81 397T67 479Q67 591 155 651T419 712H679L668 680H590L381 99Q354 25 312 -28T219 -116T113 -167T7 -184Q-21 -184 -43 -175T-80 -152T-104 -118T-112 -79Q-112 -55 -94 -40T-48 -25Q-4 -25 -4 -55Q-4 -64 -8 -72T-18 -89T-27 -105T-32 -120Q-32 -139 -9 -139Q17 -139 45 -125T100 -73ZM237 147Q206 61 181 5T130 -85T77 -136T14 -158V-160Q74 -156 121 -134T205 -76T269 9T318 118L520 680H428L237 147Z"  />
<glyph unicode="&#xB7;" horiz-adv-x="250" d="M70 336Q70 359 86 375T125 392Q148 392 164 376T181 336Q181 313 165 297T125 281Q102 281 86 297T70 336Z"  />
<glyph unicode="&#xB8;" horiz-adv-x="278" d="M127 0L52 -71L53 -72Q72 -61 101 -61Q113 -61 126 -65T149 -79T165 -102T172 -137Q172 -162 162 -183T136 -219T97 -243T49 -252Q24 -252 3 -243T-32 -221L-11 -195Q17 -219 51 -219Q84 -219 100 -194T116 -136Q116 -115 108 -103T79 -91Q48 -91 25 -108L6 -81L89 0H127Z"  />
<glyph unicode="&#xB9;" horiz-adv-x="202" d="M119 469L202 708Q188 699 167 689T126 671L118 693Q161 712 195 730T254 768H272L168 469H217L208 445H64L73 469H119Z"  />
<glyph unicode="&#xBA;" horiz-adv-x="345" d="M289 730Q311 730 330 721T363 697T386 661T394 616Q394 583 379 551T339 493T282 452T217 436Q194 436 175 445T142 470T119 507T111 555Q111 587 126 618T167 674T224 714T289 730ZM283 707Q242 707 214 662Q205 648 197 630T182 592T172 553T168 519Q168 491 182 475T220 459Q242 459 258 471T294 513Q314 544 325 581T337 650Q337 676 323 691T283 707Z"  />
<glyph unicode="&#xBB;" horiz-adv-x="441" d="M61 369Q170 327 170 227Q170 164 121 121T-14 69V101Q43 107 76 147T110 254Q110 314 49 339L61 369ZM215 354Q324 312 324 212Q324 149 275 106T140 54V86Q197 92 230 132T264 239Q264 299 203 324L215 354Z"  />
<glyph unicode="&#xBC;" horiz-adv-x="816" d="M738 376Q653 313 591 252T480 126H618L656 266H714L676 126H742L734 94H667L651 32H701L693 0H535L544 32H593L609 94H423Q439 121 457 147T500 203T559 271T640 357Q663 381 676 394T699 413T715 420T732 421Q765 421 765 405Q765 399 761 395T738 376ZM63 308H133L219 626Q201 614 174 601T118 573L103 604Q205 647 262 697H294L190 308H254L245 276H54L63 308ZM594 716L626 698L194 -24L162 -6L594 716Z"  />
<glyph unicode="&#xBD;" horiz-adv-x="816" d="M479 51H612Q638 51 648 56T664 77L669 94H698L673 0H418L408 20Q423 33 446 55T495 100T543 145T580 181Q608 209 627 230T658 268T675 301T681 332Q681 358 664 373T617 389Q560 389 560 334Q560 294 527 294Q515 294 508 302T500 324Q500 342 511 359T539 390T579 412T625 421Q649 421 670 414T708 393T733 362T743 324Q743 306 736 289T711 250T664 202T590 140L479 51ZM63 308H133L219 626Q201 614 174 601T118 573L103 604Q205 647 262 697H294L190 308H254L245 276H54L63 308ZM594 716L626 698L194 -24L162 -6L594 716Z"  />
<glyph unicode="&#xBE;" horiz-adv-x="816" d="M738 376Q653 313 591 252T480 126H618L656 266H714L676 126H742L734 94H667L651 32H701L693 0H535L544 32H593L609 94H423Q439 121 457 147T500 203T559 271T640 357Q663 381 676 394T699 413T715 420T732 421Q765 421 765 405Q765 399 761 395T738 376ZM108 503Q190 516 225 542T260 623Q260 665 210 665Q186 665 173 655T159 622Q159 600 153 593T130 586Q100 586 100 616Q100 632 110 646T136 672T174 690T218 697Q263 697 292 674T322 618Q322 547 193 501Q290 492 290 418Q290 391 272 364T226 313T164 276T96 261Q61 261 37 276T13 318Q13 328 21 334T42 341Q53 341 59 337T73 319Q82 303 92 300T120 296Q141 296 160 306T195 335T219 376T228 423Q228 448 213 464T172 480Q161 480 149 478T117 470L108 503ZM594 716L626 698L194 -24L162 -6L594 716Z"  />
<glyph unicode="&#xBF;" horiz-adv-x="417" d="M291 248L274 182Q267 156 255 137T222 95L148 15Q113 -23 89 -75T65 -178Q65 -216 87 -237T152 -259Q197 -259 217 -238T237 -172Q237 -126 281 -126Q299 -126 310 -138T321 -169Q321 -191 309 -213T274 -252T221 -280T154 -291Q76 -291 31 -253T-15 -150Q-15 -98 10 -58T73 13L168 88Q204 117 220 140T243 189L261 257L291 248ZM367 394Q367 372 352 357T314 341Q292 341 277 356T261 394Q261 416 276 431T314 447Q336 447 351 432T367 394Z"  />
<glyph unicode="&#xC0;" horiz-adv-x="733" d="M-5 32L484 728H533L550 32H664L655 0H341L350 32H453L449 280H209L34 32H128L119 0H-88L-79 32H-5ZM231 312H449L444 612H442L231 312ZM396 876Q386 884 380 892T374 910Q374 924 382 933T408 942Q418 942 425 938T442 921L552 772H521L396 876Z"  />
<glyph unicode="&#xC1;" horiz-adv-x="733" d="M-5 32L484 728H533L550 32H664L655 0H341L350 32H453L449 280H209L34 32H128L119 0H-88L-79 32H-5ZM231 312H449L444 612H442L231 312ZM639 912Q657 929 667 935T688 942Q701 942 709 934T718 913Q718 902 711 892T675 865L525 772H491L639 912Z"  />
<glyph unicode="&#xC2;" horiz-adv-x="733" d="M-5 32L484 728H533L550 32H664L655 0H341L350 32H453L449 280H209L34 32H128L119 0H-88L-79 32H-5ZM231 312H449L444 612H442L231 312ZM540 940H577L675 772H641L550 878L405 772H369L540 940Z"  />
<glyph unicode="&#xC3;" horiz-adv-x="733" d="M-5 32L484 728H533L550 32H664L655 0H341L350 32H453L449 280H209L34 32H128L119 0H-88L-79 32H-5ZM231 312H449L444 612H442L231 312ZM382 796Q385 818 395 836T419 868T450 888T484 895Q501 895 513 891T542 878L572 862Q601 846 624 846Q641 846 653 860T674 898H707Q696 856 671 826T603 796Q586 796 572 799T541 812L504 832Q490 840 483 842T465 845Q445 845 434 831T416 796H382Z"  />
<glyph unicode="&#xC4;" horiz-adv-x="733" d="M-5 32L484 728H533L550 32H664L655 0H341L350 32H453L449 280H209L34 32H128L119 0H-88L-79 32H-5ZM231 312H449L444 612H442L231 312ZM596 855Q596 875 609 888T643 902Q663 902 676 889T690 855Q690 835 677 822T643 808Q623 808 610 821T596 855ZM412 855Q412 875 425 888T459 902Q479 902 492 889T506 855Q506 835 493 822T459 808Q439 808 426 821T412 855Z"  />
<glyph unicode="&#xC5;" horiz-adv-x="733" d="M-5 32L484 728H533L550 32H664L655 0H341L350 32H453L449 280H209L34 32H128L119 0H-88L-79 32H-5ZM231 312H449L444 612H442L231 312ZM651 894Q651 873 641 852T615 815T579 788T539 778Q508 778 489 799T469 850Q469 870 479 890T506 927T543 953T584 963Q612 963 631 944T651 894ZM613 896Q613 937 578 937Q564 937 551 928T528 906T513 878T507 850Q507 824 515 814T540 804Q555 804 568 813T591 836T607 866T613 896Z"  />
<glyph unicode="&#xC6;" horiz-adv-x="1030" d="M-4 32L497 680H393L403 712H995L931 531H899Q903 546 905 564T908 600Q908 643 888 661T823 680H635L587 398H662Q702 398 734 424T791 508H823L739 228H707Q708 236 709 251T710 278Q710 316 691 341T624 366H582L526 32H676Q738 32 790 75T894 214H926L850 0H318L328 32H433L476 288H235L37 32H125L115 0H-109L-98 32H-4ZM260 320H481L542 681H539L260 320Z"  />
<glyph unicode="&#xC7;" horiz-adv-x="671" d="M656 519H625Q631 550 631 576Q631 606 619 628T587 664T538 686T477 693Q439 693 403 677T335 633T276 567T227 486Q207 443 192 399T166 314T150 237T144 171Q144 96 186 57T312 18Q382 18 436 52T532 159L560 145Q514 64 450 25T304 -14H298L238 -71L239 -72Q258 -61 287 -61Q299 -61 312 -65T335 -79T351 -102T358 -137Q358 -162 348 -183T322 -219T283 -243T235 -252Q210 -252 189 -243T154 -221L175 -195Q203 -219 237 -219Q270 -219 286 -194T302 -136Q302 -115 294 -103T265 -91Q234 -91 211 -108L192 -81L263 -11Q163 3 111 77T58 270Q58 360 101 449T226 612Q283 661 349 693T480 725Q514 725 539 719T583 706T618 692T650 686Q677 686 692 715L724 709L656 519Z"  />
<glyph unicode="&#xC8;" horiz-adv-x="710" d="M25 32L258 680H144L154 712H733L666 524H634Q637 536 640 560T644 605Q644 640 628 660T564 680H356L253 398H348Q372 398 393 408T431 436T463 477T488 525H520L410 215H378Q381 226 385 246T390 289Q390 329 368 347T296 366H242L121 32H353Q408 32 459 75T562 214H594L517 0H-89L-79 32H25ZM347 876Q337 884 331 892T325 910Q325 924 333 933T359 942Q369 942 376 938T393 921L503 772H472L347 876Z"  />
<glyph unicode="&#xC9;" horiz-adv-x="710" d="M25 32L258 680H144L154 712H733L666 524H634Q637 536 640 560T644 605Q644 640 628 660T564 680H356L253 398H348Q372 398 393 408T431 436T463 477T488 525H520L410 215H378Q381 226 385 246T390 289Q390 329 368 347T296 366H242L121 32H353Q408 32 459 75T562 214H594L517 0H-89L-79 32H25ZM590 912Q608 929 618 935T639 942Q652 942 660 934T669 913Q669 902 662 892T626 865L476 772H442L590 912Z"  />
<glyph unicode="&#xCA;" horiz-adv-x="710" d="M25 32L258 680H144L154 712H733L666 524H634Q637 536 640 560T644 605Q644 640 628 660T564 680H356L253 398H348Q372 398 393 408T431 436T463 477T488 525H520L410 215H378Q381 226 385 246T390 289Q390 329 368 347T296 366H242L121 32H353Q408 32 459 75T562 214H594L517 0H-89L-79 32H25ZM491 940H528L626 772H592L501 878L356 772H320L491 940Z"  />
<glyph unicode="&#xCB;" horiz-adv-x="710" d="M25 32L258 680H144L154 712H733L666 524H634Q637 536 640 560T644 605Q644 640 628 660T564 680H356L253 398H348Q372 398 393 408T431 436T463 477T488 525H520L410 215H378Q381 226 385 246T390 289Q390 329 368 347T296 366H242L121 32H353Q408 32 459 75T562 214H594L517 0H-89L-79 32H25ZM547 855Q547 875 560 888T594 902Q614 902 627 889T641 855Q641 835 628 822T594 808Q574 808 561 821T547 855ZM363 855Q363 875 376 888T410 902Q430 902 443 889T457 855Q457 835 444 822T410 808Q390 808 377 821T363 855Z"  />
<glyph unicode="&#xCC;" horiz-adv-x="395" d="M-73 32H30L263 680H149L159 712H475L465 680H359L127 32H241L231 0H-83L-73 32ZM200 876Q190 884 184 892T178 910Q178 924 186 933T212 942Q222 942 229 938T246 921L356 772H325L200 876Z"  />
<glyph unicode="&#xCD;" horiz-adv-x="395" d="M-73 32H30L263 680H149L159 712H475L465 680H359L127 32H241L231 0H-83L-73 32ZM443 912Q461 929 471 935T492 942Q505 942 513 934T522 913Q522 902 515 892T479 865L329 772H295L443 912Z"  />
<glyph unicode="&#xCE;" horiz-adv-x="395" d="M-73 32H30L263 680H149L159 712H475L465 680H359L127 32H241L231 0H-83L-73 32ZM344 940H381L479 772H445L354 878L209 772H173L344 940Z"  />
<glyph unicode="&#xCF;" horiz-adv-x="395" d="M-73 32H30L263 680H149L159 712H475L465 680H359L127 32H241L231 0H-83L-73 32ZM400 855Q400 875 413 888T447 902Q467 902 480 889T494 855Q494 835 481 822T447 808Q427 808 414 821T400 855ZM216 855Q216 875 229 888T263 902Q283 902 296 889T310 855Q310 835 297 822T263 808Q243 808 230 821T216 855Z"  />
<glyph unicode="&#xD0;" horiz-adv-x="808" d="M154 375H39L51 406H165L264 680H149L159 712H467Q534 712 586 692T673 636T727 550T746 438Q746 381 727 324T674 216T592 121T486 49Q431 23 377 12T252 0H-83L-73 32H31L154 375ZM262 406H399L387 375H251L128 32H262Q340 32 413 69T549 188Q573 218 592 256T625 336T646 417T654 492Q654 537 644 572T610 631T548 667T455 680H360L262 406Z"  />
<glyph unicode="&#xD1;" horiz-adv-x="736" d="M501 168L684 680H570L579 712H831L822 680H718L466 -15H453L281 662H279L54 32H167L158 0H-94L-85 32H19L250 680H138L147 712H362L499 168H501ZM343 796Q346 818 356 836T380 868T411 888T445 895Q462 895 474 891T503 878L533 862Q562 846 585 846Q602 846 614 860T635 898H668Q657 856 632 826T564 796Q547 796 533 799T502 812L465 832Q451 840 444 842T426 845Q406 845 395 831T377 796H343Z"  />
<glyph unicode="&#xD2;" horiz-adv-x="790" d="M495 725Q552 725 596 703T671 642T717 550T733 435Q733 379 716 324T669 220T597 127T507 53T404 4T295 -14Q241 -14 198 5T124 62T77 152T60 273Q60 329 78 384T127 490T200 584T290 658T391 707T495 725ZM491 693Q419 693 354 649T244 521Q221 479 203 432T171 339T151 248T144 167Q144 18 298 18Q374 18 440 63T554 200Q575 239 592 284T620 374T638 461T645 539Q645 693 491 693ZM386 876Q376 884 370 892T364 910Q364 924 372 933T398 942Q408 942 415 938T432 921L542 772H511L386 876Z"  />
<glyph unicode="&#xD3;" horiz-adv-x="790" d="M495 725Q552 725 596 703T671 642T717 550T733 435Q733 379 716 324T669 220T597 127T507 53T404 4T295 -14Q241 -14 198 5T124 62T77 152T60 273Q60 329 78 384T127 490T200 584T290 658T391 707T495 725ZM491 693Q419 693 354 649T244 521Q221 479 203 432T171 339T151 248T144 167Q144 18 298 18Q374 18 440 63T554 200Q575 239 592 284T620 374T638 461T645 539Q645 693 491 693ZM629 912Q647 929 657 935T678 942Q691 942 699 934T708 913Q708 902 701 892T665 865L515 772H481L629 912Z"  />
<glyph unicode="&#xD4;" horiz-adv-x="790" d="M495 725Q552 725 596 703T671 642T717 550T733 435Q733 379 716 324T669 220T597 127T507 53T404 4T295 -14Q241 -14 198 5T124 62T77 152T60 273Q60 329 78 384T127 490T200 584T290 658T391 707T495 725ZM491 693Q419 693 354 649T244 521Q221 479 203 432T171 339T151 248T144 167Q144 18 298 18Q374 18 440 63T554 200Q575 239 592 284T620 374T638 461T645 539Q645 693 491 693ZM530 940H567L665 772H631L540 878L395 772H359L530 940Z"  />
<glyph unicode="&#xD5;" horiz-adv-x="790" d="M495 725Q552 725 596 703T671 642T717 550T733 435Q733 379 716 324T669 220T597 127T507 53T404 4T295 -14Q241 -14 198 5T124 62T77 152T60 273Q60 329 78 384T127 490T200 584T290 658T391 707T495 725ZM491 693Q419 693 354 649T244 521Q221 479 203 432T171 339T151 248T144 167Q144 18 298 18Q374 18 440 63T554 200Q575 239 592 284T620 374T638 461T645 539Q645 693 491 693ZM372 796Q375 818 385 836T409 868T440 888T474 895Q491 895 503 891T532 878L562 862Q591 846 614 846Q631 846 643 860T664 898H697Q686 856 661 826T593 796Q576 796 562 799T531 812L494 832Q480 840 473 842T455 845Q435 845 424 831T406 796H372Z"  />
<glyph unicode="&#xD6;" horiz-adv-x="790" d="M495 725Q552 725 596 703T671 642T717 550T733 435Q733 379 716 324T669 220T597 127T507 53T404 4T295 -14Q241 -14 198 5T124 62T77 152T60 273Q60 329 78 384T127 490T200 584T290 658T391 707T495 725ZM491 693Q419 693 354 649T244 521Q221 479 203 432T171 339T151 248T144 167Q144 18 298 18Q374 18 440 63T554 200Q575 239 592 284T620 374T638 461T645 539Q645 693 491 693ZM586 855Q586 875 599 888T633 902Q653 902 666 889T680 855Q680 835 667 822T633 808Q613 808 600 821T586 855ZM402 855Q402 875 415 888T449 902Q469 902 482 889T496 855Q496 835 483 822T449 808Q429 808 416 821T402 855Z"  />
<glyph unicode="&#xD7;" horiz-adv-x="593" d="M319 240L518 42L495 19L296 217L97 18L75 41L273 240L75 438L97 461L296 263L495 462L517 439L319 240Z"  />
<glyph unicode="&#xD8;" horiz-adv-x="790" d="M495 725Q536 725 572 713L612 782L640 766L602 700Q666 666 699 596T733 435Q733 379 716 324T669 220T597 127T507 53T404 4T295 -14Q269 -14 245 -9T200 4L154 -75L127 -59L172 19Q118 52 89 117T60 273Q60 329 78 384T127 490T200 584T290 658T391 707T495 725ZM645 539Q645 632 585 670L216 33Q249 18 298 18Q374 18 440 63T554 200Q575 239 592 284T620 374T638 461T645 539ZM491 693Q419 693 354 649T244 521Q221 479 203 432T171 339T151 248T144 167Q144 86 189 49L555 684Q528 693 491 693Z"  />
<glyph unicode="&#xD9;" horiz-adv-x="767" d="M137 680L147 712H462L452 680H347L204 283Q196 260 191 242T182 207T177 176T175 145Q175 87 212 53T309 18Q405 18 470 76T574 259L704 680H590L600 712H854L844 680H740L601 234Q558 105 483 46T293 -14Q243 -14 204 -1T139 34T98 88T84 157Q84 173 85 189T91 226T104 271T124 328L251 680H137ZM398 876Q388 884 382 892T376 910Q376 924 384 933T410 942Q420 942 427 938T444 921L554 772H523L398 876Z"  />
<glyph unicode="&#xDA;" horiz-adv-x="767" d="M137 680L147 712H462L452 680H347L204 283Q196 260 191 242T182 207T177 176T175 145Q175 87 212 53T309 18Q405 18 470 76T574 259L704 680H590L600 712H854L844 680H740L601 234Q558 105 483 46T293 -14Q243 -14 204 -1T139 34T98 88T84 157Q84 173 85 189T91 226T104 271T124 328L251 680H137ZM641 912Q659 929 669 935T690 942Q703 942 711 934T720 913Q720 902 713 892T677 865L527 772H493L641 912Z"  />
<glyph unicode="&#xDB;" horiz-adv-x="767" d="M137 680L147 712H462L452 680H347L204 283Q196 260 191 242T182 207T177 176T175 145Q175 87 212 53T309 18Q405 18 470 76T574 259L704 680H590L600 712H854L844 680H740L601 234Q558 105 483 46T293 -14Q243 -14 204 -1T139 34T98 88T84 157Q84 173 85 189T91 226T104 271T124 328L251 680H137ZM542 940H579L677 772H643L552 878L407 772H371L542 940Z"  />
<glyph unicode="&#xDC;" horiz-adv-x="767" d="M137 680L147 712H462L452 680H347L204 283Q196 260 191 242T182 207T177 176T175 145Q175 87 212 53T309 18Q405 18 470 76T574 259L704 680H590L600 712H854L844 680H740L601 234Q558 105 483 46T293 -14Q243 -14 204 -1T139 34T98 88T84 157Q84 173 85 189T91 226T104 271T124 328L251 680H137ZM598 855Q598 875 611 888T645 902Q665 902 678 889T692 855Q692 835 679 822T645 808Q625 808 612 821T598 855ZM414 855Q414 875 427 888T461 902Q481 902 494 889T508 855Q508 835 495 822T461 808Q441 808 428 821T414 855Z"  />
<glyph unicode="&#xDD;" horiz-adv-x="664" d="M361 302L262 32H377L367 0H52L62 32H174L274 307L203 680H93L102 712H416L407 680H296L359 346L656 680H568L577 712H783L774 680H696L361 302ZM601 912Q619 929 629 935T650 942Q663 942 671 934T680 913Q680 902 673 892T637 865L487 772H453L601 912Z"  />
<glyph unicode="&#xDE;" horiz-adv-x="641" d="M265 169Q242 169 217 171T175 177L123 32H237L226 0H-88L-79 32H27L259 680H145L154 712H470L461 680H355L323 591H362Q408 591 451 579T528 544T582 486T602 408Q602 354 574 310T499 235T392 186T265 169ZM186 208Q203 204 223 203T264 201Q315 201 358 220T434 272T484 346T502 436Q502 496 462 527T350 559H311L186 208Z"  />
<glyph unicode="&#xDF;" horiz-adv-x="576" d="M156 485Q173 542 199 592T261 679T343 738T447 760Q510 760 545 727T580 642Q580 585 551 547T459 480Q416 460 402 442T387 401Q387 390 391 372T406 336L463 229Q489 180 489 143Q489 111 474 83T435 34T377 0T308 -13Q251 -13 218 16T185 90Q185 107 200 119T235 131Q250 131 259 125T268 108Q268 100 266 96T260 87T254 77T251 62Q251 19 314 19Q336 19 354 26T387 45T409 73T417 109Q417 127 412 146T394 189L338 293Q322 322 317 340T311 373Q311 392 315 408T333 440T368 471T425 501Q494 531 521 562T548 641Q548 677 523 701T456 726Q390 726 334 673T247 518L98 28Q78 -38 45 -90T-26 -180T-105 -236T-180 -256Q-218 -256 -242 -232T-267 -169Q-267 -123 -218 -123Q-201 -123 -193 -130T-185 -150Q-185 -164 -190 -173T-195 -198Q-195 -209 -188 -216T-167 -224Q-119 -224 -70 -167T15 7L156 485Z"  />
<glyph unicode="&#xE0;" horiz-adv-x="595" d="M528 457L419 154Q407 121 401 96T394 53Q394 41 401 34T421 27Q445 27 468 46T512 104L540 90Q485 -13 393 -13Q356 -13 336 2T315 47Q315 56 317 70T322 94H320Q268 34 223 11T132 -13Q75 -13 43 25T10 127Q10 169 27 210T72 290T136 361T209 418T282 456T347 470Q379 470 402 454T429 408H431L448 457H528ZM403 329Q408 343 410 353T412 373Q412 402 393 420T342 438Q308 438 277 421T217 375T166 311T126 238T100 166T91 105Q91 63 106 41T154 19Q177 19 206 32T263 68T314 121T350 185L403 329ZM254 656Q244 664 238 672T232 690Q232 704 240 713T266 722Q276 722 283 718T300 701L410 552H379L254 656Z"  />
<glyph unicode="&#xE1;" horiz-adv-x="595" d="M528 457L419 154Q407 121 401 96T394 53Q394 41 401 34T421 27Q445 27 468 46T512 104L540 90Q485 -13 393 -13Q356 -13 336 2T315 47Q315 56 317 70T322 94H320Q268 34 223 11T132 -13Q75 -13 43 25T10 127Q10 169 27 210T72 290T136 361T209 418T282 456T347 470Q379 470 402 454T429 408H431L448 457H528ZM403 329Q408 343 410 353T412 373Q412 402 393 420T342 438Q308 438 277 421T217 375T166 311T126 238T100 166T91 105Q91 63 106 41T154 19Q177 19 206 32T263 68T314 121T350 185L403 329ZM496 692Q514 709 524 715T545 722Q558 722 566 714T575 693Q575 682 568 672T532 645L382 552H348L496 692Z"  />
<glyph unicode="&#xE2;" horiz-adv-x="595" d="M528 457L419 154Q407 121 401 96T394 53Q394 41 401 34T421 27Q445 27 468 46T512 104L540 90Q485 -13 393 -13Q356 -13 336 2T315 47Q315 56 317 70T322 94H320Q268 34 223 11T132 -13Q75 -13 43 25T10 127Q10 169 27 210T72 290T136 361T209 418T282 456T347 470Q379 470 402 454T429 408H431L448 457H528ZM403 329Q408 343 410 353T412 373Q412 402 393 420T342 438Q308 438 277 421T217 375T166 311T126 238T100 166T91 105Q91 63 106 41T154 19Q177 19 206 32T263 68T314 121T350 185L403 329ZM398 720H435L533 552H499L408 658L263 552H227L398 720Z"  />
<glyph unicode="&#xE3;" horiz-adv-x="595" d="M528 457L419 154Q407 121 401 96T394 53Q394 41 401 34T421 27Q445 27 468 46T512 104L540 90Q485 -13 393 -13Q356 -13 336 2T315 47Q315 56 317 70T322 94H320Q268 34 223 11T132 -13Q75 -13 43 25T10 127Q10 169 27 210T72 290T136 361T209 418T282 456T347 470Q379 470 402 454T429 408H431L448 457H528ZM403 329Q408 343 410 353T412 373Q412 402 393 420T342 438Q308 438 277 421T217 375T166 311T126 238T100 166T91 105Q91 63 106 41T154 19Q177 19 206 32T263 68T314 121T350 185L403 329ZM246 576Q249 598 259 616T283 648T314 668T348 675Q365 675 377 671T406 658L436 642Q465 626 488 626Q505 626 517 640T538 678H571Q560 636 535 606T467 576Q450 576 436 579T405 592L368 612Q354 620 347 622T329 625Q309 625 298 611T280 576H246Z"  />
<glyph unicode="&#xE4;" horiz-adv-x="595" d="M528 457L419 154Q407 121 401 96T394 53Q394 41 401 34T421 27Q445 27 468 46T512 104L540 90Q485 -13 393 -13Q356 -13 336 2T315 47Q315 56 317 70T322 94H320Q268 34 223 11T132 -13Q75 -13 43 25T10 127Q10 169 27 210T72 290T136 361T209 418T282 456T347 470Q379 470 402 454T429 408H431L448 457H528ZM403 329Q408 343 410 353T412 373Q412 402 393 420T342 438Q308 438 277 421T217 375T166 311T126 238T100 166T91 105Q91 63 106 41T154 19Q177 19 206 32T263 68T314 121T350 185L403 329ZM452 635Q452 655 465 668T499 682Q519 682 532 669T546 635Q546 615 533 602T499 588Q479 588 466 601T452 635ZM268 635Q268 655 281 668T315 682Q335 682 348 669T362 635Q362 615 349 602T315 588Q295 588 282 601T268 635Z"  />
<glyph unicode="&#xE5;" horiz-adv-x="595" d="M528 457L419 154Q407 121 401 96T394 53Q394 41 401 34T421 27Q445 27 468 46T512 104L540 90Q485 -13 393 -13Q356 -13 336 2T315 47Q315 56 317 70T322 94H320Q268 34 223 11T132 -13Q75 -13 43 25T10 127Q10 169 27 210T72 290T136 361T209 418T282 456T347 470Q379 470 402 454T429 408H431L448 457H528ZM403 329Q408 343 410 353T412 373Q412 402 393 420T342 438Q308 438 277 421T217 375T166 311T126 238T100 166T91 105Q91 63 106 41T154 19Q177 19 206 32T263 68T314 121T350 185L403 329ZM507 674Q507 653 497 632T471 595T435 568T395 558Q364 558 345 579T325 630Q325 650 335 670T362 707T399 733T440 743Q468 743 487 724T507 674ZM469 676Q469 717 434 717Q420 717 407 708T384 686T369 658T363 630Q363 604 371 594T396 584Q411 584 424 593T447 616T463 646T469 676Z"  />
<glyph unicode="&#xE6;" horiz-adv-x="817" d="M528 457L509 405L511 404Q543 434 578 452T647 470Q704 470 737 445T771 377Q771 343 748 316T688 270T604 241T509 230Q492 230 478 231T449 235Q438 203 433 176T428 123Q428 74 453 46T527 17Q572 17 608 41T681 117L709 101Q666 40 620 14T514 -13Q445 -13 401 24T349 118H347Q295 45 239 16T132 -13Q75 -13 43 25T10 127Q10 169 27 210T72 290T136 361T209 418T282 456T347 470Q379 470 402 454T429 408H431L448 457H528ZM403 329Q408 343 410 353T412 373Q412 402 393 420T342 438Q308 438 277 421T217 375T166 311T126 238T100 166T91 105Q91 63 106 41T154 19Q177 19 206 32T263 68T314 121T350 185L403 329ZM647 438Q619 438 592 425T541 389T496 335T460 266Q470 264 483 263T513 262Q550 262 584 272T643 300T684 341T699 390Q699 413 685 425T647 438Z"  />
<glyph unicode="&#xE7;" horiz-adv-x="478" d="M387 101Q310 -6 202 -12L141 -71L142 -72Q161 -61 190 -61Q202 -61 215 -65T238 -79T254 -102T261 -137Q261 -162 251 -183T225 -219T186 -243T138 -252Q113 -252 92 -243T57 -221L78 -195Q106 -219 140 -219Q173 -219 189 -194T205 -136Q205 -115 197 -103T168 -91Q137 -91 114 -108L95 -81L165 -12Q99 -4 61 40T22 152Q22 203 47 259T115 362T213 439T328 470Q388 470 417 443T446 371Q446 333 429 317T383 301Q369 301 361 310T353 333Q353 345 357 352T366 365T376 378T380 398Q380 417 368 427T321 438Q273 438 233 406T164 325T119 220T103 116Q103 71 129 45T204 19Q244 19 285 43T359 116L387 101Z"  />
<glyph unicode="&#xE8;" horiz-adv-x="483" d="M175 230Q158 230 144 231T115 235Q104 203 99 176T94 123Q94 74 119 46T193 17Q238 17 274 41T347 117L375 101Q332 40 286 14T180 -13Q142 -13 112 -2T60 30T26 78T14 138Q14 196 41 255T110 362T206 440T313 470Q370 470 403 445T437 377Q437 343 414 316T354 270T270 241T175 230ZM313 438Q285 438 258 425T207 389T162 335T126 266Q136 264 149 263T179 262Q216 262 250 272T309 300T350 341T365 390Q365 413 351 425T313 438ZM212 656Q202 664 196 672T190 690Q190 704 198 713T224 722Q234 722 241 718T258 701L368 552H337L212 656Z"  />
<glyph unicode="&#xE9;" horiz-adv-x="483" d="M175 230Q158 230 144 231T115 235Q104 203 99 176T94 123Q94 74 119 46T193 17Q238 17 274 41T347 117L375 101Q332 40 286 14T180 -13Q142 -13 112 -2T60 30T26 78T14 138Q14 196 41 255T110 362T206 440T313 470Q370 470 403 445T437 377Q437 343 414 316T354 270T270 241T175 230ZM313 438Q285 438 258 425T207 389T162 335T126 266Q136 264 149 263T179 262Q216 262 250 272T309 300T350 341T365 390Q365 413 351 425T313 438ZM454 692Q472 709 482 715T503 722Q516 722 524 714T533 693Q533 682 526 672T490 645L340 552H306L454 692Z"  />
<glyph unicode="&#xEA;" horiz-adv-x="483" d="M175 230Q158 230 144 231T115 235Q104 203 99 176T94 123Q94 74 119 46T193 17Q238 17 274 41T347 117L375 101Q332 40 286 14T180 -13Q142 -13 112 -2T60 30T26 78T14 138Q14 196 41 255T110 362T206 440T313 470Q370 470 403 445T437 377Q437 343 414 316T354 270T270 241T175 230ZM313 438Q285 438 258 425T207 389T162 335T126 266Q136 264 149 263T179 262Q216 262 250 272T309 300T350 341T365 390Q365 413 351 425T313 438ZM356 720H393L491 552H457L366 658L221 552H185L356 720Z"  />
<glyph unicode="&#xEB;" horiz-adv-x="483" d="M175 230Q158 230 144 231T115 235Q104 203 99 176T94 123Q94 74 119 46T193 17Q238 17 274 41T347 117L375 101Q332 40 286 14T180 -13Q142 -13 112 -2T60 30T26 78T14 138Q14 196 41 255T110 362T206 440T313 470Q370 470 403 445T437 377Q437 343 414 316T354 270T270 241T175 230ZM313 438Q285 438 258 425T207 389T162 335T126 266Q136 264 149 263T179 262Q216 262 250 272T309 300T350 341T365 390Q365 413 351 425T313 438ZM410 635Q410 655 423 668T457 682Q477 682 490 669T504 635Q504 615 491 602T457 588Q437 588 424 601T410 635ZM226 635Q226 655 239 668T273 682Q293 682 306 669T320 635Q320 615 307 602T273 588Q253 588 240 601T226 635Z"  />
<glyph unicode="&#xEC;" horiz-adv-x="307" d="M117 108Q109 85 106 72T102 47Q102 34 110 27T131 19Q155 19 180 41T223 99L253 88Q225 36 191 12T111 -13Q26 -13 26 52Q26 82 42 123L148 425H60L69 457H238L117 108ZM91 656Q81 664 75 672T69 690Q69 704 77 713T103 722Q113 722 120 718T137 701L247 552H216L91 656Z"  />
<glyph unicode="&#xED;" horiz-adv-x="307" d="M117 108Q109 85 106 72T102 47Q102 34 110 27T131 19Q155 19 180 41T223 99L253 88Q225 36 191 12T111 -13Q26 -13 26 52Q26 82 42 123L148 425H60L69 457H238L117 108ZM333 692Q351 709 361 715T382 722Q395 722 403 714T412 693Q412 682 405 672T369 645L219 552H185L333 692Z"  />
<glyph unicode="&#xEE;" horiz-adv-x="307" d="M117 108Q109 85 106 72T102 47Q102 34 110 27T131 19Q155 19 180 41T223 99L253 88Q225 36 191 12T111 -13Q26 -13 26 52Q26 82 42 123L148 425H60L69 457H238L117 108ZM235 720H272L370 552H336L245 658L100 552H64L235 720Z"  />
<glyph unicode="&#xEF;" horiz-adv-x="307" d="M117 108Q109 85 106 72T102 47Q102 34 110 27T131 19Q155 19 180 41T223 99L253 88Q225 36 191 12T111 -13Q26 -13 26 52Q26 82 42 123L148 425H60L69 457H238L117 108ZM289 635Q289 655 302 668T336 682Q356 682 369 669T383 635Q383 615 370 602T336 588Q316 588 303 601T289 635ZM105 635Q105 655 118 668T152 682Q172 682 185 669T199 635Q199 615 186 602T152 588Q132 588 119 601T105 635Z"  />
<glyph unicode="&#xF0;" horiz-adv-x="539" d="M367 605Q409 544 435 470T461 310Q461 238 436 179T369 77T277 11T175 -13Q140 -13 110 0T57 38T23 96T10 169Q10 229 35 284T102 380T193 445T294 470Q320 470 341 459T374 427L376 429Q371 468 358 509T321 593L187 557L177 590L302 623Q282 652 259 677T210 724L233 747Q262 725 291 697T346 635L473 669L483 636L367 605ZM291 438Q259 438 231 421T181 375T141 312T111 241T92 170T86 111Q86 66 109 43T172 19Q203 19 231 34T282 76T323 135T355 202T374 269T381 328Q381 380 359 409T291 438Z"  />
<glyph unicode="&#xF1;" horiz-adv-x="620" d="M156 425H67L76 457H245L203 333H205Q242 388 293 425T408 463Q453 463 481 439T509 379Q509 370 508 363T505 347T499 326T487 294L422 117Q413 92 410 77T406 50Q406 19 432 19Q478 19 521 101L550 89Q522 35 488 11T405 -13Q368 -13 346 3T323 50Q323 62 326 75T337 110L420 338Q430 364 430 385Q430 406 418 418T382 431Q358 431 327 414T264 365T206 293T162 206L88 0H8L156 425ZM212 576Q215 598 225 616T249 648T280 668T314 675Q331 675 343 671T372 658L402 642Q431 626 454 626Q471 626 483 640T504 678H537Q526 636 501 606T433 576Q416 576 402 579T371 592L334 612Q320 620 313 622T295 625Q275 625 264 611T246 576H212Z"  />
<glyph unicode="&#xF2;" horiz-adv-x="551" d="M305 470Q345 470 376 454T428 412T461 354T473 289Q473 230 447 176T379 79T286 12T184 -13Q148 -13 117 1T62 40T25 98T12 171Q12 231 38 285T107 380T201 446T305 470ZM291 438Q249 438 213 407T150 330T108 232T93 137Q93 82 118 51T188 19Q231 19 268 51T333 129T376 229T392 325Q392 379 367 408T291 438ZM198 656Q188 664 182 672T176 690Q176 704 184 713T210 722Q220 722 227 718T244 701L354 552H323L198 656Z"  />
<glyph unicode="&#xF3;" horiz-adv-x="551" d="M305 470Q345 470 376 454T428 412T461 354T473 289Q473 230 447 176T379 79T286 12T184 -13Q148 -13 117 1T62 40T25 98T12 171Q12 231 38 285T107 380T201 446T305 470ZM291 438Q249 438 213 407T150 330T108 232T93 137Q93 82 118 51T188 19Q231 19 268 51T333 129T376 229T392 325Q392 379 367 408T291 438ZM440 692Q458 709 468 715T489 722Q502 722 510 714T519 693Q519 682 512 672T476 645L326 552H292L440 692Z"  />
<glyph unicode="&#xF4;" horiz-adv-x="551" d="M305 470Q345 470 376 454T428 412T461 354T473 289Q473 230 447 176T379 79T286 12T184 -13Q148 -13 117 1T62 40T25 98T12 171Q12 231 38 285T107 380T201 446T305 470ZM291 438Q249 438 213 407T150 330T108 232T93 137Q93 82 118 51T188 19Q231 19 268 51T333 129T376 229T392 325Q392 379 367 408T291 438ZM342 720H379L477 552H443L352 658L207 552H171L342 720Z"  />
<glyph unicode="&#xF5;" horiz-adv-x="551" d="M305 470Q345 470 376 454T428 412T461 354T473 289Q473 230 447 176T379 79T286 12T184 -13Q148 -13 117 1T62 40T25 98T12 171Q12 231 38 285T107 380T201 446T305 470ZM291 438Q249 438 213 407T150 330T108 232T93 137Q93 82 118 51T188 19Q231 19 268 51T333 129T376 229T392 325Q392 379 367 408T291 438ZM190 576Q193 598 203 616T227 648T258 668T292 675Q309 675 321 671T350 658L380 642Q409 626 432 626Q449 626 461 640T482 678H515Q504 636 479 606T411 576Q394 576 380 579T349 592L312 612Q298 620 291 622T273 625Q253 625 242 611T224 576H190Z"  />
<glyph unicode="&#xF6;" horiz-adv-x="551" d="M305 470Q345 470 376 454T428 412T461 354T473 289Q473 230 447 176T379 79T286 12T184 -13Q148 -13 117 1T62 40T25 98T12 171Q12 231 38 285T107 380T201 446T305 470ZM291 438Q249 438 213 407T150 330T108 232T93 137Q93 82 118 51T188 19Q231 19 268 51T333 129T376 229T392 325Q392 379 367 408T291 438ZM396 635Q396 655 409 668T443 682Q463 682 476 669T490 635Q490 615 477 602T443 588Q423 588 410 601T396 635ZM212 635Q212 655 225 668T259 682Q279 682 292 669T306 635Q306 615 293 602T259 588Q239 588 226 601T212 635Z"  />
<glyph unicode="&#xF7;" horiz-adv-x="593" d="M296 124Q313 124 325 112T338 82Q338 64 326 52T296 39Q278 39 266 51T253 82Q253 99 265 111T296 124ZM296 441Q313 441 325 429T338 399Q338 381 326 369T296 356Q278 356 266 368T253 399Q253 416 265 428T296 441ZM57 224V256H536V224H57Z"  />
<glyph unicode="&#xF8;" horiz-adv-x="551" d="M305 470Q328 470 348 464L382 522L411 507L379 452Q401 440 418 422T448 382T466 337T473 289Q473 230 447 176T379 79T286 12T184 -13Q149 -13 115 1L70 -76L41 -62L87 17Q52 42 32 81T12 171Q12 231 38 285T107 380T201 446T305 470ZM392 325Q392 385 358 416L135 34Q156 19 188 19Q231 19 268 51T333 129T376 229T392 325ZM291 438Q249 438 213 407T150 330T108 232T93 137Q93 87 112 59L329 432Q312 438 291 438Z"  />
<glyph unicode="&#xF9;" horiz-adv-x="589" d="M119 119Q111 95 108 80T104 54Q104 38 114 29T145 19Q172 19 205 39T270 93T329 169T371 254L441 457H521L399 108Q390 82 387 70T384 48Q384 19 412 19Q438 19 462 41T505 99L535 88Q505 34 469 11T387 -13Q349 -13 328 2T306 47Q306 74 320 113L318 115Q220 -13 122 -13Q77 -13 52 7T26 65Q26 77 29 91T41 132L145 425H57L66 457H237L119 119ZM225 656Q215 664 209 672T203 690Q203 704 211 713T237 722Q247 722 254 718T271 701L381 552H350L225 656Z"  />
<glyph unicode="&#xFA;" horiz-adv-x="589" d="M119 119Q111 95 108 80T104 54Q104 38 114 29T145 19Q172 19 205 39T270 93T329 169T371 254L441 457H521L399 108Q390 82 387 70T384 48Q384 19 412 19Q438 19 462 41T505 99L535 88Q505 34 469 11T387 -13Q349 -13 328 2T306 47Q306 74 320 113L318 115Q220 -13 122 -13Q77 -13 52 7T26 65Q26 77 29 91T41 132L145 425H57L66 457H237L119 119ZM467 692Q485 709 495 715T516 722Q529 722 537 714T546 693Q546 682 539 672T503 645L353 552H319L467 692Z"  />
<glyph unicode="&#xFB;" horiz-adv-x="589" d="M119 119Q111 95 108 80T104 54Q104 38 114 29T145 19Q172 19 205 39T270 93T329 169T371 254L441 457H521L399 108Q390 82 387 70T384 48Q384 19 412 19Q438 19 462 41T505 99L535 88Q505 34 469 11T387 -13Q349 -13 328 2T306 47Q306 74 320 113L318 115Q220 -13 122 -13Q77 -13 52 7T26 65Q26 77 29 91T41 132L145 425H57L66 457H237L119 119ZM369 720H406L504 552H470L379 658L234 552H198L369 720Z"  />
<glyph unicode="&#xFC;" horiz-adv-x="589" d="M119 119Q111 95 108 80T104 54Q104 38 114 29T145 19Q172 19 205 39T270 93T329 169T371 254L441 457H521L399 108Q390 82 387 70T384 48Q384 19 412 19Q438 19 462 41T505 99L535 88Q505 34 469 11T387 -13Q349 -13 328 2T306 47Q306 74 320 113L318 115Q220 -13 122 -13Q77 -13 52 7T26 65Q26 77 29 91T41 132L145 425H57L66 457H237L119 119ZM423 635Q423 655 436 668T470 682Q490 682 503 669T517 635Q517 615 504 602T470 588Q450 588 437 601T423 635ZM239 635Q239 655 252 668T286 682Q306 682 319 669T333 635Q333 615 320 602T286 588Q266 588 253 601T239 635Z"  />
<glyph unicode="&#xFD;" horiz-adv-x="500" d="M7 342Q21 399 52 434T146 470Q176 470 196 458T228 425T245 375T250 310Q250 250 244 198T227 97H229L340 297Q367 345 388 378T429 431T466 461T507 470Q528 470 540 460T552 433Q552 417 543 407T520 396Q514 396 508 399T494 402Q476 402 460 392T424 360T382 300T327 207Q285 134 246 64T167 -82Q147 -121 125 -154T79 -212T27 -251T-31 -265Q-76 -265 -100 -240T-124 -175Q-124 -123 -67 -123Q-51 -123 -44 -131T-37 -153Q-37 -169 -42 -179T-47 -206Q-47 -217 -38 -224T-12 -232Q16 -232 47 -196T105 -99T148 37T165 195Q165 270 161 315T150 386T134 419T112 427Q87 427 69 403T38 333L7 342ZM442 692Q460 709 470 715T491 722Q504 722 512 714T521 693Q521 682 514 672T478 645L328 552H294L442 692Z"  />
<glyph unicode="&#xFE;" horiz-adv-x="597" d="M245 689H154L163 721H336L213 390H215Q241 428 276 449T354 470Q390 470 419 457T468 419T500 360T512 283Q512 232 489 179T426 84T336 14T230 -13Q182 -13 149 10T108 77H106L-8 -247H77L68 -279H-171L-162 -247H-88L245 689ZM125 130Q136 73 163 46T232 19Q270 19 306 49T369 125T413 224T430 322Q430 382 407 410T345 438Q307 438 273 414T196 329L125 130Z"  />
<glyph unicode="&#xFF;" horiz-adv-x="500" d="M7 342Q21 399 52 434T146 470Q176 470 196 458T228 425T245 375T250 310Q250 250 244 198T227 97H229L340 297Q367 345 388 378T429 431T466 461T507 470Q528 470 540 460T552 433Q552 417 543 407T520 396Q514 396 508 399T494 402Q476 402 460 392T424 360T382 300T327 207Q285 134 246 64T167 -82Q147 -121 125 -154T79 -212T27 -251T-31 -265Q-76 -265 -100 -240T-124 -175Q-124 -123 -67 -123Q-51 -123 -44 -131T-37 -153Q-37 -169 -42 -179T-47 -206Q-47 -217 -38 -224T-12 -232Q16 -232 47 -196T105 -99T148 37T165 195Q165 270 161 315T150 386T134 419T112 427Q87 427 69 403T38 333L7 342ZM398 635Q398 655 411 668T445 682Q465 682 478 669T492 635Q492 615 479 602T445 588Q425 588 412 601T398 635ZM214 635Q214 655 227 668T261 682Q281 682 294 669T308 635Q308 615 295 602T261 588Q241 588 228 601T214 635Z"  />
<glyph unicode="&#x131;" horiz-adv-x="307" d="M117 108Q109 85 106 72T102 47Q102 34 110 27T131 19Q155 19 180 41T223 99L253 88Q225 36 191 12T111 -13Q26 -13 26 52Q26 82 42 123L148 425H60L69 457H238L117 108Z"  />
<glyph unicode="&#x152;" horiz-adv-x="1077" d="M445 0Q430 0 411 -1T370 -3T330 -5T295 -6Q241 -6 198 13T124 67T77 155T60 273Q60 328 78 383T129 487T206 578T300 652T406 700T515 718Q535 718 554 717T596 715T646 713T707 712H1100L1033 524H1001Q1004 536 1007 560T1011 605Q1011 640 995 660T931 680H723L620 398H715Q739 398 760 408T798 436T830 477T855 525H887L777 215H745Q748 226 752 246T757 289Q757 329 735 347T663 366H609L488 32H720Q775 32 826 75T929 214H961L884 0H445ZM298 26Q323 26 346 27T392 33L623 674Q597 680 571 683T511 686Q436 686 368 643T252 521Q227 480 207 434T173 342T152 253T144 175Q144 26 298 26Z"  />
<glyph unicode="&#x153;" horiz-adv-x="839" d="M305 470Q335 470 359 461T403 437T437 400T461 356Q506 407 560 438T669 470Q726 470 759 445T793 377Q793 343 770 316T710 270T626 241T531 230Q514 230 500 231T471 235Q460 203 455 176T450 123Q450 74 475 46T549 17Q594 17 630 41T703 117L731 101Q688 40 642 14T536 -13Q478 -13 438 13T380 81Q338 38 287 13T184 -13Q148 -13 117 1T62 40T25 98T12 171Q12 231 38 285T107 380T201 446T305 470ZM291 438Q249 438 213 407T150 330T108 232T93 137Q93 82 118 51T188 19Q231 19 268 51T333 129T376 229T392 325Q392 379 367 408T291 438ZM669 438Q641 438 614 425T563 389T518 335T482 266Q492 264 505 263T535 262Q572 262 606 272T665 300T706 341T721 390Q721 413 707 425T669 438Z"  />
<glyph unicode="&#x160;" horiz-adv-x="617" d="M540 521H510Q515 534 517 550T519 581Q519 635 484 664T380 693Q348 693 321 685T274 661T243 625T232 579Q232 552 245 522T293 459L393 369Q438 327 458 291T478 206Q478 162 458 122T401 52T313 4T201 -14Q168 -14 142 -8T95 6T56 20T21 27Q7 27 -4 18T-17 -5L-49 2L20 197H53Q46 178 44 167T41 142Q41 114 54 92T89 53T142 27T209 18Q249 18 282 28T338 58T373 104T386 164Q386 199 374 228T330 286L241 368Q197 409 178 447T158 534Q158 575 176 610T226 670T298 710T386 725Q414 725 436 720T476 707T509 695T539 689Q565 689 576 715L609 710L540 521ZM332 940L423 834L568 940H605L434 772H396L298 940H332Z"  />
<glyph unicode="&#x161;" horiz-adv-x="406" d="M26 137Q38 137 44 129T51 110Q51 94 46 85T41 62Q41 40 55 30T103 19Q154 19 178 42T203 98Q203 112 199 129T175 170L119 244Q101 267 95 287T89 325Q89 353 102 379T137 426T190 458T253 470Q304 470 330 447T356 390Q356 336 308 336Q272 336 272 367Q272 382 278 389T285 408Q285 438 245 438Q202 438 178 418T153 366Q153 351 160 334T189 287L244 215Q259 195 265 175T271 130Q271 100 256 74T216 29T159 -2T91 -13Q37 -13 2 14T-33 83Q-33 107 -17 122T26 137ZM193 720L284 614L429 720H466L295 552H257L159 720H193Z"  />
<glyph unicode="&#x178;" horiz-adv-x="664" d="M361 302L262 32H377L367 0H52L62 32H174L274 307L203 680H93L102 712H416L407 680H296L359 346L656 680H568L577 712H783L774 680H696L361 302ZM558 855Q558 875 571 888T605 902Q625 902 638 889T652 855Q652 835 639 822T605 808Q585 808 572 821T558 855ZM374 855Q374 875 387 888T421 902Q441 902 454 889T468 855Q468 835 455 822T421 808Q401 808 388 821T374 855Z"  />
<glyph unicode="&#x17D;" horiz-adv-x="657" d="M537 680H335Q227 680 130 499H98L173 712H679L91 32H353Q383 32 410 45T463 83T512 141T558 214H590L512 0H-51L537 680ZM336 940L427 834L572 940H609L438 772H400L302 940H336Z"  />
<glyph unicode="&#x17E;" horiz-adv-x="538" d="M334 379Q312 380 281 381T220 384T166 385T132 386Q114 386 105 379T92 358L86 334L55 340Q58 350 62 364T69 394T76 421T82 440Q88 461 123 461Q133 461 154 461T203 459T259 457T315 455T362 454T392 453Q402 453 408 457T419 467L443 447L112 94Q166 94 204 83T271 59T322 35T368 24Q385 24 392 32T400 53Q400 71 381 86Q367 97 362 107T357 133Q357 150 369 162T402 174Q430 174 443 156T456 107Q456 47 419 17T316 -13Q292 -13 267 -7T214 6T158 20T96 26Q66 26 45 11T12 -19L-14 3L334 379ZM198 720L289 614L434 720H471L300 552H262L164 720H198Z"  />
<glyph unicode="&#x192;" horiz-adv-x="566" d="M316 334L243 141Q229 103 213 65T180 -8T146 -74T113 -130Q67 -200 22 -240T-72 -281Q-111 -281 -133 -260T-156 -202Q-156 -175 -143 -161T-106 -147Q-89 -147 -81 -155T-72 -175Q-72 -186 -76 -192T-84 -203T-93 -214T-97 -228Q-97 -249 -64 -249Q-49 -249 -33 -241T1 -212T36 -158T72 -76L223 334H91L101 366H235L263 441Q287 507 319 559T388 648T462 705T535 725Q586 725 613 700T640 628Q640 596 625 579T584 562Q545 562 545 594Q545 604 549 612T559 627T569 643T574 664Q574 678 563 685T532 693Q514 693 497 686T462 660T426 607T386 517L328 366H452L443 334H316Z"  />
<glyph unicode="&#x237;" horiz-adv-x="314" d="M76 425L86 457H257L91 -5Q68 -68 39 -116T-21 -198T-84 -247T-147 -264Q-185 -264 -209 -241T-233 -180Q-233 -155 -219 -138T-182 -121Q-166 -121 -157 -129T-147 -154Q-147 -170 -153 -179T-159 -203Q-159 -216 -151 -224T-125 -232Q-113 -232 -101 -225T-76 -201T-49 -157T-20 -88L167 425H76Z"  />
<glyph unicode="&#x2C6;" horiz-adv-x="278" d="M219 720H256L354 552H320L229 658L84 552H48L219 720Z"  />
<glyph unicode="&#x2DC;" horiz-adv-x="278" d="M61 576Q64 598 74 616T98 648T129 668T163 675Q180 675 192 671T221 658L251 642Q280 626 303 626Q320 626 332 640T353 678H386Q375 636 350 606T282 576Q265 576 251 579T220 592L183 612Q169 620 162 622T144 625Q124 625 113 611T95 576H61Z"  />
<glyph unicode="&#x2013;" horiz-adv-x="500" d="M-18 244H482L478 230H-22L-18 244Z"  />
<glyph unicode="&#x2014;" horiz-adv-x="1000" d="M112 244H852L848 230H108L112 244Z"  />
<glyph unicode="&#x2018;" horiz-adv-x="288" d="M319 742Q296 734 276 723T240 697T215 665T206 628Q206 614 210 605Q220 612 234 612Q257 612 272 597T288 558Q288 536 271 521T228 506Q197 506 178 531T158 591Q158 657 197 700T310 771L319 742Z"  />
<glyph unicode="&#x2019;" horiz-adv-x="288" d="M155 536Q178 543 198 554T234 581T259 613T268 650Q268 664 264 673Q254 666 240 666Q217 666 202 681T186 720Q186 742 203 757T246 772Q277 772 296 747T316 687Q316 621 277 578T164 507L155 536Z"  />
<glyph unicode="&#x201A;" horiz-adv-x="292" d="M-32 -143Q-9 -136 11 -125T47 -98T72 -66T81 -29Q81 -15 77 -6Q67 -13 53 -13Q30 -13 15 2T-1 41Q-1 63 16 78T59 93Q90 93 109 68T129 8Q129 -58 90 -101T-23 -172L-32 -143Z"  />
<glyph unicode="&#x201C;" horiz-adv-x="456" d="M319 742Q296 734 276 723T240 697T215 665T206 628Q206 614 210 605Q220 612 234 612Q257 612 272 597T288 558Q288 536 271 521T228 506Q197 506 178 531T158 591Q158 657 197 700T310 771L319 742ZM487 742Q464 734 444 723T408 697T383 665T374 628Q374 614 378 605Q388 612 402 612Q425 612 440 597T456 558Q456 536 439 521T396 506Q365 506 346 531T326 591Q326 657 365 700T478 771L487 742Z"  />
<glyph unicode="&#x201D;" horiz-adv-x="455" d="M155 536Q178 543 198 554T234 581T259 613T268 650Q268 664 264 673Q254 666 240 666Q217 666 202 681T186 720Q186 742 203 757T246 772Q277 772 296 747T316 687Q316 621 277 578T164 507L155 536ZM322 536Q345 543 365 554T401 581T426 613T435 650Q435 664 431 673Q421 666 407 666Q384 666 369 681T353 720Q353 742 370 757T413 772Q444 772 463 747T483 687Q483 621 444 578T331 507L322 536Z"  />
<glyph unicode="&#x201E;" horiz-adv-x="459" d="M-32 -143Q-9 -136 11 -125T47 -98T72 -66T81 -29Q81 -15 77 -6Q67 -13 53 -13Q30 -13 15 2T-1 41Q-1 63 16 78T59 93Q90 93 109 68T129 8Q129 -58 90 -101T-23 -172L-32 -143ZM135 -143Q158 -136 178 -125T214 -98T239 -66T248 -29Q248 -15 244 -6Q234 -13 220 -13Q197 -13 182 2T166 41Q166 63 183 78T226 93Q257 93 276 68T296 8Q296 -58 257 -101T144 -172L135 -143Z"  />
<glyph unicode="&#x2020;" horiz-adv-x="519" d="M72 457Q72 477 84 489T115 502Q126 502 134 500T153 491Q176 479 203 476T274 472H284Q298 514 306 550T314 627Q314 641 313 655T311 681Q311 703 323 714T356 725Q375 725 387 716T399 690Q399 678 395 668T380 640Q360 611 344 567T315 472H325Q370 472 397 475T452 493Q463 498 470 500T487 502Q505 502 516 490T528 460Q528 441 518 428T485 414Q477 414 470 416T451 423Q431 432 405 436T334 440H306L298 407Q287 368 283 337T278 280Q278 235 299 213Q263 191 243 154T206 57L113 -280H81L160 11Q172 56 177 89T183 147Q183 170 178 184T162 213Q180 222 193 236T219 274T242 332T268 417L274 440H266Q243 440 226 439T196 436T171 430T147 421Q132 414 114 414Q94 414 83 427T72 457Z"  />
<glyph unicode="&#x2021;" horiz-adv-x="519" d="M72 457Q72 477 84 489T115 502Q126 502 134 500T153 491Q176 479 203 476T274 472H284Q298 514 306 550T314 627Q314 641 313 655T311 681Q311 703 323 714T356 725Q375 725 387 716T399 690Q399 678 395 668T380 640Q360 611 344 567T315 472H325Q370 472 397 475T452 493Q463 498 470 500T487 502Q505 502 516 490T528 460Q528 441 518 428T485 414Q477 414 470 416T451 423Q431 432 405 436T334 440H306L298 407Q287 368 283 337T278 280Q278 235 299 213Q281 204 268 190T242 152T219 93T193 9L186 -14H195Q219 -14 235 -13T265 -10T290 -4T314 5Q329 12 347 12Q367 12 378 -1T389 -31Q389 -51 377 -63T346 -76Q335 -76 327 -74T308 -65Q285 -53 258 -50T187 -46H177Q163 -88 155 -123T147 -193Q147 -207 148 -221T150 -247Q150 -269 138 -280T105 -291Q86 -291 74 -282T62 -256Q62 -244 66 -234T81 -206Q101 -177 117 -136T146 -46H136Q91 -46 64 -49T9 -67Q-2 -72 -9 -74T-26 -76Q-44 -76 -55 -64T-67 -34Q-67 -15 -57 -2T-24 12Q-16 12 -9 10T10 3Q30 -6 56 -10T127 -14H154L163 19Q174 58 178 89T183 146Q183 191 162 213Q180 222 193 236T219 274T242 332T268 417L274 440H266Q243 440 226 439T196 436T171 430T147 421Q132 414 114 414Q94 414 83 427T72 457Z"  />
<glyph unicode="&#x2022;" horiz-adv-x="500" d="M72 356Q72 393 86 425T124 482T180 520T250 534Q287 534 319 520T376 482T414 426T428 356Q428 319 414 287T376 230T320 192T250 178Q213 178 181 192T124 230T86 286T72 356Z"  />
<glyph unicode="&#x2026;" horiz-adv-x="1040" d="M39 44Q39 67 55 83T94 100Q117 100 133 84T150 44Q150 21 134 5T94 -11Q71 -11 55 5T39 44ZM384 44Q384 67 400 83T439 100Q462 100 478 84T495 44Q495 21 479 5T439 -11Q416 -11 400 5T384 44ZM729 44Q729 67 745 83T784 100Q807 100 823 84T840 44Q840 21 824 5T784 -11Q761 -11 745 5T729 44Z"  />
<glyph unicode="&#x2030;" horiz-adv-x="1014" d="M238 704Q295 704 327 670T360 583Q360 542 345 504T304 435T243 387T168 368Q116 368 83 399T49 491Q49 522 62 559T99 629T159 682T238 704ZM235 672Q202 672 178 653T139 603T116 537T109 467Q109 435 125 418T172 400Q203 400 226 420T266 470T291 538T300 608Q300 637 285 654T235 672ZM533 723L565 705L132 -18L100 0L533 723ZM491 322Q548 322 580 288T613 201Q613 160 598 122T557 53T496 5T421 -14Q369 -14 336 17T302 109Q302 140 315 177T352 247T412 300T491 322ZM488 290Q455 290 431 271T392 221T369 155T362 85Q362 53 378 36T425 18Q456 18 479 38T519 88T544 156T553 226Q553 255 538 272T488 290ZM843 322Q900 322 932 288T965 201Q965 160 950 122T909 53T848 5T773 -14Q721 -14 688 17T654 109Q654 140 667 177T704 247T764 300T843 322ZM840 290Q807 290 783 271T744 221T721 155T714 85Q714 53 730 36T777 18Q808 18 831 38T871 88T896 156T905 226Q905 255 890 272T840 290Z"  />
<glyph unicode="&#x2039;" horiz-adv-x="282" d="M129 69Q20 111 20 211Q20 274 69 317T204 369V337Q147 331 114 291T80 184Q80 124 141 99L129 69Z"  />
<glyph unicode="&#x203A;" horiz-adv-x="282" d="M61 369Q170 327 170 227Q170 164 121 121T-14 69V101Q43 107 76 147T110 254Q110 314 49 339L61 369Z"  />
<glyph unicode="&#x20AC;" horiz-adv-x="640" d="M131 287Q127 261 125 237T123 189Q123 111 169 64T306 17Q370 17 416 51T501 157L529 143Q491 62 434 24T298 -15Q238 -15 191 10T111 76T60 172T39 287H-14L-4 319H39Q40 341 43 362T52 406H4L14 438H62Q82 496 117 548T199 640T299 702T410 725Q441 725 469 719T537 697Q563 687 580 687Q608 687 621 715L644 711L593 519H562Q564 529 564 539T564 557Q564 593 552 619T519 661T473 686T420 694Q354 694 313 667T244 602Q221 570 202 528T166 438H422L413 406H157Q143 362 136 319H380L371 287H131Z"  />
<glyph unicode="&#x2122;" horiz-adv-x="1034" d="M154 347H224V687H192Q154 687 131 666T95 595H74V712H432V595H411Q398 643 375 665T314 687H282V347H352V322H154V347ZM673 317L547 679H545V347H601V322H463V347H519V687H463V712H599L697 426H699L798 712H931V687H875V347H931V322H761V347H817V682H815L688 317H673Z"  />

</font>
</defs>
</svg>
