<?xml version="1.0" standalone="no"?>
<!DOCTYPE svg PUBLIC "-//W3C//DTD SVG 1.1//EN" "http://www.w3.org/Graphics/SVG/1.1/DTD/svg11.dtd" >
<svg>
<metadata>
Created by FontForge 20110222 at Mon Apr 28 18:55:32 2014
 By Orthosie Webhosting
Copyright (C) 2011 Markanna Studios Inc.www.SweetFonts.com
</metadata>
<defs>
<font id="SweetSansLight" horiz-adv-x="707" >
  <font-face 
    font-family="SweetSansLight"
    font-weight="300"
    font-stretch="normal"
    units-per-em="1000"
    panose-1="2 0 0 0 0 0 0 0 0 0"
    ascent="770"
    descent="-230"
    x-height="459"
    cap-height="653"
    bbox="-101 -305 1479 902"
    underline-thickness="56"
    underline-position="-72"
    unicode-range="U+000D-FB04"
  />
<missing-glyph horiz-adv-x="579" 
d="M579 0h-579v653h579v-653zM289 282l-201 -227h402zM88 598l201 -227l201 227h-402zM328 326l189 -212v425zM250 326l-189 213v-425z" />
    <glyph glyph-name="f_f" unicode="ff" horiz-adv-x="674" 
d="M41 459h94v101q0 77 41.5 114t97.5 37q71 0 109 -35l-14 -50q-30 30 -84 30q-38 0 -63 -24t-25 -72v-101h260v101q0 77 41 114t97 37q72 0 109 -35l-14 -50q-13 14 -37.5 22t-46.5 8q-38 0 -62.5 -24t-24.5 -72v-101h147v-49h-147v-410h-62v410h-260v-410h-62v410h-94v49
z" />
    <glyph glyph-name="f_i" unicode="fi" horiz-adv-x="600" 
d="M41 459h94v101q0 77 41 114t95 37q48 0 82 -17l-12 -52q-24 14 -59 14q-36 0 -60.5 -24t-24.5 -72v-101h147v-49h-147v-410h-62v410h-94v49zM504 0h-62v459h62v-459zM430 641q0 17 12 28.5t30 11.5q19 0 31 -11.5t12 -28.5t-12 -28t-31 -11q-18 0 -30 11.5t-12 27.5z" />
    <glyph glyph-name="f_l" unicode="fl" horiz-adv-x="622" 
d="M41 459h94v101q0 77 41 114t95 37q48 0 82 -17l-12 -52q-24 14 -59 14q-36 0 -60.5 -24t-24.5 -72v-101h147v-49h-147v-410h-62v410h-94v49zM516 0h-62v700h62v-700z" />
    <glyph glyph-name="f_f_i" unicode="ffi" horiz-adv-x="922" 
d="M457 0v410h-260v-410h-62v410h-94v49h94v101q0 77 41.5 114t97.5 37q71 0 109 -35l-14 -50q-30 30 -84 30q-38 0 -63 -24t-25 -72v-101h260v101q0 77 41 114t95 37q48 0 82 -17l-12 -52q-24 14 -59 14q-36 0 -60.5 -24t-24.5 -72v-101h147v-49h-147v-410h-62zM763 0v459
h62v-459h-62zM794 602q-18 0 -30 11.5t-12 27.5q0 17 12 28.5t30 11.5q19 0 31 -11.5t12 -28.5t-12 -28t-31 -11z" />
    <glyph glyph-name="f_f_l" unicode="ffl" horiz-adv-x="944" 
d="M457 0v410h-260v-410h-62v410h-94v49h94v101q0 77 41.5 114t97.5 37q71 0 109 -35l-14 -50q-30 30 -84 30q-38 0 -63 -24t-25 -72v-101h260v101q0 77 41 114t95 37q48 0 82 -17l-12 -52q-24 14 -59 14q-36 0 -60.5 -24t-24.5 -72v-101h147v-49h-147v-410h-62zM776 0v700
h62v-700h-62z" />
    <glyph glyph-name=".notdef" horiz-adv-x="579" 
d="M579 0h-579v653h579v-653zM289 282l-201 -227h402zM88 598l201 -227l201 227h-402zM328 326l189 -212v425zM250 326l-189 213v-425z" />
    <glyph glyph-name=".null" horiz-adv-x="265" 
 />
    <glyph glyph-name=".null" horiz-adv-x="265" 
 />
    <glyph glyph-name="nonmarkingreturn" horiz-adv-x="333" 
 />
    <glyph glyph-name="CR" unicode="&#xd;" horiz-adv-x="245" 
 />
    <glyph glyph-name="space" unicode=" " horiz-adv-x="225" 
 />
    <glyph glyph-name="exclam" unicode="!" horiz-adv-x="291" 
d="M90 40q0 20 16 35t39 15t38.5 -14.5t15.5 -35.5t-15.5 -35.5t-38.5 -14.5t-39 14.5t-16 35.5zM168 196h-45l-14 299v158h72v-158z" />
    <glyph glyph-name="quotedbl" unicode="&#x22;" horiz-adv-x="418" 
d="M127 423h-40l-14 139v91h67v-91zM331 423h-39l-14 139v91h67v-91z" />
    <glyph glyph-name="numbersign" unicode="#" horiz-adv-x="871" 
d="M592 592h51l-33 -180h203v-48h-212l-37 -202h194v-48h-203l-38 -206h-51l38 206h-195l-37 -206h-52l38 206h-201v48h210l37 202h-192v48h201l33 180h51l-33 -180h195zM355 364l-37 -202h195l37 202h-195z" />
    <glyph glyph-name="dollar" unicode="$" horiz-adv-x="682" 
d="M318 651h47v-94q133 -13 222 -81l-39 -44q-65 57 -183 69v-181q38 -2 66.5 -5t66.5 -13.5t62.5 -26t42 -45t17.5 -68.5q0 -87 -71.5 -130.5t-183.5 -45.5v-119h-47v121q-151 11 -265 109l39 43q99 -86 226 -98v220q-41 3 -69.5 7t-62 13.5t-53.5 23t-34 38t-14 56.5
q0 57 38 94.5t87.5 51t107.5 13.5v92zM557 154q0 30 -15.5 50.5t-45.5 31t-59 15.5t-72 8v-218q84 1 138 30t54 83zM149 405q0 -74 169 -83v182h-2q-69 0 -118 -24t-49 -75z" />
    <glyph glyph-name="percent" unicode="%" horiz-adv-x="1015" 
d="M58 425q0 69 54.5 118t132.5 49q77 0 133 -49.5t56 -117.5q0 -69 -56 -118.5t-133 -49.5q-78 0 -132.5 49.5t-54.5 118.5zM708 580l-344 -580h-54l344 580h54zM116 425q0 -48 37.5 -82t91.5 -34q53 0 92 34t39 82t-39 82t-92 34q-54 0 -91.5 -34t-37.5 -82zM584 156
q0 68 55 117.5t132 49.5t133.5 -49.5t56.5 -117.5q0 -69 -56 -118.5t-134 -49.5t-132.5 49t-54.5 119zM642 156q0 -48 37.5 -82.5t91.5 -34.5t93 34.5t39 82.5q0 47 -39 81t-93 34t-91.5 -34t-37.5 -81z" />
    <glyph glyph-name="ampersand" unicode="&#x26;" horiz-adv-x="806" 
d="M596 579l-33 -52q-66 42 -140 42q-53 0 -90 -23.5t-37 -61.5q0 -15 6.5 -31t22 -34.5t23.5 -27t30 -29.5l23 -20l193 -180q59 53 117 136l54 -28q-58 -81 -129 -147l134 -123h-89l-92 84q-128 -97 -250 -97q-39 0 -77.5 10.5t-73.5 31.5t-56.5 58.5t-21.5 86.5
q0 78 47.5 123.5t125.5 72.5q-54 57 -54 112q0 67 57.5 106.5t137.5 39.5q85 0 172 -49zM349 306l-24 21q-29 -10 -50 -19.5t-46 -26.5t-38.5 -43.5t-13.5 -60.5q0 -66 52 -98t115 -32q99 0 203 76z" />
    <glyph glyph-name="quotesingle" unicode="'" horiz-adv-x="214" 
d="M127 423h-40l-14 139v91h67v-91z" />
    <glyph glyph-name="parenleft" unicode="(" horiz-adv-x="371" 
d="M344 -126l-34 -41q-120 59 -187 176.5t-67 254.5t67.5 255t186.5 177l34 -41q-102 -52 -161.5 -160t-59.5 -231t59.5 -230.5t161.5 -159.5z" />
    <glyph glyph-name="parenright" unicode=")" horiz-adv-x="371" 
d="M27 655l34 41q119 -59 186.5 -177t67.5 -255t-67 -254.5t-187 -176.5l-34 41q102 51 161.5 159t59.5 231t-59.5 231.5t-161.5 159.5z" />
    <glyph glyph-name="asterisk" unicode="*" horiz-adv-x="570" 
d="M61 520l16 46l179 -54l4 188h50l5 -187l178 53l15 -45l-178 -63l107 -154l-38 -29l-115 149l-113 -149l-39 29l107 154z" />
    <glyph glyph-name="plus" unicode="+" 
d="M84 225v55h239v218h61v-218h237v-55h-237v-217h-61v217h-239z" />
    <glyph glyph-name="comma" unicode="," horiz-adv-x="304" 
d="M90 -176l-19 40q41 13 76.5 41.5t35.5 67.5q0 30 -20 35q-16 -4 -25 -4q-21 0 -35 12t-14 31q0 18 14 30.5t35 12.5q39 0 67 -29t28 -72q0 -115 -143 -165z" />
    <glyph glyph-name="hyphen" unicode="-" horiz-adv-x="400" 
d="M71 220v61h257v-61h-257z" />
    <glyph glyph-name="period" unicode="." horiz-adv-x="277" 
d="M84 40q0 21 15.5 35.5t38.5 14.5t39 -15t16 -35q0 -21 -16 -35.5t-39 -14.5t-38.5 14.5t-15.5 35.5z" />
    <glyph glyph-name="slash" unicode="/" horiz-adv-x="504" 
d="M453 653l-343 -772h-61l343 772h61z" />
    <glyph glyph-name="zero" unicode="0" horiz-adv-x="721" 
d="M64 272q0 120 87 204t208 84q122 0 210 -84.5t88 -203.5t-88 -203t-210 -84q-121 0 -208 84t-87 203zM130 272q0 -94 67.5 -161.5t161.5 -67.5q95 0 163.5 67.5t68.5 161.5t-68.5 161.5t-163.5 67.5q-94 0 -161.5 -67.5t-67.5 -161.5z" />
    <glyph glyph-name="one" unicode="1" horiz-adv-x="378" 
d="M35 416l-15 54l171 75h66v-545h-66v484z" />
    <glyph glyph-name="two" unicode="2" horiz-adv-x="592" 
d="M116 421l-39 46q39 30 64.5 46.5t71 31.5t96.5 15q89 0 153.5 -38.5t64.5 -111.5q0 -20 -4.5 -37t-15 -31.5t-19.5 -25.5t-27.5 -21.5t-29 -16.5t-34 -14t-31.5 -11t-33 -10t-29 -8q-81 -24 -127 -62.5t-46 -106.5v-13h387v-53h-454v60q0 168 237 234q85 22 116 43
q43 29 43 71q0 46 -44 69.5t-105 23.5q-60 0 -103.5 -20.5t-91.5 -59.5z" />
    <glyph glyph-name="three" unicode="3" horiz-adv-x="673" 
d="M306 262v54h93q33 0 65 23t32 62q0 49 -46.5 74.5t-103.5 25.5q-107 0 -209 -92l-41 41q122 110 251 110q50 0 97 -14t83 -49t36 -85q0 -42 -24.5 -72.5t-55.5 -40.5q47 -9 86.5 -41t39.5 -92q0 -84 -80 -133t-202 -49q-168 0 -283 109l41 47q99 -96 242 -96q93 0 154 34
t61 92q0 26 -14.5 45.5t-36.5 29t-42 13.5t-38 4h-105z" />
    <glyph glyph-name="four" unicode="4" horiz-adv-x="679" 
d="M636 185v-53h-111v-132h-67v132h-423v49l425 364h65v-360h111zM133 188v-3h325v275h-9z" />
    <glyph glyph-name="five" unicode="5" horiz-adv-x="644" 
d="M529 545v-59h-367v-177q32 17 53 26t56.5 17t74.5 8q63 0 115 -17.5t87.5 -59t35.5 -101.5q0 -51 -23.5 -90.5t-63 -62.5t-86 -34t-98.5 -11q-140 0 -260 87l36 47q98 -74 224 -74q53 0 97.5 13t75.5 45.5t31 79.5q0 60 -50 90.5t-123 30.5q-98 0 -200 -52l-42 31v263
h427z" />
    <glyph glyph-name="six" unicode="6" horiz-adv-x="661" 
d="M566 504l-35 -47q-66 44 -166 44q-96 0 -165.5 -62.5t-72.5 -167.5q121 84 249 84q108 0 167.5 -53t59.5 -121q0 -81 -70 -138.5t-176 -57.5q-120 0 -205.5 74t-85.5 204q0 134 88.5 215.5t212.5 81.5q111 0 199 -56zM370 301q-116 0 -240 -81q14 -83 78.5 -129.5
t149.5 -46.5q75 0 126.5 42t51.5 96q0 46 -42.5 82.5t-123.5 36.5z" />
    <glyph glyph-name="seven" unicode="7" horiz-adv-x="592" 
d="M53 486v59h484v-60l-311 -485h-87l322 486h-408z" />
    <glyph glyph-name="eight" unicode="8" horiz-adv-x="665" 
d="M332 -16q-106 0 -187 47t-81 125q0 60 46 98t112 48q-58 9 -89 38t-31 76t37.5 81t88 49t104.5 15q55 0 105.5 -15t87.5 -49t37 -81q0 -96 -120 -114q67 -10 113 -47.5t46 -98.5q0 -78 -81 -125t-188 -47zM332 42q77 0 137 32.5t60 87.5q0 54 -60.5 83.5t-136.5 29.5
q-75 0 -135.5 -29.5t-60.5 -83.5q0 -55 60 -87.5t136 -32.5zM332 325q76 0 117 22t41 64q0 46 -49 71.5t-109 25.5q-59 0 -108 -25.5t-49 -71.5q0 -42 41 -64t116 -22z" />
    <glyph glyph-name="nine" unicode="9" horiz-adv-x="658" 
d="M92 41l34 46q68 -43 166 -43q97 0 166.5 62t72.5 167q-120 -83 -248 -83q-109 0 -168.5 53t-59.5 120q0 82 70 139.5t177 57.5q119 0 204.5 -74t85.5 -204q0 -135 -88.5 -216t-212.5 -81q-115 0 -199 56zM288 244q115 0 240 79q-14 84 -78.5 131t-149.5 47
q-75 0 -126.5 -42t-51.5 -97q0 -45 42.5 -81.5t123.5 -36.5z" />
    <glyph glyph-name="colon" unicode=":" horiz-adv-x="327" 
d="M109 40q0 21 15.5 35.5t38.5 14.5t39 -15t16 -35q0 -21 -16 -35.5t-39 -14.5t-38.5 14.5t-15.5 35.5zM109 356q0 21 15.5 35.5t38.5 14.5t39 -15t16 -35q0 -21 -16 -35.5t-39 -14.5t-38.5 14.5t-15.5 35.5z" />
    <glyph glyph-name="semicolon" unicode=";" horiz-adv-x="340" 
d="M111 -176l-19 40q41 13 76.5 41.5t35.5 67.5q0 30 -20 35q-16 -4 -24 -4q-21 0 -35.5 12t-14.5 31q0 18 14.5 30.5t35.5 12.5q38 0 66 -29t28 -72q0 -115 -143 -165zM110 356q0 21 15.5 35.5t38.5 14.5t39 -15t16 -35q0 -21 -16 -35.5t-39 -14.5t-38.5 14.5t-15.5 35.5z
" />
    <glyph glyph-name="less" unicode="&#x3c;" 
d="M621 481v-63l-460 -161v-9l460 -160v-63l-537 197v62z" />
    <glyph glyph-name="equal" unicode="=" 
d="M84 346v56h537v-56h-537zM84 104v56h537v-56h-537z" />
    <glyph glyph-name="greater" unicode="&#x3e;" 
d="M84 418v63l537 -197v-62l-537 -197v63l461 160v9z" />
    <glyph glyph-name="question" unicode="?" horiz-adv-x="596" 
d="M93 516l-43 39q53 55 113 83.5t153 28.5q95 0 155.5 -36.5t60.5 -118.5q0 -43 -19.5 -71.5t-57.5 -57.5q-17 -14 -55 -39.5t-58 -41t-40 -44.5t-25 -62h-60q3 43 25.5 80t44 54.5t65.5 47.5t58 41q32 23 47 42t15 49q0 53 -45 78t-113 25q-75 0 -125.5 -25t-95.5 -72z
M205 40q0 21 15.5 35.5t38.5 14.5t39 -15t16 -35q0 -21 -16 -35.5t-39 -14.5t-38.5 14.5t-15.5 35.5z" />
    <glyph glyph-name="at" unicode="@" horiz-adv-x="992" 
d="M662 472h57l-93 -283q-4 -11 -4 -21q0 -27 17 -42.5t46 -15.5q67 0 132.5 71t65.5 174q0 118 -93.5 196t-243.5 78q-115 0 -212.5 -46t-158 -134.5t-60.5 -199.5q0 -83 34.5 -150t90.5 -107.5t123 -62t136 -21.5q67 0 144 18t119 40l17 -41q-45 -24 -126.5 -45
t-156.5 -21q-77 0 -152.5 24.5t-140 70.5t-104.5 123t-40 171q0 126 68.5 225.5t179 151.5t239.5 52q173 0 280.5 -91t107.5 -228q0 -126 -85.5 -211t-176.5 -85q-44 0 -71.5 21t-27.5 57v8q-71 -85 -159 -85q-59 0 -100 40.5t-41 116.5q0 109 79 188.5t163 79.5
q47 0 79.5 -27.5t40.5 -67.5zM429 117q73 0 141 77l46 141q-6 41 -34 70t-67 29q-62 0 -121 -59.5t-59 -146.5q0 -55 26 -83t68 -28z" />
    <glyph glyph-name="A" unicode="A" horiz-adv-x="751" 
d="M109 0h-69l303 653h66l303 -653h-73l-97 212h-337zM371 575l-141 -309h288l-141 309h-6z" />
    <glyph glyph-name="B" unicode="B" horiz-adv-x="818" 
d="M506 0h-378v653h366q104 0 161 -57q44 -44 44 -103q0 -49 -28.5 -89t-72.5 -53q60 -10 96.5 -56t36.5 -107q0 -77 -58 -132q-59 -56 -167 -56zM530 311h-335v-251h313q75 0 115 40q38 36 38 89q0 46 -34 82q-40 40 -97 40zM487 593h-292v-228h314q53 0 86 33q34 34 34 83
q0 45 -31 74q-37 38 -111 38z" />
    <glyph glyph-name="C" unicode="C" horiz-adv-x="784" 
d="M689 155l45 -44q-131 -127 -306 -127q-155 0 -257.5 99.5t-102.5 243.5q0 142 102.5 241.5t254.5 99.5q84 0 161.5 -29.5t131.5 -80.5l-45 -44q-48 44 -113.5 69.5t-133.5 25.5q-123 0 -205.5 -82.5t-82.5 -200.5t83 -200t208 -82q151 0 260 111z" />
    <glyph glyph-name="D" unicode="D" horiz-adv-x="819" 
d="M400 0h-272v653h272q88 0 146.5 -23.5t109.5 -70.5q91 -93 91 -232q0 -144 -96 -237q-51 -46 -107 -68t-144 -22zM195 60h203q72 0 114.5 17t86.5 55q79 79 79 195q0 115 -77 192q-41 38 -86 56t-117 18h-203v-533z" />
    <glyph glyph-name="E" unicode="E" horiz-adv-x="718" 
d="M470 375v-59h-275v-256h476v-60h-543v653h521v-60h-454v-218h275z" />
    <glyph glyph-name="F" unicode="F" horiz-adv-x="653" 
d="M195 0h-67v653h508v-60h-441v-229h275v-60h-275v-304z" />
    <glyph glyph-name="G" unicode="G" horiz-adv-x="817" 
d="M711 564l-47 -42q-45 40 -108.5 63.5t-128.5 23.5q-122 0 -205.5 -82.5t-83.5 -200.5q0 -116 83 -199t212 -83q63 0 124 20t103 54v172h-219v59h280v-263q-59 -47 -136 -74.5t-156 -27.5q-152 0 -256.5 100.5t-104.5 242.5t104.5 241.5t254.5 99.5q160 0 284 -104z" />
    <glyph glyph-name="H" unicode="H" horiz-adv-x="826" 
d="M195 0h-67v653h67v-270h436v270h67v-653h-67v324h-436v-324z" />
    <glyph glyph-name="I" unicode="I" horiz-adv-x="323" 
d="M195 0h-67v653h67v-653z" />
    <glyph glyph-name="J" unicode="J" horiz-adv-x="673" 
d="M492 653h67v-421q0 -116 -76.5 -182t-198.5 -66q-58 0 -104 15t-75.5 42t-46.5 51t-32 55l55 29q60 -132 202 -132q93 0 151 49.5t58 138.5v421z" />
    <glyph glyph-name="K" unicode="K" horiz-adv-x="747" 
d="M592 653h82l-254 -248l307 -405h-86l-269 359l-177 -175v-184h-67v653h67v-394z" />
    <glyph glyph-name="L" unicode="L" horiz-adv-x="637" 
d="M128 653h67v-593h420v-60h-487v653z" />
    <glyph glyph-name="M" unicode="M" horiz-adv-x="916" 
d="M789 0h-67v534h-5l-251 -420h-18l-251 420h-5v-534h-64v653h74l257 -430h2l256 430h72v-653z" />
    <glyph glyph-name="N" unicode="N" horiz-adv-x="831" 
d="M636 653h67v-653h-63l-444 538h-1v-538h-67v653h63l444 -538h1v538z" />
    <glyph glyph-name="O" unicode="O" horiz-adv-x="855" 
d="M68 328q0 141 104 240.5t254 99.5q151 0 256 -99.5t105 -240.5q0 -143 -105 -243.5t-256 -100.5q-150 0 -254 100.5t-104 243.5zM139 328q0 -118 83.5 -201t203.5 -83q122 0 206.5 83t84.5 201q0 117 -84.5 199t-206.5 82q-120 0 -203.5 -82t-83.5 -199z" />
    <glyph glyph-name="P" unicode="P" horiz-adv-x="747" 
d="M195 0h-67v653h346q117 0 179 -65q49 -52 49 -122q0 -76 -56 -130q-59 -58 -172 -58h-279v-278zM474 593h-279v-256h279q81 0 123 41q38 35 38 88q0 46 -34 83q-41 44 -127 44z" />
    <glyph glyph-name="Q" unicode="Q" horiz-adv-x="855" 
d="M68 328q0 141 104 240.5t254 99.5q151 0 256 -99.5t105 -240.5q0 -93 -47.5 -171t-127.5 -124l91 -127l-64 -21l-87 120q-63 -21 -126 -21q-150 0 -254 100.5t-104 243.5zM420 190l65 21l91 -127q65 37 103 102t38 142q0 117 -84.5 199t-206.5 82q-120 0 -203.5 -82
t-83.5 -199q0 -118 83.5 -201t203.5 -83q44 0 89 13z" />
    <glyph glyph-name="R" unicode="R" horiz-adv-x="794" 
d="M195 0h-67v653h359q119 0 178 -64q49 -52 49 -125q0 -67 -43 -116t-115 -62l164 -286h-76l-156 278h-293v-278zM487 593h-292v-256h316q60 0 98 37.5t38 90.5q0 49 -34 85q-42 43 -126 43z" />
    <glyph glyph-name="S" unicode="S" horiz-adv-x="744" 
d="M635 573l-41 -46q-36 34 -100 59t-146 25q-76 0 -132 -31t-56 -95q0 -23 8 -39.5t27.5 -27.5t35.5 -17.5t49.5 -10.5t51 -5.5t56.5 -3.5q34 -2 53 -3.5t54.5 -7t57 -13t49.5 -21.5t44 -32.5t27 -46.5t11 -63q0 -104 -83.5 -157t-210.5 -53q-190 0 -333 133l41 46
q130 -121 293 -121q98 0 162 36.5t64 107.5q0 32 -14 55t-34 36t-54 21.5t-60 11.5t-67 6q-39 2 -60.5 4t-57.5 6.5t-57 11t-47 19t-39.5 28.5t-23.5 40.5t-10 54.5q0 51 23.5 89t63 59t82.5 30.5t89 9.5q90 0 164.5 -29t119.5 -66z" />
    <glyph glyph-name="T" unicode="T" horiz-adv-x="635" 
d="M32 593v60h571v-60h-252v-593h-67v593h-252z" />
    <glyph glyph-name="U" unicode="U" horiz-adv-x="798" 
d="M617 653h67v-421q0 -116 -80 -182t-206 -66q-125 0 -204.5 66t-79.5 182v421h67v-421q0 -88 61 -138t156 -50q97 0 158 50t61 138v421z" />
    <glyph glyph-name="V" unicode="V" horiz-adv-x="750" 
d="M639 653h73l-304 -653h-66l-304 653h76l260 -570h6z" />
    <glyph glyph-name="W" unicode="W" horiz-adv-x="1008" 
d="M49 653h74l174 -553h5l176 553h55l177 -553h4l175 553h70l-211 -653h-71l-170 530h-6l-170 -530h-72z" />
    <glyph glyph-name="X" unicode="X" horiz-adv-x="706" 
d="M570 653h81l-256 -311l276 -342h-85l-234 295l-239 -295h-81l280 340l-252 313h85l210 -266z" />
    <glyph glyph-name="Y" unicode="Y" horiz-adv-x="667" 
d="M556 653h79l-268 -343v-310h-67v310l-268 343h85l219 -283z" />
    <glyph glyph-name="Z" unicode="Z" horiz-adv-x="685" 
d="M622 60v-60h-574v43l472 550h-437v60h533v-43l-473 -550h479z" />
    <glyph glyph-name="bracketleft" unicode="[" horiz-adv-x="344" 
d="M304 -100v-54h-202v843h202v-54h-141v-735h141z" />
    <glyph glyph-name="backslash" unicode="\" horiz-adv-x="507" 
d="M405 -119l-343 772h61l343 -772h-61z" />
    <glyph glyph-name="bracketright" unicode="]" horiz-adv-x="344" 
d="M40 689h202v-843h-202v54h141v735h-141v54z" />
    <glyph glyph-name="asciicircum" unicode="^" 
d="M174 212h-70l216 401h68l214 -401h-69l-176 336h-6z" />
    <glyph glyph-name="underscore" unicode="_" horiz-adv-x="600" 
d="M-6 -144v44h612v-44h-612z" />
    <glyph glyph-name="grave" unicode="`" horiz-adv-x="500" 
d="M139 688l70 2l89 -146l-55 -2z" />
    <glyph glyph-name="a" unicode="a" horiz-adv-x="596" 
d="M116 363l-23 50q92 59 206 59q54 0 97.5 -12t75 -44t31.5 -80v-253q0 -52 16 -83h-63q-13 21 -15 71q-86 -81 -204 -81q-84 0 -133.5 44t-49.5 113q0 66 55.5 109.5t154.5 43.5q124 0 177 -58v78q0 50 -41.5 75t-102.5 25q-99 0 -181 -57zM249 42q47 0 93 18.5t69.5 36
t29.5 27.5v66q-22 30 -68 45.5t-100 15.5q-78 0 -117.5 -29t-39.5 -75q0 -45 35.5 -75t97.5 -30z" />
    <glyph glyph-name="b" unicode="b" horiz-adv-x="625" 
d="M148 0h-58q9 49 9 110v590h62v-308q77 80 172 80q96 0 163 -67.5t67 -173.5q0 -109 -69 -176.5t-170 -67.5q-56 0 -101 26.5t-68 57.5q0 -39 -7 -71zM327 418q-87 0 -166 -77v-222q13 -16 30.5 -31t53.5 -31t74 -16q74 0 125 53t51 137q0 83 -48.5 135t-119.5 52z" />
    <glyph glyph-name="c" unicode="c" horiz-adv-x="564" 
d="M508 397l-42 -42q-66 63 -157 63q-76 0 -128 -52t-52 -135q0 -84 54 -136.5t132 -52.5q94 0 162 73l42 -39q-24 -29 -78.5 -59t-131.5 -30q-103 0 -175.5 68t-72.5 176q0 107 72 174t176 67q117 0 199 -75z" />
    <glyph glyph-name="d" unicode="d" horiz-adv-x="626" 
d="M536 0h-58q-7 32 -7 71q-24 -31 -70.5 -57.5t-103.5 -26.5q-99 0 -167 68t-68 176q0 106 68.5 173.5t167.5 67.5q91 0 167 -74v302h62v-590q0 -67 9 -110zM303 418q-73 0 -122.5 -52t-49.5 -135q0 -85 49.5 -137.5t122.5 -52.5q39 0 75.5 16t55.5 31.5t31 30.5v222
q-77 77 -162 77z" />
    <glyph glyph-name="e" unicode="e" horiz-adv-x="594" 
d="M481 114l42 -40q-89 -87 -223 -87q-109 0 -174 68t-65 169q0 105 70 176.5t174 71.5q42 0 81.5 -13.5t73.5 -39.5t54.5 -70.5t21.5 -100.5q0 -13 -1 -20h-412v-2q0 -79 49.5 -131.5t133.5 -52.5q108 0 175 72zM302 421q-65 0 -111.5 -40.5t-61.5 -103.5h339
q-2 68 -52 106t-114 38z" />
    <glyph glyph-name="f" unicode="f" horiz-adv-x="352" 
d="M41 459h94v101q0 77 41.5 114t97.5 37q71 0 109 -35l-14 -50q-30 30 -84 30q-38 0 -63 -24t-25 -72v-101h147v-49h-147v-410h-62v410h-94v49z" />
    <glyph glyph-name="g" unicode="g" horiz-adv-x="626" 
d="M465 -33v100q-78 -80 -172 -80q-96 0 -163.5 67.5t-67.5 173.5q0 108 69.5 176t170.5 68q55 0 100 -27t69 -59q0 40 11 74h58q-13 -45 -13 -110v-383q0 -84 -59.5 -139t-168.5 -55q-134 0 -208 81l38 37q61 -66 170 -66q79 0 122.5 40t43.5 102zM299 41q87 0 166 77v222
q-13 16 -30.5 31t-53.5 31t-74 16q-74 0 -125 -53t-51 -137q0 -83 48.5 -135t119.5 -52z" />
    <glyph glyph-name="h" unicode="h" horiz-adv-x="604" 
d="M160 0h-62v700h62v-308q74 80 172 80q81 0 131.5 -45t50.5 -115v-312h-63v312q0 45 -35 75.5t-90 30.5q-88 0 -166 -82v-336z" />
    <glyph glyph-name="i" unicode="i" horiz-adv-x="257" 
d="M160 0h-62v459h62v-459zM86 641q0 17 12 28.5t30 11.5q19 0 31 -11.5t12 -28.5t-12 -28t-31 -11q-18 0 -30 11.5t-12 27.5z" />
    <glyph glyph-name="j" unicode="j" horiz-adv-x="257" 
d="M5 -227l-17 49q110 13 110 124v513h62v-513q0 -88 -47.5 -130.5t-107.5 -42.5zM86 641q0 17 12 28.5t30 11.5q19 0 31 -11.5t12 -28.5t-12 -28t-31 -11q-18 0 -30 11.5t-12 27.5z" />
    <glyph glyph-name="k" unicode="k" horiz-adv-x="556" 
d="M426 459h84l-187 -161l216 -298h-77l-185 258l-117 -102v-156h-62v700h62v-477z" />
    <glyph glyph-name="l" unicode="l" horiz-adv-x="274" 
d="M168 0h-62v700h62v-700z" />
    <glyph glyph-name="m" unicode="m" horiz-adv-x="891" 
d="M161 0h-62v350q0 56 -14 109h57q12 -36 13 -72q73 85 164 85q107 0 151 -93q68 93 169 93q70 0 116 -45t46 -115v-312h-63v312q0 45 -31 75.5t-78 30.5q-77 0 -148 -82v-336h-62v334q-7 36 -35.5 60t-73.5 24q-78 0 -149 -82v-336z" />
    <glyph glyph-name="n" unicode="n" horiz-adv-x="606" 
d="M161 0h-62v350q0 56 -14 109h57q11 -32 13 -73q80 86 183 86q77 0 127 -45t50 -115v-312h-63v312q0 45 -34.5 75.5t-89.5 30.5q-89 0 -167 -82v-336z" />
    <glyph glyph-name="o" unicode="o" horiz-adv-x="617" 
d="M61 231q0 101 71 171t176 70t176.5 -70t71.5 -171q0 -103 -71.5 -173.5t-176.5 -70.5t-176 70.5t-71 173.5zM126 231q0 -80 52 -136t130 -56q79 0 131.5 56t52.5 136q0 78 -53 134t-131 56t-130 -56t-52 -134z" />
    <glyph glyph-name="p" unicode="p" horiz-adv-x="626" 
d="M161 -212h-62v558q0 66 -12 113h58q10 -34 11 -71q31 35 78 59.5t99 24.5q97 0 164 -67.5t67 -175.5q0 -107 -69.5 -174.5t-169.5 -67.5q-95 0 -164 79v-278zM161 341v-223q72 -77 158 -77q75 0 126 52t51 136t-48.5 136.5t-119.5 52.5q-90 0 -167 -77z" />
    <glyph glyph-name="q" unicode="q" horiz-adv-x="626" 
d="M527 -212h-62v278q-69 -79 -168 -79q-98 0 -166.5 67.5t-68.5 174.5q0 108 68.5 175.5t167.5 67.5q51 0 97 -24.5t76 -59.5q0 37 11 71h58q-13 -46 -13 -113v-558zM465 118v223q-73 77 -162 77q-72 0 -122 -52.5t-50 -136.5t49.5 -136t122.5 -52q90 0 162 77z" />
    <glyph glyph-name="r" unicode="r" horiz-adv-x="392" 
d="M161 0h-62v350q0 57 -15 109h58q11 -34 13 -81q64 94 144 94q52 0 73 -27l-21 -55q-21 22 -65 22q-61 0 -125 -88v-324z" />
    <glyph glyph-name="s" unicode="s" horiz-adv-x="547" 
d="M458 415l-25 -47q-28 20 -76 37t-98 17t-87 -20t-37 -59q0 -22 12.5 -36.5t38 -21t43.5 -8.5t50 -4q28 -1 44 -2.5t45.5 -6.5t48 -14t38 -23t29 -36.5t9.5 -52.5q0 -74 -61 -113t-155 -39q-121 0 -222 72l25 47q97 -68 196 -68q67 0 111 25t44 71q0 25 -14 42t-41 24.5
t-46.5 10t-50.5 4.5q-28 2 -41.5 3t-40 4.5t-40 8.5t-32.5 14t-28.5 21t-16.5 30t-7 41q0 72 55.5 105t129.5 33q60 0 114.5 -18.5t85.5 -40.5z" />
    <glyph glyph-name="t" unicode="t" horiz-adv-x="386" 
d="M31 410v49h95v141h62v-141h152v-49h-152v-297q0 -37 20.5 -55.5t51.5 -18.5q52 0 84 21l9 -48q-15 -11 -45.5 -19.5t-58.5 -8.5q-49 0 -86 31t-37 98v297h-95z" />
    <glyph glyph-name="u" unicode="u" horiz-adv-x="605" 
d="M444 459h62v-349q0 -67 8 -110h-57q-7 32 -7 73q-82 -86 -182 -86q-77 0 -127.5 45t-50.5 115v312h63v-312q0 -45 35 -75.5t89 -30.5q89 0 167 82v336z" />
    <glyph glyph-name="v" unicode="v" horiz-adv-x="534" 
d="M434 459h64l-202 -459h-58l-201 459h69l159 -376h7z" />
    <glyph glyph-name="w" unicode="w" horiz-adv-x="771" 
d="M661 459h68l-153 -459h-68l-120 371h-5l-119 -371h-68l-153 459h67l118 -379h5l122 379h65l122 -379h5z" />
    <glyph glyph-name="x" unicode="x" horiz-adv-x="541" 
d="M417 459h79l-188 -224l198 -235h-78l-158 195l-157 -195h-78l198 235l-188 224h79l146 -184z" />
    <glyph glyph-name="y" unicode="y" horiz-adv-x="550" 
d="M451 459h63l-327 -671h-64l113 225l-200 446h70l162 -378h3z" />
    <glyph glyph-name="z" unicode="z" horiz-adv-x="519" 
d="M463 49v-49h-417v38l325 372h-295v49h380v-38l-325 -372h332z" />
    <glyph glyph-name="braceleft" unicode="{" horiz-adv-x="374" 
d="M336 -100v-54q-114 0 -152.5 31t-38.5 131v127q0 110 -117 110v61q48 0 83 32.5t35 83.5v103q1 101 39.5 133t150.5 32v-54q-75 0 -101 -21.5t-27 -89.5v-103q0 -60 -35 -99.5t-83 -42.5v-8q117 -2 117 -137v-127q0 -67 26 -87.5t103 -20.5z" />
    <glyph glyph-name="bar" unicode="|" horiz-adv-x="350" 
d="M147 -305v1207h58v-1207h-58z" />
    <glyph glyph-name="braceright" unicode="}" horiz-adv-x="374" 
d="M38 -154v54q75 0 102 21t27 87v127q0 135 117 137v8q-48 3 -83 42t-35 100v103q-1 68 -28 89.5t-100 21.5v54q111 0 149.5 -32t39.5 -133v-103q0 -51 35.5 -83.5t82.5 -32.5v-61q-117 0 -117 -110v-127q0 -100 -38 -131t-152 -31z" />
    <glyph glyph-name="asciitilde" unicode="~" 
d="M106 203l-46 30q93 104 170 104q72 0 137 -63q19 -17 27.5 -24.5t29.5 -17t43 -9.5q59 0 131 78l48 -29q-93 -108 -181 -108q-25 0 -47 6t-41.5 19t-28 20t-25.5 23q-52 46 -95 46q-52 0 -122 -75z" />
    <glyph glyph-name="nbspace" unicode="&#xa0;" horiz-adv-x="225" 
 />
    <glyph glyph-name="exclamdown" unicode="&#xa1;" horiz-adv-x="277" 
d="M173 421q0 -20 -16 -35t-39 -15t-38.5 14.5t-15.5 35.5t15.5 35.5t38.5 14.5t39 -14.5t16 -35.5zM95 265h45l14 -299v-158h-72v158z" />
    <glyph glyph-name="cent" unicode="&#xa2;" horiz-adv-x="567" 
d="M337 513h46l-21 -96q74 -14 132 -61l-40 -41q-46 35 -104 48l-72 -320q7 -1 20 -1q89 0 160 64l42 -39q-13 -14 -34.5 -30t-68.5 -32.5t-99 -16.5q-10 0 -32 2l-27 -123h-46l29 131q-74 20 -120 76t-46 133q0 96 68.5 156.5t168.5 60.5q16 0 24 -1zM123 207
q0 -56 30.5 -97t80.5 -58l71 318h-12q-72 0 -121 -45.5t-49 -117.5z" />
    <glyph glyph-name="sterling" unicode="&#xa3;" horiz-adv-x="716" 
d="M65 267v49h140v83q0 77 63 118.5t150 41.5q44 0 105.5 -19t114.5 -49l-33 -46q-107 55 -187 55q-60 0 -103.5 -26t-43.5 -75v-83h259v-49h-259v-99q0 -53 -17 -79.5t-58 -35.5h442v-53h-573v53h37q59 0 81 23t22 92v99h-140z" />
    <glyph glyph-name="currency" unicode="&#xa4;" horiz-adv-x="739" 
d="M94 258q0 89 57 162l-79 74l43 43l79 -74q75 64 174 64q100 0 177 -64l79 74l44 -43l-81 -75q58 -73 58 -161q0 -90 -58 -162l81 -74l-44 -43l-79 74q-77 -64 -177 -64q-98 0 -174 63l-79 -73l-43 43l79 74q-57 72 -57 162zM161 258q0 -86 61 -147t146 -61q86 0 148 61
t62 147q0 85 -62 146.5t-148 61.5q-85 0 -146 -61.5t-61 -146.5z" />
    <glyph glyph-name="yen" unicode="&#xa5;" horiz-adv-x="744" 
d="M72 317v43h180l-155 185h85l193 -229l193 229h79l-154 -185h180v-43h-216l-51 -61v-21h267v-43h-267v-192h-67v192h-267v43h267v21l-51 61h-216z" />
    <glyph glyph-name="brokenbar" unicode="&#xa6;" horiz-adv-x="350" 
d="M147 382v413h58v-413h-58zM147 -226v420h58v-420h-58z" />
    <glyph glyph-name="section" unicode="&#xa7;" horiz-adv-x="700" 
d="M598 92q-32 -29 -83 -46q14 -8 24 -21q15 -20 15 -50q0 -45 -33 -75t-76.5 -41t-92.5 -11q-115 0 -201 54l30 46q76 -47 172 -47q50 0 92 17t42 56q0 22 -12 31q-7 7 -17.5 12t-29 8.5t-28 5t-38.5 4t-36 3.5q-158 17 -221 74q-43 40 -43 99q0 60 45 103q30 31 82 48
q-14 8 -21 17q-17 23 -17 54q0 65 61.5 96.5t140.5 31.5q114 0 201 -55l-30 -46q-73 47 -171 47q-51 0 -93 -16.5t-42 -55.5q0 -22 13 -32q8 -7 18 -12t29 -8.5t28 -4.5t37.5 -4t35.5 -4q161 -17 222 -75q42 -40 42 -98q0 -62 -45 -105zM378 312q-117 13 -149 24
q-38 -12 -64 -35q-36 -36 -36 -82q0 -41 30 -70q47 -42 168 -53q111 -11 147 -24q42 13 65 34q38 35 38 83q0 41 -30 68q-46 44 -169 55z" />
    <glyph glyph-name="dieresis" unicode="&#xa8;" horiz-adv-x="500" 
d="M306 596q0 16 11.5 27t28.5 11t29 -11t12 -27t-12 -26.5t-29 -10.5t-28.5 10.5t-11.5 26.5zM113 596q0 16 11.5 27t28.5 11t29 -11t12 -27t-12 -26.5t-29 -10.5t-28.5 10.5t-11.5 26.5z" />
    <glyph glyph-name="copyright" unicode="&#xa9;" horiz-adv-x="999" 
d="M500 -136q-183 0 -313 119t-130 288t130 287.5t313 118.5q182 0 312 -118.5t130 -287.5t-130 -288t-312 -119zM500 -92q162 0 276.5 106t114.5 257q0 149 -115 256t-276 107t-276.5 -107t-115.5 -256q0 -150 115.5 -256.5t276.5 -106.5zM704 415l-25 -41q-75 65 -172 65
q-82 0 -133 -48.5t-51 -119.5q0 -68 54 -111t133 -43q58 0 96 15.5t78 45.5l25 -42q-43 -34 -87 -51t-112 -17q-103 0 -173.5 56.5t-70.5 146.5q0 93 67 155t174 62q106 0 197 -73z" />
    <glyph glyph-name="ordfeminine" unicode="&#xaa;" horiz-adv-x="456" 
d="M88 482l-20 43q70 43 162 43q66 0 112 -24t46 -76v-187q0 -36 12 -61h-54q-7 10 -12 49q-66 -59 -153 -59q-65 0 -103.5 33.5t-38.5 84.5q0 49 43.5 80.5t120.5 31.5q90 0 131 -38v52q0 35 -30.5 52t-76.5 17q-79 0 -139 -41zM192 257q35 0 69 13t51.5 25.5t21.5 19.5v43
q-39 40 -123 40q-59 0 -88 -19t-29 -51q0 -30 26 -50.5t72 -20.5z" />
    <glyph glyph-name="guillemotleft" unicode="&#xab;" horiz-adv-x="539" 
d="M166 381h75l-121 -136v-8l121 -135h-75l-108 122v34zM386 381h74l-121 -136v-8l121 -135h-74l-118 135v9z" />
    <glyph glyph-name="logicalnot" unicode="&#xac;" 
d="M621 106h-61v242h-476v56h537v-298z" />
    <glyph glyph-name="registered" unicode="&#xae;" horiz-adv-x="636" 
d="M316 206q-106 0 -178.5 67.5t-72.5 165.5q0 95 73 163t178 68q106 0 181 -68.5t75 -162.5q0 -98 -74.5 -165.5t-181.5 -67.5zM244 327h-35v235h151q37 0 61.5 -19.5t24.5 -48.5q0 -23 -16.5 -41t-43.5 -25l63 -101h-40l-60 98h-105v-98zM360 533h-116v-79h117
q21 0 35.5 12t14.5 28q0 17 -15 28t-36 11zM316 233q95 0 160.5 60t65.5 146q0 84 -66 144.5t-160 60.5q-93 0 -157.5 -60.5t-64.5 -144.5q0 -86 64 -146t158 -60z" />
    <glyph glyph-name="macron" unicode="&#xaf;" horiz-adv-x="500" 
d="M125 625h250v-49h-250v49z" />
    <glyph glyph-name="degree" unicode="&#xb0;" horiz-adv-x="499" 
d="M248 295q-89 0 -139 48t-50 119q0 73 50 121t139 48q90 0 141.5 -48.5t51.5 -120.5q0 -70 -52 -118.5t-141 -48.5zM248 343q63 0 100 34.5t37 84.5q0 51 -37 85.5t-100 34.5t-98 -34t-35 -86q0 -51 35 -85t98 -34z" />
    <glyph glyph-name="plusminus" unicode="&#xb1;" 
d="M84 297v56h239v183h61v-183h237v-56h-237v-183h-61v183h-239zM84 0v56h537v-56h-537z" />
    <glyph glyph-name="two.superior" unicode="&#xb2;" horiz-adv-x="476" 
d="M89 550l-35 41q35 25 55 37t59 24.5t81 12.5q74 0 128 -31t54 -89q0 -14 -3.5 -27t-8.5 -23t-15.5 -19.5t-18 -16t-22.5 -14t-23 -11t-25.5 -9t-24 -7.5t-24.5 -7t-21 -6q-67 -18 -104.5 -47.5t-37.5 -81.5v-9h321v-47h-379v51q0 135 197 186q77 20 102 39q27 21 27 49
q0 34 -35.5 51t-85.5 17q-81 0 -161 -63z" />
    <glyph glyph-name="three.superior" unicode="&#xb3;" horiz-adv-x="542" 
d="M249 426v47h87q24 0 47 18t23 47q0 37 -38 56t-85 19q-91 0 -174 -72l-35 36q100 88 210 88q42 0 81 -11t69.5 -39t30.5 -68q0 -33 -18.5 -56.5t-41.5 -32.5q36 -7 66.5 -32.5t30.5 -72.5q0 -68 -66.5 -106.5t-168.5 -38.5q-142 0 -236 87l36 41q83 -76 200 -76
q76 0 126 26t50 70q0 26 -20 43t-41 22t-42 5h-91z" />
    <glyph glyph-name="acute" unicode="&#xb4;" horiz-adv-x="500" 
d="M290 690l70 -2l-103 -146l-56 2z" />
    <glyph glyph-name="mu" unicode="&#xb5;" horiz-adv-x="598" 
d="M148 -230h-62v684h62v-314q1 -44 35.5 -73t88.5 -29q89 0 167 82v334h62v-344q0 -67 9 -110h-58q-7 32 -7 70q-82 -86 -182 -86q-78 0 -115 55v-269z" />
    <glyph glyph-name="mu" unicode="&#x3bc;" horiz-adv-x="598" 
d="M148 -230h-62v684h62v-314q1 -44 35.5 -73t88.5 -29q89 0 167 82v334h62v-344q0 -67 9 -110h-58q-7 32 -7 70q-82 -86 -182 -86q-78 0 -115 55v-269z" />
    <glyph glyph-name="paragraph" unicode="&#xb6;" horiz-adv-x="841" 
d="M553 -206h-56v473h-220q-90 0 -158.5 49.5t-68.5 147.5q0 189 247 189h434v-859h-56v805h-122v-805zM297 599q-185 0 -185 -135q0 -72 50 -107.5t115 -35.5h220v278h-200z" />
    <glyph glyph-name="periodcentered" unicode="&#xb7;" 
d="M293 253q0 23 17.5 39t42.5 16t42.5 -16t17.5 -39t-17 -38.5t-43 -15.5q-25 0 -42.5 15.5t-17.5 38.5z" />
    <glyph glyph-name="cedilla" unicode="&#xb8;" horiz-adv-x="500" 
d="M254 10h42l-27 -77q28 8 48 8q38 0 66.5 -19t28.5 -57q0 -42 -43 -66.5t-112 -24.5q-51 0 -147 24l11 36q86 -21 134 -21q45 0 72.5 13.5t27.5 38.5q0 43 -59 43q-17 0 -55 -9l-20 22z" />
    <glyph glyph-name="one.superior" unicode="&#xb9;" horiz-adv-x="302" 
d="M22 547l-14 47l141 59h59v-433h-59v380z" />
    <glyph glyph-name="ordmasculine" unicode="&#xba;" horiz-adv-x="466" 
d="M42 390q0 74 56.5 126t133.5 52q78 0 135 -52t57 -126q0 -75 -57 -127.5t-135 -52.5q-77 0 -133.5 53t-56.5 127zM98 390q0 -56 38 -94.5t96 -38.5q59 0 98 38.5t39 94.5q0 55 -39 93.5t-98 38.5q-58 0 -96 -38.5t-38 -93.5z" />
    <glyph glyph-name="guillemotright" unicode="&#xbb;" horiz-adv-x="539" 
d="M298 381h75l108 -123v-34l-108 -122h-75l121 135v8zM79 381h74l118 -135v-9l-118 -135h-74l121 135v8z" />
    <glyph glyph-name="onequarter" unicode="&#xbc;" horiz-adv-x="1032" 
d="M20 547l-13 47l141 59h59v-433h-59v380zM624 653l-370 -653h-54l371 653h53zM1001 151v-48h-89v-103h-59v103h-352v43l355 287h56v-282h89zM588 153v-2h265v207h-8z" />
    <glyph glyph-name="onehalf" unicode="&#xbd;" horiz-adv-x="997" 
d="M20 547l-13 47l141 59h59v-433h-59v380zM624 653l-370 -653h-54l371 653h53zM609 330l-34 41q33 24 54 37t59.5 25t80.5 12q75 0 128.5 -31t53.5 -89q0 -14 -4 -27t-8.5 -23t-15 -19.5t-17.5 -16t-22.5 -14t-22.5 -11t-26 -9.5t-24 -7.5t-24.5 -6.5t-21.5 -6
q-66 -18 -103.5 -47.5t-37.5 -81.5v-9h320v-47h-379v51q0 135 197 186q1 0 13 3l16 4t16 5t18 6.5t16.5 7t16 8.5t13.5 10.5t11.5 12.5t6.5 14t3 17q0 34 -36 51t-85 17q-50 0 -86 -16t-76 -47z" />
    <glyph glyph-name="threequarters" unicode="&#xbe;" horiz-adv-x="1274" 
d="M249 426v47h87q24 0 47 18t23 47q0 37 -38 56t-85 19q-91 0 -174 -72l-35 36q100 88 210 88q42 0 81 -11t69.5 -39t30.5 -68q0 -33 -18.5 -56.5t-41.5 -32.5q36 -7 66.5 -32.5t30.5 -72.5q0 -68 -66.5 -106.5t-168.5 -38.5q-142 0 -236 87l36 41q83 -76 200 -76
q76 0 126 26t50 70q0 26 -20 43t-41 22t-42 5h-91zM866 653l-370 -653h-54l371 653h53zM1243 151v-48h-89v-103h-59v103h-352v43l355 287h56v-282h89zM830 153v-2h265v207h-8z" />
    <glyph glyph-name="questiondown" unicode="&#xbf;" horiz-adv-x="593" 
d="M497 -55l43 -39q-53 -55 -113 -83.5t-153 -28.5q-95 0 -155.5 36.5t-60.5 118.5q0 43 19.5 71.5t57.5 57.5q17 14 55 39.5t58 41t40 44.5t25 62h60q-3 -43 -25.5 -80t-44 -54.5t-65.5 -47.5t-58 -41q-32 -23 -47 -42t-15 -49q0 -53 45 -78t113 -25q75 0 125.5 25t95.5 72
zM385 421q0 -21 -15.5 -35.5t-38.5 -14.5t-39 15t-16 35q0 21 16 35.5t39 14.5t38.5 -14.5t15.5 -35.5z" />
    <glyph glyph-name="Agrave" unicode="&#xc0;" horiz-adv-x="751" 
d="M383 736l-156 119l83 3l131 -118zM109 0h-69l303 653h66l303 -653h-73l-97 212h-337zM371 575l-141 -309h288l-141 309h-6z" />
    <glyph glyph-name="Aacute" unicode="&#xc1;" horiz-adv-x="751" 
d="M311 740l131 118l82 -3l-156 -119zM109 0h-69l303 653h66l303 -653h-73l-97 212h-337zM371 575l-141 -309h288l-141 309h-6z" />
    <glyph glyph-name="Acircumflex" unicode="&#xc2;" horiz-adv-x="751" 
d="M232 740l110 119h68l109 -119l-49 -4l-94 86l-95 -86zM109 0h-69l303 653h66l303 -653h-73l-97 212h-337zM371 575l-141 -309h288l-141 309h-6z" />
    <glyph glyph-name="Atilde" unicode="&#xc3;" horiz-adv-x="751" 
d="M257 741l-41 22q44 72 93 72q26 0 68 -30q35 -27 58 -27q25 0 57 46l39 -21q-43 -73 -93 -73q-34 0 -71 27q-38 31 -55 31q-23 0 -55 -47zM109 0h-69l303 653h66l303 -653h-73l-97 212h-337zM371 575l-141 -309h288l-141 309h-6z" />
    <glyph glyph-name="Adieresis" unicode="&#xc4;" horiz-adv-x="751" 
d="M472 828q17 0 29 -11.5t12 -26.5q0 -16 -12 -27t-29 -11t-28.5 11t-11.5 27q0 15 11.5 26.5t28.5 11.5zM279 828q17 0 29 -11.5t12 -26.5q0 -16 -12 -27t-29 -11t-28.5 11t-11.5 27q0 15 11.5 26.5t28.5 11.5zM109 0h-69l303 653h66l303 -653h-73l-97 212h-337zM371 575
l-141 -309h288l-141 309h-6z" />
    <glyph glyph-name="Aring" unicode="&#xc5;" horiz-adv-x="751" 
d="M300 788q0 -26 20.5 -43.5t52.5 -17.5q33 0 54 17t21 44q0 28 -21 46.5t-54 18.5q-32 0 -52.5 -18.5t-20.5 -46.5zM373 696q-52 0 -82 26t-30 66q0 41 30 68t82 27t83.5 -27.5t31.5 -67.5q0 -39 -31 -65.5t-84 -26.5zM109 0h-69l303 653h66l303 -653h-73l-97 212h-337z
M371 575l-141 -309h288l-141 309h-6z" />
    <glyph glyph-name="AE" unicode="&#xc6;" horiz-adv-x="1089" 
d="M79 0h-75l478 653h537v-60h-454v-220h275v-60h-275v-253h476v-60h-542v212h-267zM495 575l-224 -309h228v309h-4z" />
    <glyph glyph-name="Ccedilla" unicode="&#xc7;" horiz-adv-x="784" 
d="M689 155l45 -44q-131 -127 -306 -127h-2l-18 -51q28 8 48 8q38 0 66.5 -19t28.5 -57q0 -42 -43 -66.5t-112 -24.5q-51 0 -147 24l11 36q86 -21 134 -21q45 0 72.5 13.5t27.5 38.5q0 43 -59 43q-17 0 -55 -9l-20 22l24 66q-139 14 -227.5 110.5t-88.5 229.5
q0 142 102.5 241.5t254.5 99.5q84 0 161.5 -29.5t131.5 -80.5l-45 -44q-48 44 -113.5 69.5t-133.5 25.5q-123 0 -205.5 -82.5t-82.5 -200.5t83 -200t208 -82q151 0 260 111z" />
    <glyph glyph-name="Egrave" unicode="&#xc8;" horiz-adv-x="718" 
d="M397 736l-156 119l83 3l131 -118zM470 375v-59h-275v-256h476v-60h-543v653h521v-60h-454v-218h275z" />
    <glyph glyph-name="Eacute" unicode="&#xc9;" horiz-adv-x="718" 
d="M325 740l131 118l82 -3l-156 -119zM470 375v-59h-275v-256h476v-60h-543v653h521v-60h-454v-218h275z" />
    <glyph glyph-name="Ecircumflex" unicode="&#xca;" horiz-adv-x="718" 
d="M246 740l110 119h68l109 -119l-49 -4l-94 86l-95 -86zM470 375v-59h-275v-256h476v-60h-543v653h521v-60h-454v-218h275z" />
    <glyph glyph-name="Edieresis" unicode="&#xcb;" horiz-adv-x="718" 
d="M486 828q17 0 29 -11.5t12 -26.5q0 -16 -12 -27t-29 -11t-28.5 11t-11.5 27q0 15 11.5 26.5t28.5 11.5zM293 828q17 0 29 -11.5t12 -26.5q0 -16 -12 -27t-29 -11t-28.5 11t-11.5 27q0 15 11.5 26.5t28.5 11.5zM470 375v-59h-275v-256h476v-60h-543v653h521v-60h-454v-218
h275z" />
    <glyph glyph-name="Igrave" unicode="&#xcc;" horiz-adv-x="323" 
d="M195 0h-67v653h67v-653zM95 858l131 -118l-58 -4l-156 119z" />
    <glyph glyph-name="Iacute" unicode="&#xcd;" horiz-adv-x="323" 
d="M195 0h-67v653h67v-653zM96 740l131 118l82 -3l-156 -119z" />
    <glyph glyph-name="Icircumflex" unicode="&#xce;" horiz-adv-x="323" 
d="M195 0h-67v653h67v-653zM17 740l111 119h67l110 -119l-50 -4l-94 86l-94 -86z" />
    <glyph glyph-name="Idieresis" unicode="&#xcf;" horiz-adv-x="323" 
d="M195 0h-67v653h67v-653zM257 828q18 0 29.5 -11.5t11.5 -26.5q0 -17 -11.5 -27.5t-29.5 -10.5q-17 0 -28.5 11t-11.5 27q0 15 11.5 26.5t28.5 11.5zM64 828q18 0 29.5 -11.5t11.5 -26.5q0 -17 -11.5 -27.5t-29.5 -10.5q-17 0 -28.5 11t-11.5 27q0 15 11.5 26.5t28.5 11.5
z" />
    <glyph glyph-name="Eth" unicode="&#xd0;" horiz-adv-x="845" 
d="M53 316v54h100v283h273q88 0 146.5 -23.5t108.5 -70.5q92 -92 92 -232q0 -143 -96 -237q-51 -46 -107 -68t-144 -22h-273v316h-100zM220 60h203q72 0 115 17t86 55q79 79 79 195q0 114 -76 192q-42 38 -87 56t-117 18h-203v-223h219v-54h-219v-256z" />
    <glyph glyph-name="Ntilde" unicode="&#xd1;" horiz-adv-x="831" 
d="M296 741l-41 22q44 72 93 72q26 0 68 -30q35 -27 58 -27q25 0 57 46l39 -21q-43 -73 -93 -73q-34 0 -71 27q-38 31 -55 31q-23 0 -55 -47zM636 653h67v-653h-63l-444 538h-1v-538h-67v653h63l444 -538h1v538z" />
    <glyph glyph-name="Ograve" unicode="&#xd2;" horiz-adv-x="855" 
d="M434 736l-156 119l83 3l131 -118zM68 328q0 141 104 240.5t254 99.5q151 0 256 -99.5t105 -240.5q0 -143 -105 -243.5t-256 -100.5q-150 0 -254 100.5t-104 243.5zM139 328q0 -118 83.5 -201t203.5 -83q122 0 206.5 83t84.5 201q0 117 -84.5 199t-206.5 82
q-120 0 -203.5 -82t-83.5 -199z" />
    <glyph glyph-name="Oacute" unicode="&#xd3;" horiz-adv-x="855" 
d="M362 740l131 118l82 -3l-156 -119zM68 328q0 141 104 240.5t254 99.5q151 0 256 -99.5t105 -240.5q0 -143 -105 -243.5t-256 -100.5q-150 0 -254 100.5t-104 243.5zM139 328q0 -118 83.5 -201t203.5 -83q122 0 206.5 83t84.5 201q0 117 -84.5 199t-206.5 82
q-120 0 -203.5 -82t-83.5 -199z" />
    <glyph glyph-name="Ocircumflex" unicode="&#xd4;" horiz-adv-x="855" 
d="M283 740l110 119h68l109 -119l-49 -4l-94 86l-95 -86zM68 328q0 141 104 240.5t254 99.5q151 0 256 -99.5t105 -240.5q0 -143 -105 -243.5t-256 -100.5q-150 0 -254 100.5t-104 243.5zM139 328q0 -118 83.5 -201t203.5 -83q122 0 206.5 83t84.5 201q0 117 -84.5 199
t-206.5 82q-120 0 -203.5 -82t-83.5 -199z" />
    <glyph glyph-name="Otilde" unicode="&#xd5;" horiz-adv-x="855" 
d="M308 741l-41 22q44 72 93 72q26 0 68 -30q35 -27 58 -27q25 0 57 46l39 -21q-43 -73 -93 -73q-34 0 -71 27q-38 31 -55 31q-23 0 -55 -47zM68 328q0 141 104 240.5t254 99.5q151 0 256 -99.5t105 -240.5q0 -143 -105 -243.5t-256 -100.5q-150 0 -254 100.5t-104 243.5z
M139 328q0 -118 83.5 -201t203.5 -83q122 0 206.5 83t84.5 201q0 117 -84.5 199t-206.5 82q-120 0 -203.5 -82t-83.5 -199z" />
    <glyph glyph-name="Odieresis" unicode="&#xd6;" horiz-adv-x="855" 
d="M523 828q17 0 29 -11.5t12 -26.5q0 -16 -12 -27t-29 -11t-28.5 11t-11.5 27q0 15 11.5 26.5t28.5 11.5zM330 828q17 0 29 -11.5t12 -26.5q0 -16 -12 -27t-29 -11t-28.5 11t-11.5 27q0 15 11.5 26.5t28.5 11.5zM68 328q0 141 104 240.5t254 99.5q151 0 256 -99.5
t105 -240.5q0 -143 -105 -243.5t-256 -100.5q-150 0 -254 100.5t-104 243.5zM139 328q0 -118 83.5 -201t203.5 -83q122 0 206.5 83t84.5 201q0 117 -84.5 199t-206.5 82q-120 0 -203.5 -82t-83.5 -199z" />
    <glyph glyph-name="multiply" unicode="&#xd7;" 
d="M103 441l42 41l209 -191l208 191l40 -40l-207 -189l208 -189l-42 -40l-209 190l-208 -190l-41 39l207 189z" />
    <glyph glyph-name="Oslash" unicode="&#xd8;" horiz-adv-x="855" 
d="M68 328q0 141 104 240.5t254 99.5q92 0 175 -43l61 87l45 -31l-59 -85q65 -47 102 -117.5t37 -150.5q0 -143 -105 -243.5t-256 -100.5q-94 0 -175 43l-59 -85l-46 30l59 84q-64 48 -100.5 119t-36.5 153zM717 328q0 64 -28 120.5t-77 96.5l-325 -466q65 -35 139 -35
q122 0 206.5 83t84.5 201zM139 328q0 -135 103 -219l324 465q-67 35 -140 35q-120 0 -203.5 -82t-83.5 -199z" />
    <glyph glyph-name="Ugrave" unicode="&#xd9;" horiz-adv-x="798" 
d="M405 736l-156 119l83 3l131 -118zM617 653h67v-421q0 -116 -80 -182t-206 -66q-125 0 -204.5 66t-79.5 182v421h67v-421q0 -88 61 -138t156 -50q97 0 158 50t61 138v421z" />
    <glyph glyph-name="Uacute" unicode="&#xda;" horiz-adv-x="798" 
d="M333 740l131 118l82 -3l-156 -119zM617 653h67v-421q0 -116 -80 -182t-206 -66q-125 0 -204.5 66t-79.5 182v421h67v-421q0 -88 61 -138t156 -50q97 0 158 50t61 138v421z" />
    <glyph glyph-name="Ucircumflex" unicode="&#xdb;" horiz-adv-x="798" 
d="M254 740l110 119h68l109 -119l-49 -4l-94 86l-95 -86zM617 653h67v-421q0 -116 -80 -182t-206 -66q-125 0 -204.5 66t-79.5 182v421h67v-421q0 -88 61 -138t156 -50q97 0 158 50t61 138v421z" />
    <glyph glyph-name="Udieresis" unicode="&#xdc;" horiz-adv-x="798" 
d="M494 828q17 0 29 -11.5t12 -26.5q0 -16 -12 -27t-29 -11t-28.5 11t-11.5 27q0 15 11.5 26.5t28.5 11.5zM301 828q17 0 29 -11.5t12 -26.5q0 -16 -12 -27t-29 -11t-28.5 11t-11.5 27q0 15 11.5 26.5t28.5 11.5zM617 653h67v-421q0 -116 -80 -182t-206 -66
q-125 0 -204.5 66t-79.5 182v421h67v-421q0 -88 61 -138t156 -50q97 0 158 50t61 138v421z" />
    <glyph glyph-name="Yacute" unicode="&#xdd;" horiz-adv-x="667" 
d="M269 740l131 118l82 -3l-156 -119zM556 653h79l-268 -343v-310h-67v310l-268 343h85l219 -283z" />
    <glyph glyph-name="Thorn" unicode="&#xde;" horiz-adv-x="762" 
d="M128 653h67v-134h290q64 0 103 -15.5t73 -47.5q52 -55 52 -128q0 -79 -57 -134q-66 -59 -171 -59h-290v-135h-67v653zM485 459h-290v-265h290q77 0 123 42q38 38 38 91t-36 89q-44 43 -125 43z" />
    <glyph glyph-name="germandbls" unicode="&#xdf;" horiz-adv-x="598" 
d="M312 -10l-6 48q81 0 125.5 39t44.5 102q0 42 -20.5 78t-52 58.5t-58.5 36t-49 19.5l5 48q39 9 67.5 46.5t28.5 85.5t-31.5 78t-82.5 30t-87.5 -32.5t-36.5 -97.5v-529h-61v529q0 93 54 137.5t131 44.5q79 0 128.5 -45t49.5 -110q0 -58 -35 -100t-73 -56q27 -8 56.5 -25.5
t60.5 -44.5t50.5 -67.5t19.5 -85.5q0 -82 -60 -134.5t-168 -52.5z" />
    <glyph glyph-name="agrave" unicode="&#xe0;" horiz-adv-x="596" 
d="M116 363l-23 50q92 59 206 59q54 0 97.5 -12t75 -44t31.5 -80v-253q0 -52 16 -83h-63q-13 21 -15 71q-86 -81 -204 -81q-84 0 -133.5 44t-49.5 113q0 66 55.5 109.5t154.5 43.5q124 0 177 -58v78q0 50 -41.5 75t-102.5 25q-99 0 -181 -57zM249 42q47 0 93 18.5t69.5 36
t29.5 27.5v66q-22 30 -68 45.5t-100 15.5q-78 0 -117.5 -29t-39.5 -75q0 -45 35.5 -75t97.5 -30zM187 688l70 2l89 -146l-55 -2z" />
    <glyph glyph-name="aacute" unicode="&#xe1;" horiz-adv-x="596" 
d="M116 363l-23 50q92 59 206 59q54 0 97.5 -12t75 -44t31.5 -80v-253q0 -52 16 -83h-63q-13 21 -15 71q-86 -81 -204 -81q-84 0 -133.5 44t-49.5 113q0 66 55.5 109.5t154.5 43.5q124 0 177 -58v78q0 50 -41.5 75t-102.5 25q-99 0 -181 -57zM249 42q47 0 93 18.5t69.5 36
t29.5 27.5v66q-22 30 -68 45.5t-100 15.5q-78 0 -117.5 -29t-39.5 -75q0 -45 35.5 -75t97.5 -30zM338 690l70 -2l-103 -146l-56 2z" />
    <glyph glyph-name="acircumflex" unicode="&#xe2;" horiz-adv-x="596" 
d="M116 363l-23 50q92 59 206 59q54 0 97.5 -12t75 -44t31.5 -80v-253q0 -52 16 -83h-63q-13 21 -15 71q-86 -81 -204 -81q-84 0 -133.5 44t-49.5 113q0 66 55.5 109.5t154.5 43.5q124 0 177 -58v78q0 50 -41.5 75t-102.5 25q-99 0 -181 -57zM249 42q47 0 93 18.5t69.5 36
t29.5 27.5v66q-22 30 -68 45.5t-100 15.5q-78 0 -117.5 -29t-39.5 -75q0 -45 35.5 -75t97.5 -30zM154 547l110 125h68l109 -125l-49 -4l-94 92l-95 -92z" />
    <glyph glyph-name="atilde" unicode="&#xe3;" horiz-adv-x="596" 
d="M116 363l-23 50q92 59 206 59q54 0 97.5 -12t75 -44t31.5 -80v-253q0 -52 16 -83h-63q-13 21 -15 71q-86 -81 -204 -81q-84 0 -133.5 44t-49.5 113q0 66 55.5 109.5t154.5 43.5q124 0 177 -58v78q0 50 -41.5 75t-102.5 25q-99 0 -181 -57zM249 42q47 0 93 18.5t69.5 36
t29.5 27.5v66q-22 30 -68 45.5t-100 15.5q-78 0 -117.5 -29t-39.5 -75q0 -45 35.5 -75t97.5 -30zM179 547l-41 23q44 72 93 72q26 0 68 -30q36 -28 58 -28q11 0 22.5 8t17.5 16t17 23l39 -22q-44 -72 -93 -72q-34 0 -71 27q-39 30 -55 30q-23 0 -55 -47z" />
    <glyph glyph-name="adieresis" unicode="&#xe4;" horiz-adv-x="596" 
d="M116 363l-23 50q92 59 206 59q54 0 97.5 -12t75 -44t31.5 -80v-253q0 -52 16 -83h-63q-13 21 -15 71q-86 -81 -204 -81q-84 0 -133.5 44t-49.5 113q0 66 55.5 109.5t154.5 43.5q124 0 177 -58v78q0 50 -41.5 75t-102.5 25q-99 0 -181 -57zM249 42q47 0 93 18.5t69.5 36
t29.5 27.5v66q-22 30 -68 45.5t-100 15.5q-78 0 -117.5 -29t-39.5 -75q0 -45 35.5 -75t97.5 -30zM354 596q0 16 11.5 27t28.5 11t29 -11t12 -27t-12 -26.5t-29 -10.5t-28.5 10.5t-11.5 26.5zM161 596q0 16 11.5 27t28.5 11t29 -11t12 -27t-12 -26.5t-29 -10.5t-28.5 10.5
t-11.5 26.5z" />
    <glyph glyph-name="aring" unicode="&#xe5;" horiz-adv-x="596" 
d="M116 363l-23 50q92 59 206 59q54 0 97.5 -12t75 -44t31.5 -80v-253q0 -52 16 -83h-63q-13 21 -15 71q-86 -81 -204 -81q-84 0 -133.5 44t-49.5 113q0 66 55.5 109.5t154.5 43.5q124 0 177 -58v78q0 50 -41.5 75t-102.5 25q-99 0 -181 -57zM249 42q47 0 93 18.5t69.5 36
t29.5 27.5v66q-22 30 -68 45.5t-100 15.5q-78 0 -117.5 -29t-39.5 -75q0 -45 35.5 -75t97.5 -30zM222 627q0 -27 20.5 -44.5t52.5 -17.5q33 0 54 17.5t21 44.5q0 28 -21 46.5t-54 18.5q-32 0 -52.5 -18.5t-20.5 -46.5zM183 627q0 41 30 68t82 27t83.5 -27.5t31.5 -67.5
q0 -39 -31 -65.5t-84 -26.5q-52 0 -82 26t-30 66z" />
    <glyph glyph-name="ae" unicode="&#xe6;" horiz-adv-x="973" 
d="M249 42q69 0 122.5 28t86.5 62q-12 25 -16 57q-55 62 -169 62q-78 0 -117.5 -29t-39.5 -75q0 -45 35.5 -75t97.5 -30zM681 -13q-134 0 -201 102q-41 -44 -106 -73t-137 -29q-84 0 -133.5 45.5t-49.5 114.5q0 66 55.5 109.5t154.5 43.5q126 0 179 -58v78q0 50 -42.5 75
t-103.5 25q-99 0 -181 -57l-23 50q92 59 206 59q71 0 124.5 -24.5t61.5 -80.5l1 -20q23 57 77.5 91t117.5 34q62 0 114.5 -24t87.5 -81t31 -139h-410q0 -12 3 -39q9 -64 56.5 -105.5t117.5 -41.5q112 0 179 72l42 -40q-87 -87 -221 -87zM506 277h341q-1 68 -51.5 106
t-114.5 38q-66 0 -113 -40t-62 -104z" />
    <glyph glyph-name="ccedilla" unicode="&#xe7;" horiz-adv-x="564" 
d="M508 397l-42 -42q-66 63 -157 63q-76 0 -128 -52t-52 -135q0 -84 54 -136.5t132 -52.5q94 0 162 73l42 -39q-13 -16 -35.5 -33.5t-69.5 -36t-99 -19.5l-19 -54q28 8 48 8q38 0 66.5 -19t28.5 -57q0 -42 -43 -66.5t-112 -24.5q-51 0 -147 24l11 36q86 -21 134 -21
q45 0 72.5 13.5t27.5 38.5q0 43 -59 43q-17 0 -55 -9l-20 22l25 69q-91 12 -151.5 77.5t-60.5 163.5q0 107 72 174t176 67q117 0 199 -75z" />
    <glyph glyph-name="egrave" unicode="&#xe8;" horiz-adv-x="594" 
d="M481 114l42 -40q-89 -87 -223 -87q-109 0 -174 68t-65 169q0 105 70 176.5t174 71.5q42 0 81.5 -13.5t73.5 -39.5t54.5 -70.5t21.5 -100.5q0 -13 -1 -20h-412v-2q0 -79 49.5 -131.5t133.5 -52.5q108 0 175 72zM302 421q-65 0 -111.5 -40.5t-61.5 -103.5h339
q-2 68 -52 106t-114 38zM193 688l70 2l89 -146l-55 -2z" />
    <glyph glyph-name="eacute" unicode="&#xe9;" horiz-adv-x="594" 
d="M481 114l42 -40q-89 -87 -223 -87q-109 0 -174 68t-65 169q0 105 70 176.5t174 71.5q42 0 81.5 -13.5t73.5 -39.5t54.5 -70.5t21.5 -100.5q0 -13 -1 -20h-412v-2q0 -79 49.5 -131.5t133.5 -52.5q108 0 175 72zM302 421q-65 0 -111.5 -40.5t-61.5 -103.5h339
q-2 68 -52 106t-114 38zM344 690l70 -2l-103 -146l-56 2z" />
    <glyph glyph-name="ecircumflex" unicode="&#xea;" horiz-adv-x="594" 
d="M481 114l42 -40q-89 -87 -223 -87q-109 0 -174 68t-65 169q0 105 70 176.5t174 71.5q42 0 81.5 -13.5t73.5 -39.5t54.5 -70.5t21.5 -100.5q0 -13 -1 -20h-412v-2q0 -79 49.5 -131.5t133.5 -52.5q108 0 175 72zM302 421q-65 0 -111.5 -40.5t-61.5 -103.5h339
q-2 68 -52 106t-114 38zM160 547l110 125h68l109 -125l-49 -4l-94 92l-95 -92z" />
    <glyph glyph-name="edieresis" unicode="&#xeb;" horiz-adv-x="594" 
d="M481 114l42 -40q-89 -87 -223 -87q-109 0 -174 68t-65 169q0 105 70 176.5t174 71.5q42 0 81.5 -13.5t73.5 -39.5t54.5 -70.5t21.5 -100.5q0 -13 -1 -20h-412v-2q0 -79 49.5 -131.5t133.5 -52.5q108 0 175 72zM302 421q-65 0 -111.5 -40.5t-61.5 -103.5h339
q-2 68 -52 106t-114 38zM360 596q0 16 11.5 27t28.5 11t29 -11t12 -27t-12 -26.5t-29 -10.5t-28.5 10.5t-11.5 26.5zM167 596q0 16 11.5 27t28.5 11t29 -11t12 -27t-12 -26.5t-29 -10.5t-28.5 10.5t-11.5 26.5z" />
    <glyph glyph-name="igrave" unicode="&#xec;" horiz-adv-x="257" 
d="M160 0h-62v459h62v-459zM18 688l70 2l89 -146l-55 -2z" />
    <glyph glyph-name="iacute" unicode="&#xed;" horiz-adv-x="257" 
d="M160 0h-62v459h62v-459zM169 690l70 -2l-103 -146l-56 2z" />
    <glyph glyph-name="icircumflex" unicode="&#xee;" horiz-adv-x="257" 
d="M160 0h-62v459h62v-459zM-15 547l110 125h68l109 -125l-49 -4l-94 92l-95 -92z" />
    <glyph glyph-name="idieresis" unicode="&#xef;" horiz-adv-x="257" 
d="M160 0h-62v459h62v-459zM185 596q0 16 11.5 27t28.5 11t29 -11t12 -27t-12 -26.5t-29 -10.5t-28.5 10.5t-11.5 26.5zM-8 596q0 16 11.5 27t28.5 11t29 -11t12 -27t-12 -26.5t-29 -10.5t-28.5 10.5t-11.5 26.5z" />
    <glyph glyph-name="eth" unicode="&#xf0;" horiz-adv-x="626" 
d="M183 518l-15 42l144 52q-49 38 -127 76l66 15q76 -38 118 -71l121 44l15 -42l-98 -35l14 -14q126 -132 126 -333q0 -124 -67 -194q-68 -71 -175 -71q-99 0 -171 69.5t-72 167.5q0 100 67.5 168.5t161.5 68.5q61 0 111 -28.5t70 -76.5q-23 120 -106 207l-15 15zM127 225
q0 -77 51 -130t126 -53q79 0 130 54q49 52 49 133q0 78 -51.5 128t-128.5 50q-75 0 -125.5 -53t-50.5 -129z" />
    <glyph glyph-name="ntilde" unicode="&#xf1;" horiz-adv-x="606" 
d="M161 0h-62v350q0 56 -14 109h57q11 -32 13 -73q80 86 183 86q77 0 127 -45t50 -115v-312h-63v312q0 45 -34.5 75.5t-89.5 30.5q-89 0 -167 -82v-336zM183 547l-41 23q44 72 93 72q26 0 68 -30q36 -28 58 -28q11 0 22.5 8t17.5 16t17 23l39 -22q-44 -72 -93 -72
q-34 0 -71 27q-39 30 -55 30q-23 0 -55 -47z" />
    <glyph glyph-name="ograve" unicode="&#xf2;" horiz-adv-x="617" 
d="M61 231q0 101 71 171t176 70t176.5 -70t71.5 -171q0 -103 -71.5 -173.5t-176.5 -70.5t-176 70.5t-71 173.5zM126 231q0 -80 52 -136t130 -56q79 0 131.5 56t52.5 136q0 78 -53 134t-131 56t-130 -56t-52 -134zM197 688l70 2l89 -146l-55 -2z" />
    <glyph glyph-name="oacute" unicode="&#xf3;" horiz-adv-x="617" 
d="M61 231q0 101 71 171t176 70t176.5 -70t71.5 -171q0 -103 -71.5 -173.5t-176.5 -70.5t-176 70.5t-71 173.5zM126 231q0 -80 52 -136t130 -56q79 0 131.5 56t52.5 136q0 78 -53 134t-131 56t-130 -56t-52 -134zM348 690l70 -2l-103 -146l-56 2z" />
    <glyph glyph-name="ocircumflex" unicode="&#xf4;" horiz-adv-x="617" 
d="M61 231q0 101 71 171t176 70t176.5 -70t71.5 -171q0 -103 -71.5 -173.5t-176.5 -70.5t-176 70.5t-71 173.5zM126 231q0 -80 52 -136t130 -56q79 0 131.5 56t52.5 136q0 78 -53 134t-131 56t-130 -56t-52 -134zM164 547l110 125h68l109 -125l-49 -4l-94 92l-95 -92z" />
    <glyph glyph-name="otilde" unicode="&#xf5;" horiz-adv-x="617" 
d="M61 231q0 101 71 171t176 70t176.5 -70t71.5 -171q0 -103 -71.5 -173.5t-176.5 -70.5t-176 70.5t-71 173.5zM126 231q0 -80 52 -136t130 -56q79 0 131.5 56t52.5 136q0 78 -53 134t-131 56t-130 -56t-52 -134zM189 547l-41 23q44 72 93 72q26 0 68 -30q36 -28 58 -28
q11 0 22.5 8t17.5 16t17 23l39 -22q-44 -72 -93 -72q-34 0 -71 27q-39 30 -55 30q-23 0 -55 -47z" />
    <glyph glyph-name="odieresis" unicode="&#xf6;" horiz-adv-x="617" 
d="M61 231q0 101 71 171t176 70t176.5 -70t71.5 -171q0 -103 -71.5 -173.5t-176.5 -70.5t-176 70.5t-71 173.5zM126 231q0 -80 52 -136t130 -56q79 0 131.5 56t52.5 136q0 78 -53 134t-131 56t-130 -56t-52 -134zM364 596q0 16 11.5 27t28.5 11t29 -11t12 -27t-12 -26.5
t-29 -10.5t-28.5 10.5t-11.5 26.5zM171 596q0 16 11.5 27t28.5 11t29 -11t12 -27t-12 -26.5t-29 -10.5t-28.5 10.5t-11.5 26.5z" />
    <glyph glyph-name="divide" unicode="&#xf7;" 
d="M84 225v55h537v-55h-537zM302 43q0 20 15 34t37 14t36.5 -14t14.5 -34t-14.5 -33.5t-36.5 -13.5t-37 13.5t-15 33.5zM302 462q0 20 15 33.5t37 13.5t36.5 -13.5t14.5 -33.5t-14.5 -33.5t-36.5 -13.5t-37 13.5t-15 33.5z" />
    <glyph glyph-name="oslash" unicode="&#xf8;" horiz-adv-x="617" 
d="M136 -52l-35 24l48 69q-88 72 -88 190q0 101 71 171t176 70q66 0 122 -31l50 71l35 -25l-49 -69q90 -72 90 -187q0 -103 -71.5 -173.5t-176.5 -70.5q-64 0 -123 31zM492 231q0 84 -59 140l-216 -308q42 -24 91 -24q79 0 131.5 56t52.5 136zM126 231q0 -85 57 -142
l216 307q-42 25 -91 25q-78 0 -130 -56t-52 -134z" />
    <glyph glyph-name="ugrave" unicode="&#xf9;" horiz-adv-x="605" 
d="M444 459h62v-349q0 -67 8 -110h-57q-7 32 -7 73q-82 -86 -182 -86q-77 0 -127.5 45t-50.5 115v312h63v-312q0 -45 35 -75.5t89 -30.5q89 0 167 82v336zM191 688l70 2l89 -146l-55 -2z" />
    <glyph glyph-name="uacute" unicode="&#xfa;" horiz-adv-x="605" 
d="M444 459h62v-349q0 -67 8 -110h-57q-7 32 -7 73q-82 -86 -182 -86q-77 0 -127.5 45t-50.5 115v312h63v-312q0 -45 35 -75.5t89 -30.5q89 0 167 82v336zM342 690l70 -2l-103 -146l-56 2z" />
    <glyph glyph-name="ucircumflex" unicode="&#xfb;" horiz-adv-x="605" 
d="M444 459h62v-349q0 -67 8 -110h-57q-7 32 -7 73q-82 -86 -182 -86q-77 0 -127.5 45t-50.5 115v312h63v-312q0 -45 35 -75.5t89 -30.5q89 0 167 82v336zM158 547l110 125h68l109 -125l-49 -4l-94 92l-95 -92z" />
    <glyph glyph-name="udieresis" unicode="&#xfc;" horiz-adv-x="605" 
d="M444 459h62v-349q0 -67 8 -110h-57q-7 32 -7 73q-82 -86 -182 -86q-77 0 -127.5 45t-50.5 115v312h63v-312q0 -45 35 -75.5t89 -30.5q89 0 167 82v336zM358 596q0 16 11.5 27t28.5 11t29 -11t12 -27t-12 -26.5t-29 -10.5t-28.5 10.5t-11.5 26.5zM165 596q0 16 11.5 27
t28.5 11t29 -11t12 -27t-12 -26.5t-29 -10.5t-28.5 10.5t-11.5 26.5z" />
    <glyph glyph-name="yacute" unicode="&#xfd;" horiz-adv-x="550" 
d="M451 459h63l-327 -671h-64l113 225l-200 446h70l162 -378h3zM314 690l70 -2l-103 -146l-56 2z" />
    <glyph glyph-name="thorn" unicode="&#xfe;" horiz-adv-x="626" 
d="M152 341v-223q72 -77 158 -77q74 0 125 52t51 136t-48.5 136.5t-119.5 52.5q-89 0 -166 -77zM152 700v-306q74 78 172 78q97 0 163.5 -67.5t66.5 -175.5q0 -107 -69.5 -174.5t-169.5 -67.5q-96 0 -163 79v-278h-62v912h62z" />
    <glyph glyph-name="ydieresis" unicode="&#xff;" horiz-adv-x="550" 
d="M451 459h63l-327 -671h-64l113 225l-200 446h70l162 -378h3zM330 596q0 16 11.5 27t28.5 11t29 -11t12 -27t-12 -26.5t-29 -10.5t-28.5 10.5t-11.5 26.5zM137 596q0 16 11.5 27t28.5 11t29 -11t12 -27t-12 -26.5t-29 -10.5t-28.5 10.5t-11.5 26.5z" />
    <glyph glyph-name="dotlessi" unicode="&#x131;" horiz-adv-x="257" 
d="M160 0h-62v459h62v-459z" />
    <glyph glyph-name="Lslash" unicode="&#x141;" horiz-adv-x="655" 
d="M146 653h67v-279l200 116l3 -53l-203 -118v-259h420v-60h-487v281l-100 -58l-3 53l103 59v318z" />
    <glyph glyph-name="lslash" unicode="&#x142;" horiz-adv-x="307" 
d="M185 0h-62v330l-76 -44l-22 37l98 57v320h62v-284l91 53l22 -37l-113 -66v-366z" />
    <glyph glyph-name="OE" unicode="&#x152;" horiz-adv-x="1308" 
d="M1260 60v-60h-543v164q-37 -85 -117 -132.5t-179 -47.5q-148 0 -250.5 100.5t-102.5 243.5q0 141 103 240.5t250 99.5q99 0 179 -46.5t117 -131.5v163h521v-60h-454v-220h275v-60h-275v-253h476zM139 328q0 -118 82 -201t200 -83q124 0 210 83t86 201q0 117 -86.5 199
t-209.5 82q-118 0 -200 -82t-82 -199z" />
    <glyph glyph-name="oe" unicode="&#x153;" horiz-adv-x="1024" 
d="M912 114l41 -40q-87 -87 -220 -87q-77 0 -135 39t-78 101q-23 -61 -83.5 -100.5t-129.5 -39.5q-101 0 -173.5 71t-72.5 173q0 100 73 170.5t173 70.5q71 0 132.5 -41t83.5 -104q21 64 79.5 104.5t130.5 40.5q45 0 86.5 -14.5t76 -42.5t54 -76.5t16.5 -110.5h-411
q0 -14 3 -35q8 -65 55.5 -108t119.5 -43q110 0 179 72zM125 231q0 -80 52 -136t130 -56t131 55.5t53 136.5q0 78 -52.5 134t-131.5 56q-78 0 -130 -56t-52 -134zM733 421q-65 0 -111.5 -40t-61.5 -104h338q-1 68 -51 106t-114 38z" />
    <glyph glyph-name="Scaron" unicode="&#x160;" horiz-adv-x="744" 
d="M277 860l95 -85l94 85l49 -4l-109 -119h-68l-110 119zM635 573l-41 -46q-36 34 -100 59t-146 25q-76 0 -132 -31t-56 -95q0 -23 8 -39.5t27.5 -27.5t35.5 -17.5t49.5 -10.5t51 -5.5t56.5 -3.5q34 -2 53 -3.5t54.5 -7t57 -13t49.5 -21.5t44 -32.5t27 -46.5t11 -63
q0 -104 -83.5 -157t-210.5 -53q-190 0 -333 133l41 46q130 -121 293 -121q98 0 162 36.5t64 107.5q0 32 -14 55t-34 36t-54 21.5t-60 11.5t-67 6q-39 2 -60.5 4t-57.5 6.5t-57 11t-47 19t-39.5 28.5t-23.5 40.5t-10 54.5q0 51 23.5 89t63 59t82.5 30.5t89 9.5
q90 0 164.5 -29t119.5 -66z" />
    <glyph glyph-name="scaron" unicode="&#x161;" horiz-adv-x="547" 
d="M458 415l-25 -47q-28 20 -76 37t-98 17t-87 -20t-37 -59q0 -22 12.5 -36.5t38 -21t43.5 -8.5t50 -4q28 -1 44 -2.5t45.5 -6.5t48 -14t38 -23t29 -36.5t9.5 -52.5q0 -74 -61 -113t-155 -39q-121 0 -222 72l25 47q97 -68 196 -68q67 0 111 25t44 71q0 25 -14 42t-41 24.5
t-46.5 10t-50.5 4.5q-28 2 -41.5 3t-40 4.5t-40 8.5t-32.5 14t-28.5 21t-16.5 30t-7 41q0 72 55.5 105t129.5 33q60 0 114.5 -18.5t85.5 -40.5zM129 670l49 3l95 -92l94 92l49 -3l-109 -126h-68z" />
    <glyph glyph-name="Ydieresis" unicode="&#x178;" horiz-adv-x="667" 
d="M430 828q17 0 29 -11.5t12 -26.5q0 -16 -12 -27t-29 -11t-28.5 11t-11.5 27q0 15 11.5 26.5t28.5 11.5zM237 828q17 0 29 -11.5t12 -26.5q0 -16 -12 -27t-29 -11t-28.5 11t-11.5 27q0 15 11.5 26.5t28.5 11.5zM556 653h79l-268 -343v-310h-67v310l-268 343h85l219 -283z
" />
    <glyph glyph-name="Zcaron" unicode="&#x17d;" horiz-adv-x="685" 
d="M247 860l95 -85l94 85l49 -4l-109 -119h-68l-110 119zM622 60v-60h-574v43l472 550h-437v60h533v-43l-473 -550h479z" />
    <glyph glyph-name="zcaron" unicode="&#x17e;" horiz-adv-x="519" 
d="M463 49v-49h-417v38l325 372h-295v49h380v-38l-325 -372h332zM116 670l49 3l95 -92l94 92l49 -3l-109 -126h-68z" />
    <glyph glyph-name="florin" unicode="&#x192;" horiz-adv-x="484" 
d="M57 316h107l25 111q15 68 63.5 100.5t102.5 32.5q29 0 59 -9t44 -20l-24 -50q-10 9 -33.5 17t-45.5 8q-36 0 -65 -19.5t-38 -58.5l-25 -112h127v-49h-138l-59 -267q-18 -79 -71.5 -117t-115.5 -38v49q103 11 125 106l59 267h-97v49z" />
    <glyph glyph-name="circumflex" unicode="&#x2c6;" horiz-adv-x="500" 
d="M106 547l110 125h68l109 -125l-49 -4l-94 92l-95 -92z" />
    <glyph glyph-name="caron" unicode="&#x2c7;" horiz-adv-x="500" 
d="M106 670l49 3l95 -92l94 92l49 -3l-109 -126h-68z" />
    <glyph glyph-name="breve" unicode="&#x2d8;" horiz-adv-x="500" 
d="M117 668h47q0 -90 86 -90t86 90h46q0 -24 -6 -45.5t-19.5 -42t-41 -33t-65.5 -12.5q-73 0 -103 39.5t-30 93.5z" />
    <glyph glyph-name="dotaccent" unicode="&#x2d9;" horiz-adv-x="500" 
d="M210 596q0 16 11.5 27t28.5 11t29 -11t12 -27t-12 -26.5t-29 -10.5t-28.5 10.5t-11.5 26.5z" />
    <glyph glyph-name="ring" unicode="&#x2da;" horiz-adv-x="500" 
d="M174 627q0 -27 20.5 -44.5t52.5 -17.5q33 0 54 17.5t21 44.5q0 28 -21 46.5t-54 18.5q-32 0 -52.5 -18.5t-20.5 -46.5zM135 627q0 41 30 68t82 27t83.5 -27.5t31.5 -67.5q0 -39 -31 -65.5t-84 -26.5q-52 0 -82 26t-30 66z" />
    <glyph glyph-name="ogonek" unicode="&#x2db;" horiz-adv-x="500" 
d="M266 19l29 -19q-18 -7 -36.5 -17t-41.5 -25.5t-37.5 -36t-14.5 -41.5q0 -30 25 -47t68 -17q21 0 67 8l6 -40q-47 -10 -83 -10q-63 0 -100.5 26t-37.5 69q0 28 17.5 54t45 45t49.5 31t44 20z" />
    <glyph glyph-name="tilde" unicode="&#x2dc;" horiz-adv-x="500" 
d="M131 547l-41 23q44 72 93 72q26 0 68 -30q36 -28 58 -28q11 0 22.5 8t17.5 16t17 23l39 -22q-44 -72 -93 -72q-34 0 -71 27q-39 30 -55 30q-23 0 -55 -47z" />
    <glyph glyph-name="hungarumlaut" unicode="&#x2dd;" horiz-adv-x="500" 
d="M173 537l-41 3l58 136l57 -3zM340 537l-40 3l58 136l57 -3z" />
    <glyph glyph-name="Delta" unicode="&#x394;" horiz-adv-x="730" 
d="M676 0h-621v54l277 599h66l278 -599v-54zM361 575l-238 -521h481l-237 521h-6z" />
    <glyph glyph-name="Delta" unicode="&#x2206;" horiz-adv-x="730" 
d="M676 0h-621v54l277 599h66l278 -599v-54zM361 575l-238 -521h481l-237 521h-6z" />
    <glyph glyph-name="Omega" unicode="&#x3a9;" horiz-adv-x="860" 
d="M77 0v54h193q-94 32 -149 109t-55 176q0 137 105.5 233t257.5 96q153 0 260 -96t107 -233q0 -96 -57.5 -174t-150.5 -111h192v-54h-273v54q97 24 157.5 102.5t60.5 182.5q0 112 -86 191t-210 79q-123 0 -208 -79t-85 -191q0 -103 60 -181t155 -104v-54h-274z" />
    <glyph glyph-name="Omega" unicode="&#x2126;" horiz-adv-x="860" 
d="M77 0v54h193q-94 32 -149 109t-55 176q0 137 105.5 233t257.5 96q153 0 260 -96t107 -233q0 -96 -57.5 -174t-150.5 -111h192v-54h-273v54q97 24 157.5 102.5t60.5 182.5q0 112 -86 191t-210 79q-123 0 -208 -79t-85 -191q0 -103 60 -181t155 -104v-54h-274z" />
    <glyph glyph-name="pi" unicode="&#x3c0;" horiz-adv-x="693" 
d="M42 405v49h609v-49h-115l-34 -324q-4 -36 -1 -81h-61q-3 43 1 81l34 324h-238l-42 -405h-62l42 405h-133z" />
    <glyph glyph-name="endash" unicode="&#x2013;" horiz-adv-x="638" 
d="M72 226v55h494v-55h-494z" />
    <glyph glyph-name="emdash" unicode="&#x2014;" horiz-adv-x="1118" 
d="M72 226v55h974v-55h-974z" />
    <glyph glyph-name="quoteleft" unicode="&#x2018;" horiz-adv-x="269" 
d="M196 678l18 -38q-39 -11 -73 -39t-34 -66q0 -25 21 -31q20 5 23 5q20 0 34 -11.5t14 -29.5q0 -17 -13.5 -29t-34.5 -12q-37 0 -64 26.5t-27 66.5q0 111 136 158z" />
    <glyph glyph-name="quoteright" unicode="&#x2019;" horiz-adv-x="271" 
d="M80 417l-18 38q39 11 73 39t34 66q0 24 -20 31q-20 -5 -24 -5q-20 0 -34 11.5t-14 29.5q0 17 14 29t34 12q37 0 64 -26.5t27 -66.5q0 -112 -136 -158z" />
    <glyph glyph-name="quotesinglbase" unicode="&#x201a;" horiz-adv-x="301" 
d="M92 -162l-18 38q40 13 73 40.5t33 65.5q0 23 -20 30q-16 -4 -24 -4q-20 0 -33.5 11.5t-13.5 28.5q0 18 13.5 30t33.5 12q38 0 65 -26.5t27 -66.5q0 -110 -136 -159z" />
    <glyph glyph-name="quotedblleft" unicode="&#x201c;" horiz-adv-x="494" 
d="M421 678l18 -38q-39 -11 -73 -39t-34 -66q0 -24 20 -31q20 5 24 5q20 0 34 -11.5t14 -29.5q0 -17 -13.5 -29t-34.5 -12q-37 0 -64 26.5t-27 66.5q0 111 136 158zM196 678l18 -38q-39 -11 -73 -39t-34 -66q0 -25 21 -31q20 5 23 5q20 0 34 -11.5t14 -29.5q0 -17 -13.5 -29
t-34.5 -12q-37 0 -64 26.5t-27 66.5q0 111 136 158z" />
    <glyph glyph-name="quotedblright" unicode="&#x201d;" horiz-adv-x="496" 
d="M80 417l-18 38q39 11 73 39t34 66q0 24 -20 31q-20 -5 -24 -5q-20 0 -34 11.5t-14 29.5q0 17 14 29t34 12q37 0 64 -26.5t27 -66.5q0 -112 -136 -158zM305 417l-18 38q39 11 73 39t34 66q0 24 -20 31q-20 -5 -24 -5q-20 0 -34 11.5t-14 29.5q0 17 13.5 29t34.5 12
q37 0 64 -26.5t27 -66.5q0 -111 -136 -158z" />
    <glyph glyph-name="quotedblbase" unicode="&#x201e;" horiz-adv-x="526" 
d="M92 -162l-18 38q40 13 73 40.5t33 65.5q0 23 -20 30q-16 -4 -24 -4q-20 0 -33.5 11.5t-13.5 28.5q0 18 13.5 30t33.5 12q38 0 65 -26.5t27 -66.5q0 -110 -136 -159zM317 -162l-19 38q40 12 73.5 40t33.5 66q0 23 -20 30q-16 -4 -24 -4q-20 0 -33.5 11.5t-13.5 28.5
q0 18 13.5 30t33.5 12q38 0 65 -26.5t27 -66.5q0 -110 -136 -159z" />
    <glyph glyph-name="dagger" unicode="&#x2020;" horiz-adv-x="506" 
d="M453 522v-50h-172v-392h-56v392h-172v50h172v178h56v-178h172z" />
    <glyph glyph-name="daggerdbl" unicode="&#x2021;" horiz-adv-x="532" 
d="M238 80v183h-172v50h172v159h-172v50h172v178h56v-178h172v-50h-172v-159h172v-50h-172v-183h-56z" />
    <glyph glyph-name="bullet" unicode="&#x2022;" horiz-adv-x="441" 
d="M221 147q-65 0 -110.5 43.5t-45.5 104.5t45.5 104.5t110.5 43.5q64 0 109.5 -43.5t45.5 -104.5t-45.5 -104.5t-109.5 -43.5z" />
    <glyph glyph-name="ellipsis" unicode="&#x2026;" horiz-adv-x="1000" 
d="M126 40q0 20 16 35t39 15t38.5 -14.5t15.5 -35.5t-15.5 -35.5t-38.5 -14.5t-39 14.5t-16 35.5zM445 40q0 21 15.5 35.5t38.5 14.5t39 -15t16 -35q0 -21 -16 -35.5t-39 -14.5t-38.5 14.5t-15.5 35.5zM764 40q0 21 15.5 35.5t38.5 14.5t39 -15t16 -35q0 -21 -16 -35.5
t-39 -14.5t-38.5 14.5t-15.5 35.5z" />
    <glyph glyph-name="perthousand" unicode="&#x2030;" horiz-adv-x="1442" 
d="M59 425q0 69 54.5 118t132.5 49q77 0 133 -49.5t56 -117.5q0 -69 -56 -118.5t-133 -49.5q-78 0 -132.5 49.5t-54.5 118.5zM709 580l-344 -580h-54l344 580h54zM117 425q0 -48 37.5 -82t91.5 -34t93 34t39 82t-39 82t-93 34t-91.5 -34t-37.5 -82zM585 156q0 68 55 117.5
t132 49.5q78 0 134 -49.5t56 -117.5q0 -70 -56 -119t-134 -49q-77 0 -132 49t-55 119zM643 156q0 -48 37.5 -82.5t91.5 -34.5t93 34.5t39 82.5q0 47 -39 81t-93 34t-91.5 -34t-37.5 -81zM1011 156q0 68 55 117.5t132 49.5q78 0 134 -49.5t56 -117.5q0 -70 -56 -119t-134 -49
q-77 0 -132 49t-55 119zM1069 156q0 -48 38 -82.5t91 -34.5q54 0 93 34.5t39 82.5q0 47 -39 81t-93 34q-53 0 -91 -34t-38 -81z" />
    <glyph glyph-name="guilsinglleft" unicode="&#x2039;" horiz-adv-x="320" 
d="M166 381h75l-121 -136v-8l121 -135h-75l-108 122v34z" />
    <glyph glyph-name="guilsinglright" unicode="&#x203a;" horiz-adv-x="320" 
d="M79 381h74l108 -123v-34l-108 -122h-74l121 135v8z" />
    <glyph glyph-name="fraction" unicode="&#x2044;" horiz-adv-x="220" 
d="M323 653l-370 -653h-54l371 653h53z" />
    <glyph glyph-name="zero.superior" unicode="&#x2070;" horiz-adv-x="579" 
d="M42 437q0 95 72.5 161.5t173.5 66.5q102 0 175.5 -66.5t73.5 -161.5t-73 -162t-176 -67q-101 0 -173.5 67t-72.5 162zM101 437q0 -73 55 -125t132 -52q78 0 134.5 52t56.5 125t-56.5 124.5t-134.5 51.5q-77 0 -132 -51.5t-55 -124.5z" />
    <glyph glyph-name="four.superior" unicode="&#x2074;" horiz-adv-x="561" 
d="M528 371v-48h-89v-103h-59v103h-352v43l355 287h56v-282h89zM115 373v-2h265v207h-8z" />
    <glyph glyph-name="five.superior" unicode="&#x2075;" horiz-adv-x="516" 
d="M433 653v-52h-303v-130q70 40 151 40q82 0 140.5 -36t58.5 -106q0 -81 -66.5 -121t-160.5 -40q-122 0 -217 61l31 47q80 -56 186 -56q69 0 118.5 27t49.5 82q0 46 -41 69t-100 23q-85 0 -166 -47l-38 28v211h357z" />
    <glyph glyph-name="six.superior" unicode="&#x2076;" horiz-adv-x="530" 
d="M467 610l-36 -41q-55 44 -137 44q-79 0 -137 -48t-60 -128q96 65 205 65q91 0 140.5 -42t49.5 -96q0 -65 -58.5 -110.5t-147.5 -45.5q-100 0 -171.5 59t-71.5 162q0 108 73.5 172t178.5 64q100 0 172 -55zM298 455q-94 0 -198 -62q13 -63 65.5 -98t121.5 -35
q62 0 104 31.5t42 73.5q0 35 -34.5 62.5t-100.5 27.5z" />
    <glyph glyph-name="seven.superior" unicode="&#x2077;" horiz-adv-x="466" 
d="M31 601v52h405v-52l-258 -381h-77l268 381h-338z" />
    <glyph glyph-name="eight.superior" unicode="&#x2078;" horiz-adv-x="530" 
d="M265 207q-90 0 -157.5 37t-67.5 100q0 48 38 78t92 38q-98 14 -98 91q0 55 60 85t133 30t133 -30t60 -85q0 -77 -99 -91q55 -8 93 -38t38 -78q0 -63 -68 -100t-157 -37zM265 259q63 0 112 24.5t49 65.5q0 42 -50 64.5t-111 22.5t-111 -22.5t-50 -64.5q0 -41 49 -65.5
t112 -24.5zM265 480q130 0 130 66q0 34 -40.5 53.5t-89.5 19.5t-89 -19.5t-40 -53.5q0 -66 129 -66z" />
    <glyph glyph-name="nine.superior" unicode="&#x2079;" horiz-adv-x="530" 
d="M62 263l36 41q57 -44 138 -44q79 0 136.5 47.5t60.5 128.5q-99 -65 -206 -65q-91 0 -140 42t-49 96q0 65 58.5 110.5t147.5 45.5q100 0 171 -58.5t71 -162.5q0 -108 -73.5 -172t-177.5 -64q-97 0 -173 55zM233 418q94 0 196 62q-13 64 -65 98.5t-122 34.5
q-62 0 -103.5 -32t-41.5 -74q0 -34 34.5 -61.5t101.5 -27.5z" />
    <glyph glyph-name="parenleft.superior" unicode="&#x207d;" horiz-adv-x="265" 
d="M252 138l-30 -36q-86 43 -134.5 125t-48.5 179q0 98 48.5 180t134.5 125l30 -36q-71 -36 -112.5 -110t-41.5 -159t41.5 -158t112.5 -110z" />
    <glyph glyph-name="parenright.superior" unicode="&#x207e;" horiz-adv-x="265" 
d="M13 675l30 36q86 -43 134.5 -125t48.5 -180q0 -97 -48.5 -179t-134.5 -125l-30 36q71 37 112.5 110t41.5 158t-41.5 159t-112.5 110z" />
    <glyph glyph-name="n.superior" unicode="&#x207f;" horiz-adv-x="461" 
d="M126 220h-54v254q0 48 -10 84h49q6 -16 10 -53q59 63 137 63q59 0 98 -33.5t39 -85.5v-229h-54v229q0 31 -26 52t-66 21q-64 0 -123 -59v-243z" />
    <glyph glyph-name="zero.inferior" unicode="&#x2080;" horiz-adv-x="578" 
d="M41 49q0 95 73 161.5t174 66.5q102 0 175.5 -66.5t73.5 -161.5t-73 -162t-176 -67q-101 0 -174 67t-73 162zM100 49q0 -73 55 -125t133 -52t134 52t56 125t-56 124.5t-134 51.5t-133 -51.5t-55 -124.5z" />
    <glyph glyph-name="one.inferior" unicode="&#x2081;" horiz-adv-x="301" 
d="M20 159l-13 47l141 59h59v-433h-59v380z" />
    <glyph glyph-name="two.inferior" unicode="&#x2082;" horiz-adv-x="476" 
d="M88 162l-34 41q33 24 54 37t59.5 25t80.5 12q75 0 128.5 -31t53.5 -89q0 -14 -4 -27t-8.5 -23t-15 -19.5t-17.5 -16t-22.5 -14t-22.5 -11t-26 -9.5t-24 -7.5t-24.5 -6.5t-21.5 -6q-66 -18 -103.5 -47.5t-37.5 -81.5v-9h320v-47h-379v51q0 135 197 186q1 0 13 3l16 4t16 5
t18 6.5t16.5 7t16 8.5t13.5 10.5t11.5 12.5t6.5 14t3 17q0 34 -36 51t-85 17q-50 0 -86 -16t-76 -47z" />
    <glyph glyph-name="three.inferior" unicode="&#x2083;" horiz-adv-x="542" 
d="M248 38v47h87q24 0 47 18t23 47q0 37 -38 56t-85 19q-92 0 -173 -72l-36 36q102 88 210 88q42 0 81 -11t69.5 -39t30.5 -68q0 -33 -18.5 -56.5t-41.5 -32.5q36 -7 66.5 -32.5t30.5 -72.5q0 -68 -66.5 -106.5t-167.5 -38.5q-143 0 -237 87l36 41q85 -76 201 -76
q75 0 125.5 26t50.5 70q0 26 -20 43t-41.5 22t-41.5 5h-92z" />
    <glyph glyph-name="four.inferior" unicode="&#x2084;" horiz-adv-x="559" 
d="M528 -17v-48h-89v-103h-59v103h-352v43l355 287h56v-282h89zM115 -15v-2h265v207h-8z" />
    <glyph glyph-name="five.inferior" unicode="&#x2085;" horiz-adv-x="516" 
d="M433 265v-52h-303v-130q70 40 151 40q82 0 140.5 -36t58.5 -106q0 -81 -66.5 -121t-160.5 -40q-122 0 -217 61l31 47q80 -56 186 -56q69 0 118.5 27t49.5 82q0 46 -41 69t-100 23q-85 0 -166 -47l-38 28v211h357z" />
    <glyph glyph-name="six.inferior" unicode="&#x2086;" horiz-adv-x="529" 
d="M467 222l-36 -41q-55 44 -138 44q-79 0 -136.5 -48t-59.5 -128q96 65 205 65q91 0 140.5 -42t49.5 -96q0 -65 -58.5 -110.5t-147.5 -45.5q-100 0 -171.5 59t-71.5 162q0 108 73.5 172t178.5 64q100 0 172 -55zM298 67q-94 0 -198 -62q13 -64 65 -98.5t122 -34.5
q62 0 104 31.5t42 73.5q0 35 -34.5 62.5t-100.5 27.5z" />
    <glyph glyph-name="seven.inferior" unicode="&#x2087;" horiz-adv-x="464" 
d="M31 213v52h405v-52l-258 -381h-77l268 381h-338z" />
    <glyph glyph-name="eight.inferior" unicode="&#x2088;" horiz-adv-x="530" 
d="M265 -181q-90 0 -157.5 37t-67.5 100q0 48 38 78t92 38q-98 14 -98 91q0 55 60 85t133 30t133 -30t60 -85q0 -77 -99 -91q55 -8 93 -38t38 -78q0 -63 -68 -100t-157 -37zM265 -129q63 0 112 24.5t49 65.5q0 42 -50 64.5t-111 22.5t-111 -22.5t-50 -64.5q0 -41 49 -65.5
t112 -24.5zM265 92q130 0 130 66q0 34 -40.5 53.5t-89.5 19.5t-89 -19.5t-40 -53.5q0 -66 129 -66z" />
    <glyph glyph-name="nine.inferior" unicode="&#x2089;" horiz-adv-x="529" 
d="M62 -125l36 41q57 -44 138 -44q79 0 136.5 48t60.5 128q-99 -65 -206 -65q-91 0 -140 42t-49 96q0 65 58.5 110.5t147.5 45.5q100 0 171 -58.5t71 -162.5q0 -108 -73.5 -172t-177.5 -64q-97 0 -173 55zM233 30q94 0 196 62q-13 64 -65 98.5t-122 34.5q-62 0 -103.5 -32
t-41.5 -74q0 -34 34.5 -61.5t101.5 -27.5z" />
    <glyph glyph-name="Euro" unicode="&#x20ac;" horiz-adv-x="778" 
d="M62 317v43h93q30 87 111 143t182 56q149 0 249 -87l-41 -46q-86 74 -208 74q-73 0 -133.5 -39t-87.5 -101h300v-43h-314q-5 -25 -5 -45q0 -19 3 -37h316v-43h-304q27 -65 88 -106t137 -41q127 0 216 82l41 -47q-110 -95 -257 -95q-104 0 -185.5 58.5t-109.5 148.5h-91v43
h82q-3 18 -3 37q0 25 4 45h-83z" />
    <glyph glyph-name="litre" unicode="&#x2113;" horiz-adv-x="519" 
d="M71 113l-17 45l96 57v215q0 202 146 202q71 0 112.5 -43t41.5 -112q0 -137 -197 -254l-41 -25v-76q0 -81 87 -81q48 0 110 29l12 -48q-63 -35 -124 -35q-147 0 -147 135v38zM212 430v-177l35 21q68 43 105 95t37 103q0 49 -24.5 77.5t-67.5 28.5q-38 0 -61.5 -31.5
t-23.5 -116.5z" />
    <glyph glyph-name="soundrecordingcopyright" unicode="&#x2117;" horiz-adv-x="999" 
d="M942 271q0 -169 -130 -288t-313 -119t-312.5 119t-129.5 288t129.5 287.5t312.5 118.5t313 -118.5t130 -287.5zM891 272q0 150 -115.5 256t-276.5 106q-162 0 -276.5 -106.5t-114.5 -255.5q0 -150 114.5 -257t276.5 -107q161 0 276.5 107t115.5 257zM576 209h-181v-122
h-57v385h208q32 0 61 -5t58.5 -18t47.5 -40t18 -65q0 -65 -46.5 -100t-108.5 -35zM395 423v-165h181q39 0 68.5 21.5t29.5 63.5q0 44 -34.5 62t-79.5 18h-165z" />
    <glyph glyph-name="trademark" unicode="&#x2122;" horiz-adv-x="855" 
d="M763 326h-46v247h-3l-116 -194h-9l-116 194h-3v-247h-43v327h48l120 -203h1l120 203h47v-327zM55 615v38h278v-38h-116v-289h-46v289h-116z" />
    <glyph glyph-name="estimated" unicode="&#x212e;" horiz-adv-x="809" 
d="M199 447v-122q0 -6 6 -6h407q8 0 8 6v122q0 9 -6 21q-67 97 -203 97q-56 0 -117.5 -28t-87.5 -69q-7 -11 -7 -21zM703 128q-54 -73 -130.5 -109.5t-161.5 -36.5q-134 0 -239 89t-104 221q0 91 50.5 163t128.5 109t164 37q141 0 240.5 -87t99.5 -231h-546q-6 0 -6 -8v-133
q0 -19 7 -28q89 -96 205 -96q130 0 220 110h72z" />
    <glyph glyph-name="onethird" unicode="&#x2153;" horiz-adv-x="1063" 
d="M20 547l-13 47l141 59h59v-433h-59v380zM624 653l-370 -653h-54l371 653h53zM769 206v47h87q24 0 47 18t23 47q0 37 -38 56t-85 19q-92 0 -173 -72l-36 36q102 88 210 88q42 0 81 -11t69.5 -39t30.5 -68q0 -33 -18.5 -56.5t-41.5 -32.5q36 -7 66.5 -32.5t30.5 -72.5
q0 -68 -66.5 -106.5t-167.5 -38.5q-143 0 -237 87l36 41q85 -76 201 -76q75 0 125.5 26t50.5 70q0 26 -20 43t-41.5 22t-41.5 5h-92z" />
    <glyph glyph-name="twothirds" unicode="&#x2154;" horiz-adv-x="1238" 
d="M88 550l-34 41q33 24 54 37t59.5 25t80.5 12q75 0 128.5 -31t53.5 -89q0 -14 -4 -27t-8.5 -23t-15 -19.5t-17.5 -16t-22.5 -14t-22.5 -11t-26 -9.5t-24 -7.5t-24.5 -6.5t-21.5 -6q-66 -18 -103.5 -47.5t-37.5 -81.5v-9h320v-47h-379v51q0 135 197 186q1 0 13 3l16 4t16 5
t18 6.5t16.5 7t16 8.5t13.5 10.5t11.5 12.5t6.5 14t3 17q0 34 -36 51t-85 17q-50 0 -86 -16t-76 -47zM799 653l-370 -653h-54l371 653h53zM944 206v47h87q24 0 47 18t23 47q0 37 -38 56t-85 19q-92 0 -173 -72l-36 36q102 88 210 88q42 0 81 -11t69.5 -39t30.5 -68
q0 -33 -18.5 -56.5t-41.5 -32.5q36 -7 66.5 -32.5t30.5 -72.5q0 -68 -66.5 -106.5t-167.5 -38.5q-143 0 -237 87l36 41q85 -76 201 -76q75 0 125.5 26t50.5 70q0 26 -20 43t-41.5 22t-41.5 5h-92z" />
    <glyph glyph-name="oneeighth" unicode="&#x215b;" horiz-adv-x="1051" 
d="M20 547l-13 47l141 59h59v-433h-59v380zM624 653l-370 -653h-54l371 653h53zM786 -13q-90 0 -157.5 37t-67.5 100q0 48 38 78t92 38q-98 14 -98 91q0 55 60 85t133 30t133 -30t60 -85q0 -77 -99 -91q55 -8 93 -38t38 -78q0 -63 -68 -100t-157 -37zM786 39q63 0 112 24.5
t49 65.5q0 42 -50 64.5t-111 22.5t-111 -22.5t-50 -64.5q0 -41 49 -65.5t112 -24.5zM786 260q130 0 130 66q0 34 -40.5 53.5t-89.5 19.5t-89 -19.5t-40 -53.5q0 -66 129 -66z" />
    <glyph glyph-name="threeeighths" unicode="&#x215c;" horiz-adv-x="1293" 
d="M249 426v47h87q24 0 47 18t23 47q0 37 -38 56t-85 19q-91 0 -174 -72l-35 36q100 88 210 88q42 0 81 -11t69.5 -39t30.5 -68q0 -33 -18.5 -56.5t-41.5 -32.5q36 -7 66.5 -32.5t30.5 -72.5q0 -68 -66.5 -106.5t-168.5 -38.5q-142 0 -236 87l36 41q83 -76 200 -76
q76 0 126 26t50 70q0 26 -20 43t-41 22t-42 5h-91zM866 653l-370 -653h-54l371 653h53zM1028 -13q-90 0 -157.5 37t-67.5 100q0 48 38 78t92 38q-98 14 -98 91q0 55 60 85t133 30t133 -30t60 -85q0 -77 -99 -91q55 -8 93 -38t38 -78q0 -63 -68 -100t-157 -37zM1028 39
q63 0 112 24.5t49 65.5q0 42 -50 64.5t-111 22.5t-111 -22.5t-50 -64.5q0 -41 49 -65.5t112 -24.5zM1028 260q130 0 130 66q0 34 -40.5 53.5t-89.5 19.5t-89 -19.5t-40 -53.5q0 -66 129 -66z" />
    <glyph glyph-name="fiveeighths" unicode="&#x215d;" horiz-adv-x="1266" 
d="M433 653v-52h-303v-130q70 40 151 40q82 0 140.5 -36t58.5 -106q0 -81 -66.5 -121t-160.5 -40q-122 0 -217 61l31 47q80 -56 186 -56q69 0 118.5 27t49.5 82q0 46 -41 69t-100 23q-85 0 -166 -47l-38 28v211h357zM839 653l-370 -653h-54l371 653h53zM1001 -13
q-90 0 -157.5 37t-67.5 100q0 48 38 78t92 38q-98 14 -98 91q0 55 60 85t133 30t133 -30t60 -85q0 -77 -99 -91q55 -8 93 -38t38 -78q0 -63 -68 -100t-157 -37zM1001 39q63 0 112 24.5t49 65.5q0 42 -50 64.5t-111 22.5t-111 -22.5t-50 -64.5q0 -41 49 -65.5t112 -24.5z
M1001 260q130 0 130 66q0 34 -40.5 53.5t-89.5 19.5t-89 -19.5t-40 -53.5q0 -66 129 -66z" />
    <glyph glyph-name="seveneighths" unicode="&#x215e;" horiz-adv-x="1149" 
d="M31 601v52h405v-52l-258 -381h-77l268 381h-338zM722 653l-370 -653h-54l371 653h53zM884 -13q-90 0 -157.5 37t-67.5 100q0 48 38 78t92 38q-98 14 -98 91q0 55 60 85t133 30t133 -30t60 -85q0 -77 -99 -91q55 -8 93 -38t38 -78q0 -63 -68 -100t-157 -37zM884 39
q63 0 112 24.5t49 65.5q0 42 -50 64.5t-111 22.5t-111 -22.5t-50 -64.5q0 -41 49 -65.5t112 -24.5zM884 260q130 0 130 66q0 34 -40.5 53.5t-89.5 19.5t-89 -19.5t-40 -53.5q0 -66 129 -66z" />
    <glyph glyph-name="partialdiff" unicode="&#x2202;" horiz-adv-x="628" 
d="M287 455q125 0 200 -119v14q0 43 -12 82.5t-40.5 79t-86 63.5t-138.5 24v55q343 0 343 -348q0 -162 -69 -241.5t-183 -79.5q-102 0 -172.5 61t-70.5 173t68.5 174t160.5 62zM298 35q82 0 134 56.5t59 170.5q-78 143 -199 143q-72 0 -122.5 -48.5t-50.5 -137.5t51 -136.5
t128 -47.5z" />
    <glyph glyph-name="product" unicode="&#x220f;" horiz-adv-x="787" 
d="M51 593v60h686v-60h-119v-700h-67v700h-316v-700h-67v700h-117z" />
    <glyph glyph-name="summation" unicode="&#x2211;" horiz-adv-x="687" 
d="M630 653v-60h-468l357 -298v-42l-357 -301h468v-59h-581v43l400 335v6l-400 333v43h581z" />
    <glyph glyph-name="minus" unicode="&#x2212;" 
d="M84 225v55h537v-55h-537z" />
    <glyph glyph-name="radical" unicode="&#x221a;" horiz-adv-x="692" 
d="M36 460h169l142 -371l246 665h63l-288 -754h-45l-161 410h-126v50z" />
    <glyph glyph-name="infinity" unicode="&#x221e;" horiz-adv-x="1032" 
d="M261 446h12q81 0 161 -75l82 -79l82 79q81 75 160 75h12q81 0 136.5 -53.5t55.5 -124.5v-30q0 -71 -55.5 -124t-136.5 -53h-12q-78 0 -160 74l-82 77l-82 -78q-81 -73 -161 -73h-12q-81 0 -135.5 53t-54.5 124v30q0 71 54.5 124.5t135.5 53.5zM640 335l-87 -82l87 -81
q59 -58 118 -58h12q56 0 94.5 37.5t38.5 86.5v30q0 50 -38 87t-95 37h-12q-58 0 -118 -57zM129 268v-30q0 -49 38 -86.5t94 -37.5h12q59 0 119 58l85 81l-85 82q-61 57 -119 57h-12q-56 0 -94 -37t-38 -87z" />
    <glyph glyph-name="integral" unicode="&#x222b;" horiz-adv-x="396" 
d="M345 723v-55h-54q-29 0 -44.5 -19.5t-15.5 -48.5v-679q0 -46 -33 -77t-94 -31h-49v55h54q29 0 44.5 19.5t15.5 48.5v679q0 45 26.5 76.5t75.5 31.5h74z" />
    <glyph glyph-name="approxequal" unicode="&#x2248;" 
d="M84 90v57q75 56 147 56q58 0 120 -37q63 -38 115 -38q78 0 155 60v-58q-74 -58 -155 -58q-60 0 -120 37q-62 39 -116 39q-74 0 -146 -58zM84 333v57q74 55 147 55q58 0 120 -37q63 -38 115 -38q79 0 155 61v-58q-74 -58 -155 -58q-60 0 -120 37q-64 38 -116 38
q-73 0 -146 -57z" />
    <glyph glyph-name="notequal" unicode="&#x2260;" 
d="M84 346v56h321l67 109h62l-67 -109h154v-56h-188l-114 -186h302v-56h-337l-67 -110h-62l67 110h-138v56h173l114 186h-287z" />
    <glyph glyph-name="lessequal" unicode="&#x2264;" 
d="M84 0v56h537v-56h-537zM621 547v-63l-460 -157v-8l460 -156v-63l-537 191v64z" />
    <glyph glyph-name="greaterequal" unicode="&#x2265;" 
d="M621 56v-56h-537v56h537zM84 484v63l537 -192v-64l-537 -191v63l461 156v8z" />
    <glyph glyph-name="lozenge" unicode="&#x25ca;" horiz-adv-x="651" 
d="M306 653h39l255 -305v-41l-255 -307h-39l-255 307v41zM325 585l-212 -256v-3l212 -258h1l212 257v4l-212 256h-1z" />
    <glyph glyph-name="sweetfonts.com" unicode="&#xf8ff;" horiz-adv-x="1000" 
d="M343 424q0 65 46 111t111 46t111 -46t46 -111t-46 -111t-111 -46t-111 46t-46 111zM706 428l237 137q8 6 8 -4v-274q0 -10 -8 -4l-237 137q-6 4 0 8zM49 287v274q0 10 8 4l237 -137q8 -4 0 -8l-237 -137q-8 -6 -8 4zM878 0v116h-57v20h138v-20h-57v-116h-24zM659 0v136
h117v-20h-93v-32h62v-20h-62v-44h99v-20h-123zM472 0v136h117v-20h-93v-32h62v-20h-62v-44h99v-20h-123zM268 0l-47 136h25l30 -99h2l34 99h15l33 -99h2l32 99h23l-49 -136h-16l-33 97h-2l-33 -97h-16zM37 22l12 15q32 -21 61 -21q49 0 49 24q0 6 -3.5 10.5t-10 6t-14 2.5
t-16.5 1h-3q-69 2 -69 37q0 17 15.5 29t44.5 12q37 0 69 -18l-12 -16q-24 15 -57 15q-38 0 -38 -21q0 -14 47 -16q33 -1 51 -9.5t18 -31.5q0 -21 -20 -32.5t-51 -11.5q-41 0 -73 25z" />
    <glyph glyph-name="dollar.superior" horiz-adv-x="504" 
d="M234 738h40v-75q101 -12 170 -64l-34 -39q-50 44 -136 53v-136q36 -2 64 -7t60.5 -17.5t50.5 -38.5t18 -65q0 -70 -54.5 -105t-138.5 -36v-94h-40v95q-115 10 -201 88l34 38q73 -67 167 -76v167q-39 3 -66 7.5t-55 16t-42 33.5t-14 54q0 67 53 97.5t124 30.5v73zM411 342
q0 30 -20.5 47.5t-47 23.5t-69.5 10v-166q60 1 98.5 22.5t38.5 62.5zM113 542q0 -56 121 -63v137h-1q-51 0 -85.5 -17.5t-34.5 -56.5z" />
    <glyph glyph-name="cent.superior" horiz-adv-x="419" 
d="M250 631h41l-17 -77q57 -10 102 -48l-36 -36q-33 26 -76 37l-53 -249h12q67 0 119 50l37 -34q-17 -21 -58 -42.5t-98 -21.5q-15 0 -22 1l-20 -97h-40l22 104q-57 17 -92 61.5t-35 107.5q0 77 52.5 125t129.5 48q11 0 17 -1zM95 387q0 -89 78 -120l52 246h-7
q-52 0 -87.5 -35t-35.5 -91z" />
    <glyph glyph-name="Euro.superior" horiz-adv-x="569" 
d="M38 471v37h71q24 69 85 113t137 44q114 0 189 -69l-36 -41q-63 58 -153 58q-52 0 -95 -29t-64 -76h219v-37h-231q-3 -17 -3 -34q0 -10 2 -30h232v-37h-221q20 -49 63.5 -79.5t97.5 -30.5q93 0 160 65l36 -41q-82 -76 -196 -76q-78 0 -139.5 45.5t-83.5 116.5h-70v37h62
q-2 10 -2 30q0 12 2 34h-62z" />
    <glyph glyph-name="sterling.superior" horiz-adv-x="522" 
d="M42 430v43h103v64q0 62 49 95t115 33q76 0 169 -54l-29 -41q-81 43 -140 43q-43 0 -74 -19.5t-31 -56.5v-64h191v-43h-191v-74q0 -41 -13.5 -61t-45.5 -28h332v-47h-435v47h28q43 0 59 18t16 71v74h-103z" />
    <glyph glyph-name="yen.superior" horiz-adv-x="550" 
d="M44 471v37h134l-116 145h74l141 -178l141 178h69l-115 -145h135v-37h-164l-38 -48v-16h202v-37h-202v-150h-59v150h-202v37h202v16l-39 48h-163z" />
    <glyph glyph-name="numbersign.superior" horiz-adv-x="645" 
d="M439 690h44l-25 -141h151v-42h-158l-27 -156h144v-42h-152l-28 -162h-45l28 162h-141l-28 -162h-45l28 162h-150v42h158l27 156h-143v42h151l25 141h44l-25 -141h142zM265 507l-27 -156h141l27 156h-141z" />
    <glyph glyph-name="percent.superior" horiz-adv-x="762" 
d="M35 559q0 54 41.5 93.5t100.5 39.5q58 0 101 -39.5t43 -93.5q0 -55 -42.5 -94.5t-101.5 -39.5t-100.5 39t-41.5 95zM536 681l-262 -461h-47l261 461h48zM86 559q0 -36 27 -62.5t64 -26.5q38 0 66 26.5t28 62.5q0 35 -28 61t-66 26q-37 0 -64 -26t-27 -61zM441 343
q0 54 41.5 93.5t100.5 39.5t101.5 -39.5t42.5 -93.5q0 -55 -42 -94t-102 -39q-59 0 -100.5 39t-41.5 94zM492 343q0 -36 27 -62t64 -26q38 0 66 26t28 62t-28 61.5t-66 25.5t-64.5 -25.5t-26.5 -61.5z" />
    <glyph glyph-name="period.superior" horiz-adv-x="227" 
d="M68 252q0 17 13.5 29.5t32.5 12.5t32 -12.5t13 -29.5t-13 -29t-32 -12t-32.5 12t-13.5 29z" />
    <glyph glyph-name="comma.superior" horiz-adv-x="244" 
d="M71 92l-16 35q57 17 73 56q8 25 -3 39q-4 -2 -13 -2q-17 0 -29.5 10.5t-12.5 26.5q0 15 12 26t30 11q29 0 50 -21.5t21 -53.5q0 -89 -112 -127z" />
    <glyph glyph-name="hyphen.superior" horiz-adv-x="301" 
d="M59 367v53h182v-53h-182z" />
    <glyph glyph-name="zero.pl" horiz-adv-x="838" 
d="M70 307q0 133 102.5 227t245.5 94q144 0 247 -94t103 -227q0 -134 -103 -228.5t-247 -94.5q-143 0 -245.5 94.5t-102.5 228.5zM137 307q0 -109 82.5 -186t198.5 -77q117 0 200 77t83 186q0 108 -83.5 185t-199.5 77t-198.5 -77t-82.5 -185z" />
    <glyph glyph-name="one.pl" horiz-adv-x="429" 
d="M34 474l-15 54l205 85h67v-613h-67v552z" />
    <glyph glyph-name="two.pl" horiz-adv-x="691" 
d="M129 480l-39 46q45 33 75.5 51t83 34.5t111.5 16.5q105 0 180.5 -43t75.5 -124q0 -22 -5 -41t-17 -34.5t-23 -27.5t-32 -23.5t-34 -18.5t-39.5 -15.5t-37.5 -12t-39.5 -11t-34.5 -9.5q-100 -28 -158 -73.5t-58 -125.5v-15h469v-54h-536v63q0 191 279 263q2 1 30.5 8
t38.5 10.5t35.5 12.5t37.5 18t28 21.5t22.5 28.5t6.5 35q0 54 -55 81.5t-132 27.5q-72 0 -124.5 -23t-108.5 -66z" />
    <glyph glyph-name="three.pl" horiz-adv-x="787" 
d="M364 299v54h123q36 0 73.5 27t37.5 73q0 39 -31 66.5t-72 38.5t-85 11q-131 0 -253 -103l-41 41q143 121 295 121q59 0 114 -15.5t97.5 -54t42.5 -94.5q0 -49 -29 -82.5t-65 -45.5q24 -4 46.5 -13.5t47 -26.5t39.5 -45.5t15 -64.5q0 -94 -94 -148t-238 -54
q-197 0 -333 120l41 47q121 -107 293 -107q114 0 189 39t75 107q0 31 -17.5 54t-44 34t-50.5 16t-44 5h-132z" />
    <glyph glyph-name="four.pl" horiz-adv-x="793" 
d="M742 204v-54h-127v-150h-67v150h-507v51l506 412h68v-409h127zM138 208v-4h410v325h-11q-92 -73 -399 -321z" />
    <glyph glyph-name="five.pl" horiz-adv-x="746" 
d="M621 613v-60h-442v-200q101 57 221 57q75 0 137 -19.5t104 -66t42 -113.5q0 -78 -48.5 -131t-117.5 -74.5t-152 -21.5q-172 0 -308 107l41 47q115 -94 267 -94q65 0 119.5 15.5t93 54.5t38.5 96q0 72 -63 108t-155 36q-118 0 -237 -65l-43 32v292h503z" />
    <glyph glyph-name="six.pl" horiz-adv-x="766" 
d="M662 549l-41 -47q-79 67 -198 67q-118 0 -202.5 -72.5t-86.5 -194.5q140 96 299 96q128 0 198 -59.5t70 -135.5q0 -91 -83 -155t-207 -64q-140 0 -239.5 83t-99.5 229q0 101 50 178t129.5 115.5t172.5 38.5q136 0 238 -79zM427 344q-140 0 -290 -92q16 -99 93.5 -153.5
t181.5 -54.5q94 0 158 48.5t64 111.5q0 54 -52.5 97t-154.5 43z" />
    <glyph glyph-name="seven.pl" horiz-adv-x="672" 
d="M48 553v60h568v-60l-372 -553h-87l382 553h-491z" />
    <glyph glyph-name="eight.pl" horiz-adv-x="764" 
d="M382 -18q-79 0 -150 22t-118 67.5t-47 104.5q0 68 57 110.5t139 54.5q-72 10 -110 42.5t-38 85.5q0 76 83 118.5t184 42.5t184 -42.5t83 -118.5q0 -108 -148 -128q82 -12 139 -54.5t57 -110.5q0 -87 -96 -140.5t-219 -53.5zM382 42q60 0 114.5 15.5t91.5 48t37 75.5
q0 63 -75 98t-168 35q-92 0 -167 -35t-75 -98q0 -43 37 -75.5t91 -48t114 -15.5zM382 365q93 0 144 25.5t51 73.5q0 53 -60.5 82.5t-134.5 29.5t-134 -29.5t-60 -82.5q0 -48 50.5 -73.5t143.5 -25.5z" />
    <glyph glyph-name="nine.pl" horiz-adv-x="764" 
d="M102 64l41 46q80 -66 198 -66q117 0 202 72t87 194q-144 -96 -298 -96q-129 0 -199 60t-70 136q0 91 83 154.5t207 63.5q140 0 239.5 -82.5t99.5 -228.5q0 -101 -50 -178t-129.5 -116t-172.5 -39q-131 0 -238 80zM337 268q140 0 289 93q-15 98 -92.5 153t-181.5 55
q-94 0 -158 -48.5t-64 -111.5q0 -54 53 -97.5t154 -43.5z" />
    <glyph glyph-name="dollar.pl" horiz-adv-x="698" 
d="M329 733h47v-108q140 -13 238 -89l-39 -45q-71 65 -199 78v-212q40 -2 71.5 -5.5t72 -15t67 -29t45.5 -50t19 -75.5q0 -96 -77.5 -145.5t-197.5 -51.5v-135h-47v137q-163 11 -286 122l39 44q108 -99 247 -111v256q-44 3 -75 7t-67 14.5t-57.5 26t-36.5 42.5t-15 63
q0 48 22.5 84t60.5 55.5t79.5 28.5t86.5 9h2v105zM588 174q0 35 -17.5 59t-50.5 36.5t-65.5 17.5t-78.5 8v-254q92 2 152 35.5t60 97.5zM141 457q0 -28 16.5 -48t48 -29.5t58.5 -14t65 -6.5v213h-4q-76 0 -130 -27.5t-54 -87.5z" />
    <glyph glyph-name="cent.pl" horiz-adv-x="588" 
d="M351 574h46l-23 -109q82 -17 143 -68l-41 -42q-49 42 -114 56l-78 -369q8 -1 24 -1q97 0 173 74l42 -39q-13 -16 -36.5 -34t-73.5 -36.5t-105 -18.5q-12 0 -36 2l-29 -139h-46l31 148q-79 23 -129 84.5t-50 148.5q0 107 73 174t180 67q4 0 13 -0.5t14 -0.5zM117 231
q0 -65 33.5 -112.5t89.5 -66.5l77 365q-5 1 -15 1q-78 0 -131.5 -52t-53.5 -135z" />
    <glyph glyph-name="Euro.pl" horiz-adv-x="817" 
d="M59 359v43h100q31 99 118 162.5t197 63.5q160 0 268 -98l-41 -46q-92 85 -227 85q-82 0 -148.5 -46.5t-96.5 -120.5h330v-43h-343q-5 -28 -5 -52q0 -26 4 -45h344v-43h-333q28 -77 96 -126t152 -49q137 0 236 94l41 -47q-117 -107 -277 -107q-112 0 -200 66t-118 169h-97
v43h88q-3 21 -3 45q0 29 4 52h-89z" />
    <glyph glyph-name="sterling.pl" horiz-adv-x="757" 
d="M67 304v49h152v96q0 87 68 133t161 46q47 0 112.5 -20.5t123.5 -54.5l-34 -47q-50 28 -106.5 45.5t-95.5 17.5q-66 0 -114 -31t-48 -89v-96h281v-49h-281v-118q0 -61 -18.5 -91t-61.5 -41h477v-54h-616v54h40q64 0 88 26t24 106v118h-152z" />
    <glyph glyph-name="yen.pl" horiz-adv-x="786" 
d="M72 359v43h198l-170 211h84l212 -263l211 263h79l-169 -211h198v-43h-233l-55 -69v-28h288v-43h-288v-219h-67v219h-288v43h288v28l-56 69h-232z" />
    <glyph glyph-name="florin.pl" horiz-adv-x="411" 
d="M53 353h114l27 125q17 77 69 114t110 37q31 0 63.5 -10.5t46.5 -23.5l-25 -50q-10 11 -36 20t-50 9q-40 0 -72 -24t-43 -72l-27 -125h138v-49h-148l-65 -304q-13 -61 -47 -101.5t-71.5 -56t-79.5 -15.5v49q112 13 136 124l64 304h-104v49z" />
    <glyph glyph-name="section.pl" horiz-adv-x="713" 
d="M618 103q-34 -34 -91 -53q13 -7 28 -24q16 -23 16 -56q0 -49 -35.5 -82.5t-82 -46t-98.5 -12.5q-122 0 -217 63l30 46q82 -55 187 -55q56 0 102.5 20.5t46.5 65.5q0 24 -13 37q-6 6 -14 10.5t-19 7.5t-20.5 5.5t-26 4.5t-26.5 3.5t-29.5 3.5t-29.5 3q-170 20 -237 83
q-47 47 -47 111q0 66 48 116q35 35 92 55q-16 9 -24 20q-19 23 -19 60q0 50 35.5 83t81.5 45.5t99 12.5q126 0 217 -63l-30 -45q-80 54 -187 54q-55 0 -102 -20t-47 -65q0 -25 15 -38q6 -6 14 -10.5t19 -7.5t20.5 -5.5t25.5 -4.5t25.5 -3.5t28.5 -3.5t29 -3q173 -18 240 -84
q45 -45 45 -110q0 -70 -50 -118zM382 357q-118 12 -158 26q-50 -17 -75 -43q-40 -42 -40 -94q0 -50 35 -81q49 -48 184 -63q123 -14 157 -26q47 15 75 42q41 41 41 95q1 47 -33 80q-48 49 -186 64z" />
    <glyph glyph-name="numbersign.pl" horiz-adv-x="910" 
d="M625 666h51l-36 -204h221v-49h-230l-41 -234h212v-49h-220l-41 -234h-51l41 234h-213l-41 -234h-52l41 234h-218v49h226l41 234h-208v49h217l36 204h52l-36 -204h213zM367 413l-41 -234h213l41 234h-213z" />
    <glyph glyph-name="percent.pl" horiz-adv-x="1068" 
d="M48 478q0 77 59 132.5t142 55.5t143.5 -55.5t60.5 -132.5q0 -78 -60.5 -133.5t-143.5 -55.5q-84 0 -142.5 55.5t-58.5 133.5zM746 653l-370 -653h-55l371 653h54zM107 478q0 -56 41.5 -96.5t100.5 -40.5q60 0 103 40.5t43 96.5t-43 96t-103 40q-59 0 -100.5 -40
t-41.5 -96zM614 176q0 77 59 132.5t142 55.5t143.5 -55.5t60.5 -132.5q0 -78 -60.5 -133.5t-143.5 -55.5q-84 0 -142.5 55.5t-58.5 133.5zM672 176q0 -56 42 -97t101 -41t102.5 41t43.5 97q0 55 -43.5 95.5t-102.5 40.5t-101 -40t-42 -96z" />
    <glyph glyph-name="perthousand.pl" horiz-adv-x="1522" 
d="M49 478q0 77 59 132.5t142 55.5t143.5 -55.5t60.5 -132.5q0 -78 -60.5 -133.5t-143.5 -55.5q-84 0 -142.5 55.5t-58.5 133.5zM746 653l-370 -653h-54l370 653h54zM107 478q0 -56 42 -96.5t101 -40.5t102.5 40.5t43.5 96.5t-43 96t-103 40q-59 0 -101 -40t-42 -96z
M615 176q0 77 59 132.5t142 55.5t143.5 -55.5t60.5 -132.5q0 -78 -60.5 -133.5t-143.5 -55.5q-84 0 -142.5 55.5t-58.5 133.5zM673 176q0 -57 41.5 -97.5t101.5 -40.5q59 0 102 41t43 97t-43 96t-102 40q-60 0 -101.5 -40t-41.5 -96zM1074 176q0 77 59 132.5t142 55.5
t143.5 -55.5t60.5 -132.5q0 -78 -60.5 -133.5t-143.5 -55.5q-84 0 -142.5 55.5t-58.5 133.5zM1132 176q0 -57 41.5 -97.5t101.5 -40.5q59 0 102 41t43 97t-43 96t-102 40q-60 0 -101.5 -40t-41.5 -96z" />
    <glyph glyph-name="zero.numerator" horiz-adv-x="578" 
d="M41 437q0 95 73 161.5t174 66.5q102 0 175.5 -66.5t73.5 -161.5t-73 -162t-176 -67q-101 0 -174 67t-73 162zM100 437q0 -73 55 -125t133 -52t134 52t56 125t-56 124.5t-134 51.5t-133 -51.5t-55 -124.5z" />
    <glyph glyph-name="one.numerator" horiz-adv-x="301" 
d="M20 547l-13 47l141 59h59v-433h-59v380z" />
    <glyph glyph-name="two.numerator" horiz-adv-x="476" 
d="M88 550l-34 41q33 24 54 37t59.5 25t80.5 12q75 0 128.5 -31t53.5 -89q0 -14 -4 -27t-8.5 -23t-15 -19.5t-17.5 -16t-22.5 -14t-22.5 -11t-26 -9.5t-24 -7.5t-24.5 -6.5t-21.5 -6q-66 -18 -103.5 -47.5t-37.5 -81.5v-9h320v-47h-379v51q0 135 197 186q1 0 13 3l16 4t16 5
t18 6.5t16.5 7t16 8.5t13.5 10.5t11.5 12.5t6.5 14t3 17q0 34 -36 51t-85 17q-50 0 -86 -16t-76 -47z" />
    <glyph glyph-name="three.numerator" horiz-adv-x="543" 
d="M249 426v47h87q24 0 47 18t23 47q0 37 -38 56t-85 19q-91 0 -174 -72l-35 36q100 88 210 88q42 0 81 -11t69.5 -39t30.5 -68q0 -33 -18.5 -56.5t-41.5 -32.5q36 -7 66.5 -32.5t30.5 -72.5q0 -68 -66.5 -106.5t-168.5 -38.5q-142 0 -236 87l36 41q83 -76 200 -76
q76 0 126 26t50 70q0 26 -20 43t-41 22t-42 5h-91z" />
    <glyph glyph-name="four.numerator" horiz-adv-x="559" 
d="M528 371v-48h-89v-103h-59v103h-352v43l355 287h56v-282h89zM115 373v-2h265v207h-8z" />
    <glyph glyph-name="five.numerator" horiz-adv-x="516" 
d="M433 653v-52h-303v-130q70 40 151 40q82 0 140.5 -36t58.5 -106q0 -81 -66.5 -121t-160.5 -40q-122 0 -217 61l31 47q80 -56 186 -56q69 0 118.5 27t49.5 82q0 46 -41 69t-100 23q-85 0 -166 -47l-38 28v211h357z" />
    <glyph glyph-name="six.numerator" horiz-adv-x="529" 
d="M467 610l-36 -41q-55 44 -138 44q-79 0 -136.5 -48t-59.5 -128q96 65 205 65q91 0 140.5 -42t49.5 -96q0 -65 -58.5 -110.5t-147.5 -45.5q-100 0 -171.5 59t-71.5 162q0 108 73.5 172t178.5 64q100 0 172 -55zM298 455q-94 0 -198 -62q13 -64 65 -98.5t122 -34.5
q62 0 104 31.5t42 73.5q0 35 -34.5 62.5t-100.5 27.5z" />
    <glyph glyph-name="seven.numerator" horiz-adv-x="464" 
d="M31 601v52h405v-52l-258 -381h-77l268 381h-338z" />
    <glyph glyph-name="eight.numerator" horiz-adv-x="530" 
d="M265 207q-90 0 -157.5 37t-67.5 100q0 48 38 78t92 38q-98 14 -98 91q0 55 60 85t133 30t133 -30t60 -85q0 -77 -99 -91q55 -8 93 -38t38 -78q0 -63 -68 -100t-157 -37zM265 259q63 0 112 24.5t49 65.5q0 42 -50 64.5t-111 22.5t-111 -22.5t-50 -64.5q0 -41 49 -65.5
t112 -24.5zM265 480q130 0 130 66q0 34 -40.5 53.5t-89.5 19.5t-89 -19.5t-40 -53.5q0 -66 129 -66z" />
    <glyph glyph-name="nine.numerator" horiz-adv-x="529" 
d="M62 263l36 41q57 -44 138 -44q79 0 136.5 47.5t60.5 128.5q-99 -65 -206 -65q-91 0 -140 42t-49 96q0 65 58.5 110.5t147.5 45.5q100 0 171 -58.5t71 -162.5q0 -108 -73.5 -172t-177.5 -64q-97 0 -173 55zM233 418q94 0 196 62q-13 64 -65 98.5t-122 34.5
q-62 0 -103.5 -32t-41.5 -74q0 -34 34.5 -61.5t101.5 -27.5z" />
    <glyph glyph-name="zero.denominator" horiz-adv-x="578" 
d="M41 217q0 95 73 161.5t174 66.5q102 0 175.5 -66.5t73.5 -161.5t-73 -162t-176 -67q-101 0 -174 67t-73 162zM100 217q0 -73 55 -125t133 -52t134 52t56 125t-56 124.5t-134 51.5t-133 -51.5t-55 -124.5z" />
    <glyph glyph-name="one.denominator" horiz-adv-x="301" 
d="M20 327l-13 47l141 59h59v-433h-59v380z" />
    <glyph glyph-name="two.denominator" horiz-adv-x="476" 
d="M88 330l-34 41q33 24 54 37t59.5 25t80.5 12q75 0 128.5 -31t53.5 -89q0 -14 -4 -27t-8.5 -23t-15 -19.5t-17.5 -16t-22.5 -14t-22.5 -11t-26 -9.5t-24 -7.5t-24.5 -6.5t-21.5 -6q-66 -18 -103.5 -47.5t-37.5 -81.5v-9h320v-47h-379v51q0 135 197 186q1 0 13 3l16 4t16 5
t18 6.5t16.5 7t16 8.5t13.5 10.5t11.5 12.5t6.5 14t3 17q0 34 -36 51t-85 17q-50 0 -86 -16t-76 -47z" />
    <glyph glyph-name="three.denominator" horiz-adv-x="542" 
d="M248 206v47h87q24 0 47 18t23 47q0 37 -38 56t-85 19q-92 0 -173 -72l-36 36q102 88 210 88q42 0 81 -11t69.5 -39t30.5 -68q0 -33 -18.5 -56.5t-41.5 -32.5q36 -7 66.5 -32.5t30.5 -72.5q0 -68 -66.5 -106.5t-167.5 -38.5q-143 0 -237 87l36 41q85 -76 201 -76
q75 0 125.5 26t50.5 70q0 26 -20 43t-41.5 22t-41.5 5h-92z" />
    <glyph glyph-name="four.denominator" horiz-adv-x="559" 
d="M528 151v-48h-89v-103h-59v103h-352v43l355 287h56v-282h89zM115 153v-2h265v207h-8z" />
    <glyph glyph-name="five.denominator" horiz-adv-x="516" 
d="M433 433v-52h-303v-130q70 40 151 40q82 0 140.5 -36t58.5 -106q0 -81 -66.5 -121t-160.5 -40q-122 0 -217 61l31 47q80 -56 186 -56q69 0 118.5 27t49.5 82q0 46 -41 69t-100 23q-85 0 -166 -47l-38 28v211h357z" />
    <glyph glyph-name="six.denominator" horiz-adv-x="529" 
d="M467 390l-36 -41q-55 44 -138 44q-79 0 -136.5 -48t-59.5 -128q96 65 205 65q91 0 140.5 -42t49.5 -96q0 -65 -58.5 -110.5t-147.5 -45.5q-100 0 -171.5 59t-71.5 162q0 108 73.5 172t178.5 64q100 0 172 -55zM298 235q-94 0 -198 -62q13 -64 65 -98.5t122 -34.5
q62 0 104 31.5t42 73.5q0 35 -34.5 62.5t-100.5 27.5z" />
    <glyph glyph-name="seven.denominator" horiz-adv-x="464" 
d="M31 381v52h405v-52l-258 -381h-77l268 381h-338z" />
    <glyph glyph-name="eight.denominator" horiz-adv-x="530" 
d="M265 -13q-90 0 -157.5 37t-67.5 100q0 48 38 78t92 38q-98 14 -98 91q0 55 60 85t133 30t133 -30t60 -85q0 -77 -99 -91q55 -8 93 -38t38 -78q0 -63 -68 -100t-157 -37zM265 39q63 0 112 24.5t49 65.5q0 42 -50 64.5t-111 22.5t-111 -22.5t-50 -64.5q0 -41 49 -65.5
t112 -24.5zM265 260q130 0 130 66q0 34 -40.5 53.5t-89.5 19.5t-89 -19.5t-40 -53.5q0 -66 129 -66z" />
    <glyph glyph-name="nine.denominator" horiz-adv-x="529" 
d="M62 43l36 41q57 -44 138 -44q79 0 136.5 47.5t60.5 128.5q-99 -65 -206 -65q-91 0 -140 42t-49 96q0 65 58.5 110.5t147.5 45.5q100 0 171 -58.5t71 -162.5q0 -108 -73.5 -172t-177.5 -64q-97 0 -173 55zM233 198q94 0 196 62q-13 64 -65 98.5t-122 34.5
q-62 0 -103.5 -32t-41.5 -74q0 -34 34.5 -61.5t101.5 -27.5z" />
    <glyph glyph-name="fi" horiz-adv-x="600" 
d="M41 459h94v101q0 77 41 114t95 37q48 0 82 -17l-12 -52q-24 14 -59 14q-36 0 -60.5 -24t-24.5 -72v-101h147v-49h-147v-410h-62v410h-94v49zM504 0h-62v459h62v-459zM430 641q0 17 12 28.5t30 11.5q19 0 31 -11.5t12 -28.5t-12 -28t-31 -11q-18 0 -30 11.5t-12 27.5z" />
    <glyph glyph-name="fl" horiz-adv-x="622" 
d="M41 459h94v101q0 77 41 114t95 37q48 0 82 -17l-12 -52q-24 14 -59 14q-36 0 -60.5 -24t-24.5 -72v-101h147v-49h-147v-410h-62v410h-94v49zM516 0h-62v700h62v-700z" />
    <glyph glyph-name="a.superior" horiz-adv-x="456" 
d="M88 482l-20 43q70 43 162 43q66 0 112 -24t46 -76v-187q0 -36 12 -61h-54q-7 10 -12 49q-66 -59 -153 -59q-65 0 -103.5 33.5t-38.5 84.5q0 49 43.5 80.5t120.5 31.5q90 0 131 -38v52q0 35 -30.5 52t-76.5 17q-79 0 -139 -41zM192 257q35 0 69 13t51.5 25.5t21.5 19.5v43
q-39 40 -123 40q-59 0 -88 -19t-29 -51q0 -30 26 -50.5t72 -20.5z" />
    <glyph glyph-name="b.superior" horiz-adv-x="475" 
d="M115 220h-50q7 34 7 84v396h53v-189q60 57 129 57q75 0 126.5 -49.5t51.5 -128.5q0 -80 -53 -130t-131 -50q-42 0 -76.5 19.5t-50.5 41.5q0 -27 -6 -51zM249 522q-65 0 -124 -54v-158q50 -54 119 -54q54 0 91.5 37.5t37.5 96.5t-36 95.5t-88 36.5z" />
    <glyph glyph-name="d.superior" horiz-adv-x="475" 
d="M410 220h-50q-4 15 -6 51q-16 -22 -51.5 -41.5t-78.5 -19.5q-77 0 -129 50t-52 130q0 78 53 128t128 50q69 0 126 -52v184h53v-396q0 -50 7 -84zM229 522q-54 0 -90.5 -36.5t-36.5 -95.5q0 -60 36.5 -97t90.5 -37q71 0 121 54v158q-57 54 -121 54z" />
    <glyph glyph-name="e.superior" horiz-adv-x="453" 
d="M364 308l36 -34q-68 -64 -171 -64q-83 0 -134.5 50.5t-51.5 123.5q0 77 53.5 130.5t132.5 53.5q77 0 131.5 -46.5t49.5 -137.5h-313q0 -53 37 -90t95 -37q82 0 135 51zM229 524q-48 0 -81.5 -27t-45.5 -71h248q-1 46 -37 72t-84 26z" />
    <glyph glyph-name="h.superior" horiz-adv-x="460" 
d="M125 220h-53v480h53v-189q59 57 128 57q63 0 102 -33.5t39 -85.5v-229h-54v229q0 31 -26 52t-66 21q-66 0 -123 -59v-243z" />
    <glyph glyph-name="i.superior" horiz-adv-x="198" 
d="M126 220h-54v338h54v-338zM62 673q0 13 10.5 22.5t25.5 9.5q16 0 26.5 -9t10.5 -23t-10.5 -23.5t-26.5 -9.5q-15 0 -25.5 9.5t-10.5 23.5z" />
    <glyph glyph-name="l.superior" horiz-adv-x="197" 
d="M125 220h-53v480h53v-480z" />
    <glyph glyph-name="m.superior" horiz-adv-x="681" 
d="M126 220h-54v255q0 48 -10 83h49q6 -18 10 -52q54 62 124 62q82 0 117 -68q51 68 127 68q54 0 90.5 -34t36.5 -85v-229h-55v229q0 31 -22.5 52t-57.5 21q-57 0 -110 -59v-243h-54v241q-6 26 -27 43.5t-54 17.5q-57 0 -110 -59v-243z" />
    <glyph glyph-name="o.superior" horiz-adv-x="466" 
d="M42 390q0 74 56.5 126t133.5 52q78 0 135 -52t57 -126q0 -75 -57 -127.5t-135 -52.5q-77 0 -133.5 53t-56.5 127zM98 390q0 -56 38 -94.5t96 -38.5q59 0 98 38.5t39 94.5q0 55 -39 93.5t-98 38.5q-58 0 -96 -38.5t-38 -93.5z" />
    <glyph glyph-name="r.superior" horiz-adv-x="306" 
d="M126 220h-53v255q0 41 -12 83h50q6 -18 10 -58q50 68 109 68q40 0 56 -18l-18 -48q-17 15 -49 15q-43 0 -93 -63v-234z" />
    <glyph glyph-name="s.superior" horiz-adv-x="420" 
d="M355 527l-22 -40q-62 39 -136 39q-34 0 -61.5 -14t-27.5 -38q0 -16 9 -26t27.5 -14.5t32 -6t37.5 -2.5q26 -1 42 -2.5t42.5 -8t42.5 -16.5t28 -29.5t12 -46.5q0 -55 -47 -84t-121 -29q-93 0 -173 53l22 40q79 -49 153 -49q48 0 80.5 17t32.5 47q0 54 -114 56
q-35 1 -58 4.5t-49 12.5t-39.5 28.5t-13.5 49.5q0 52 43 77t100 25q90 0 158 -43z" />
    <glyph glyph-name="t.superior" horiz-adv-x="321" 
d="M35 517v41h71v103h55v-103h112v-41h-112v-214q0 -24 14.5 -36.5t37.5 -12.5q41 0 63 13l7 -41q-27 -18 -80 -18q-38 0 -67.5 23t-29.5 72v214h-71z" />
    </font>
</defs>
</svg>
