<?xml version="1.0" standalone="no"?>
<!DOCTYPE svg PUBLIC "-//W3C//DTD SVG 1.1//EN" "http://www.w3.org/Graphics/SVG/1.1/DTD/svg11.dtd" >
<svg>
<metadata>
Created by FontForge 20110222 at Mon Apr 28 18:58:22 2014
 By Orthosie Webhosting
Copyright (C) 2011 Markanna Studios Inc.www.SweetFonts.com
</metadata>
<defs>
<font id="SweetSansRegular" horiz-adv-x="728" >
  <font-face 
    font-family="SweetSansRegular"
    font-weight="400"
    font-stretch="normal"
    units-per-em="1000"
    panose-1="2 0 0 0 0 0 0 0 0 0"
    ascent="770"
    descent="-230"
    x-height="469"
    cap-height="653"
    bbox="-108 -306 1475 903"
    underline-thickness="56"
    underline-position="-72"
    unicode-range="U+000D-FB04"
  />
<missing-glyph horiz-adv-x="579" 
d="M579 0h-579v653h579v-653zM289 269l-176 -198h352zM113 582l176 -198l175 198h-351zM340 326l160 -179v359zM238 326l-159 180v-359z" />
    <glyph glyph-name="f_f" unicode="ff" horiz-adv-x="687" 
d="M39 469h92v96q0 75 41.5 110.5t97.5 35.5q71 0 108 -30l-16 -65q-12 10 -35 17t-42 7q-33 0 -53.5 -19t-20.5 -56v-96h248v96q0 75 41.5 110.5t98.5 35.5q70 0 107 -30l-16 -65q-12 10 -34.5 17t-41.5 7q-33 0 -54 -19t-21 -56v-96h139v-62h-139v-407h-80v407h-248v-407
h-80v407h-92v62z" />
    <glyph glyph-name="f_i" unicode="fi" horiz-adv-x="620" 
d="M39 469h92v96q0 75 41.5 110.5t96.5 35.5q56 0 92 -20l-15 -66q-24 15 -62 15q-32 0 -52.5 -19t-20.5 -56v-96h138v-62h-138v-407h-80v407h-92v62zM528 0h-80v469h80v-469zM436 641q0 20 15 34t37 14t37.5 -14t15.5 -34t-15.5 -34t-37.5 -14t-37 14t-15 34z" />
    <glyph glyph-name="f_l" unicode="fl" horiz-adv-x="637" 
d="M39 469h92v96q0 75 41.5 110.5t96.5 35.5q56 0 92 -20l-15 -66q-24 15 -62 15q-32 0 -52.5 -19t-20.5 -56v-96h138v-62h-138v-407h-80v407h-92v62zM537 0h-79v700h79v-700z" />
    <glyph glyph-name="f_f_i" unicode="ffi" horiz-adv-x="948" 
d="M459 0v407h-248v-407h-80v407h-92v62h92v96q0 75 41.5 110.5t97.5 35.5q71 0 108 -30l-16 -65q-12 10 -35 17t-42 7q-33 0 -53.5 -19t-20.5 -56v-96h248v96q0 75 41.5 110.5t96.5 35.5t93 -20l-16 -66q-22 15 -62 15q-31 0 -52 -19t-21 -56v-96h139v-62h-139v-407h-80z
M777 0v469h79v-469h-79zM816 593q-22 0 -37 14t-15 34t15 34t37 14t37.5 -14t15.5 -34t-15.5 -34t-37.5 -14z" />
    <glyph glyph-name="f_f_l" unicode="ffl" horiz-adv-x="965" 
d="M459 0v407h-248v-407h-80v407h-92v62h92v96q0 75 41.5 110.5t97.5 35.5q71 0 108 -30l-16 -65q-12 10 -35 17t-42 7q-33 0 -53.5 -19t-20.5 -56v-96h248v96q0 75 41.5 110.5t96.5 35.5t93 -20l-16 -66q-22 15 -62 15q-31 0 -52 -19t-21 -56v-96h139v-62h-139v-407h-80z
M786 0v700h80v-700h-80z" />
    <glyph glyph-name=".notdef" horiz-adv-x="579" 
d="M579 0h-579v653h579v-653zM289 269l-176 -198h352zM113 582l176 -198l175 198h-351zM340 326l160 -179v359zM238 326l-159 180v-359z" />
    <glyph glyph-name=".null" horiz-adv-x="256" 
 />
    <glyph glyph-name=".null" horiz-adv-x="256" 
 />
    <glyph glyph-name="nonmarkingreturn" horiz-adv-x="333" 
 />
    <glyph glyph-name="CR" unicode="&#xd;" horiz-adv-x="245" 
 />
    <glyph glyph-name="space" unicode=" " horiz-adv-x="225" 
 />
    <glyph glyph-name="exclam" unicode="!" horiz-adv-x="300" 
d="M84 47q0 25 18.5 42.5t46.5 17.5t47 -17.5t19 -42.5t-19 -42t-47 -17t-46.5 17t-18.5 42zM178 202h-57l-19 293v158h94v-158z" />
    <glyph glyph-name="quotedbl" unicode="&#x22;" horiz-adv-x="455" 
d="M137 403h-50l-18 150v100h86v-100zM367 403h-49l-19 150v100h87v-100z" />
    <glyph glyph-name="numbersign" unicode="#" horiz-adv-x="880" 
d="M592 603h65l-33 -179h200v-61h-211l-35 -190h190v-62h-202l-37 -205h-65l37 205h-183l-37 -205h-66l37 205h-198v62h210l35 190h-189v61h200l33 179h65l-33 -179h184zM364 363l-34 -190h183l35 190h-184z" />
    <glyph glyph-name="dollar" unicode="$" horiz-adv-x="698" 
d="M319 663h59v-95q136 -14 229 -82l-49 -57q-62 54 -180 68v-164q38 -2 68 -5.5t67.5 -14.5t62.5 -28t42.5 -47.5t17.5 -70.5q0 -91 -72 -136t-186 -47v-120h-59v122q-153 15 -268 112l50 56q98 -82 218 -96v201q-41 3 -70.5 7.5t-62.5 14.5t-54 25t-34.5 40t-13.5 59
q0 59 37.5 98t87.5 53t110 15v92zM555 156q0 27 -13 45.5t-39.5 29t-55 16t-69.5 8.5v-200q78 1 127.5 26.5t49.5 74.5zM166 412q0 -67 153 -76v164q-66 0 -109.5 -21t-43.5 -67z" />
    <glyph glyph-name="percent" unicode="%" horiz-adv-x="1030" 
d="M55 434q0 70 55.5 120t135.5 50q79 0 136 -50t57 -120t-57 -120.5t-136 -50.5q-80 0 -135.5 50t-55.5 121zM726 591l-350 -591h-69l351 591h68zM130 434q0 -43 34 -74t82 -31q49 0 84 31t35 74t-35 73.5t-84 30.5t-82.5 -30.5t-33.5 -73.5zM594 158q0 69 56 119.5
t134 50.5q79 0 136.5 -50.5t57.5 -119.5q0 -71 -57 -121t-137 -50q-79 0 -134.5 50t-55.5 121zM669 158q0 -44 33.5 -75t81.5 -31q49 0 84 31.5t35 74.5t-35 73.5t-84 30.5q-48 0 -81.5 -30.5t-33.5 -73.5z" />
    <glyph glyph-name="ampersand" unicode="&#x26;" horiz-adv-x="794" 
d="M586 578l-43 -68q-66 43 -135 43q-45 0 -75 -21t-30 -54q0 -12 6.5 -27t13.5 -26t22.5 -28t22 -23.5t24.5 -23t19 -17.5l161 -154q60 57 114 139l69 -36q-66 -94 -130 -154l135 -128h-114l-82 77q-121 -91 -239 -91q-55 0 -105 18.5t-86 63t-36 107.5q0 135 163 196
q-44 53 -44 105q0 70 56.5 112t135.5 42q87 0 177 -52zM343 286l-31 30q-26 -10 -43.5 -18.5t-39.5 -24.5t-33.5 -39.5t-11.5 -53.5q0 -59 45.5 -88t103.5 -29q84 0 177 65z" />
    <glyph glyph-name="quotesingle" unicode="'" horiz-adv-x="224" 
d="M137 403h-50l-18 150v100h86v-100z" />
    <glyph glyph-name="parenleft" unicode="(" horiz-adv-x="382" 
d="M355 -114l-44 -53q-122 61 -191 177t-69 254t69 254.5t191 177.5l44 -53q-100 -51 -158.5 -155t-58.5 -224q0 -121 58.5 -224t158.5 -154z" />
    <glyph glyph-name="parenright" unicode=")" horiz-adv-x="382" 
d="M27 643l44 53q122 -61 191 -177.5t69 -254.5t-69 -254t-191 -177l-44 53q100 51 158.5 154t58.5 224q0 120 -58.5 224t-158.5 155z" />
    <glyph glyph-name="asterisk" unicode="*" horiz-adv-x="574" 
d="M57 510l20 59l173 -50l6 181h63l6 -181l172 50l19 -58l-171 -62l102 -149l-48 -36l-113 142l-111 -142l-49 36l102 149z" />
    <glyph glyph-name="plus" unicode="+" 
d="M87 220v71h238v209h78v-209h238v-71h-238v-210h-78v210h-238z" />
    <glyph glyph-name="comma" unicode="," horiz-adv-x="307" 
d="M80 -182l-24 51q43 12 82.5 42.5t39.5 68.5q0 20 -12 23q-16 -4 -26 -4q-26 0 -44 15.5t-18 38.5t18 38.5t44 15.5q41 0 71 -30.5t30 -75.5q0 -129 -161 -183z" />
    <glyph glyph-name="hyphen" unicode="-" horiz-adv-x="396" 
d="M70 213v79h257v-79h-257z" />
    <glyph glyph-name="period" unicode="." horiz-adv-x="281" 
d="M75 47q0 25 18.5 42.5t46.5 17.5t46.5 -17.5t18.5 -42.5t-18.5 -42t-46.5 -17t-46.5 17t-18.5 42z" />
    <glyph glyph-name="slash" unicode="/" horiz-adv-x="517" 
d="M469 653l-343 -772h-79l343 772h79z" />
    <glyph glyph-name="zero" unicode="0" horiz-adv-x="725" 
d="M58 277q0 122 89.5 208.5t213.5 86.5q125 0 215.5 -86.5t90.5 -208.5t-90.5 -208t-215.5 -86q-124 0 -213.5 86t-89.5 208zM144 277q0 -90 64 -154t153 -64q90 0 155 64t65 154t-65 154.5t-155 64.5q-89 0 -153 -64.5t-64 -154.5z" />
    <glyph glyph-name="one" unicode="1" horiz-adv-x="387" 
d="M39 411l-19 70l169 74h86v-555h-86v477z" />
    <glyph glyph-name="two" unicode="2" horiz-adv-x="597" 
d="M120 414l-50 60q39 31 67 48.5t75 33t100 15.5q92 0 157.5 -39.5t65.5 -114.5q0 -21 -4.5 -39.5t-15.5 -33.5t-20.5 -26.5t-28.5 -22.5t-30.5 -18t-34.5 -15t-32.5 -11.5t-33.5 -10t-29 -8.5q-75 -23 -116.5 -57.5t-41.5 -96.5v-10h377v-68h-463v70q0 173 241 238l13 4
q13 3 17.5 4.5l18 6t20 7.5t19 8.5t19 11t15 13t13 15t8 17t3.5 20.5q0 40 -40 60.5t-95 20.5q-60 0 -103.5 -21t-90.5 -61z" />
    <glyph glyph-name="three" unicode="3" horiz-adv-x="675" 
d="M304 259v68h91q33 0 61 21.5t28 56.5q0 45 -42 68t-95 23q-105 0 -205 -92l-53 53q124 114 260 114q52 0 100 -14t85 -50t37 -88q0 -41 -23.5 -71.5t-50.5 -41.5q45 -10 81.5 -42t36.5 -92q0 -88 -81.5 -138.5t-205.5 -50.5q-174 0 -290 113l53 60q99 -97 237 -97
q87 0 144.5 31.5t57.5 86.5q0 44 -39.5 63t-83.5 19h-103z" />
    <glyph glyph-name="four" unicode="4" horiz-adv-x="693" 
d="M651 197v-68h-110v-129h-86v129h-421v61l428 365h79v-358h110zM162 200v-3h293v248h-9q-53 -45 -152 -131t-132 -114z" />
    <glyph glyph-name="five" unicode="5" horiz-adv-x="650" 
d="M535 555v-77h-359v-163q33 17 52.5 26t54.5 17t74 8q99 0 169.5 -46.5t70.5 -134.5q0 -70 -43 -117.5t-103.5 -66t-133.5 -18.5q-147 0 -270 88l45 60q99 -72 225 -72q80 0 137 31t57 94q0 54 -45.5 81.5t-110.5 27.5q-101 0 -203 -53l-54 39v276h437z" />
    <glyph glyph-name="six" unicode="6" horiz-adv-x="669" 
d="M581 515l-45 -60q-68 41 -166 41q-92 0 -159.5 -58t-71.5 -156q115 81 245 81q110 0 170 -53.5t60 -123.5q0 -86 -71 -144.5t-180 -58.5q-124 0 -213.5 76t-89.5 209q0 138 91 220.5t221 82.5q116 0 209 -56zM376 293q-111 0 -231 -75q17 -75 78 -117t141 -42
q70 0 117.5 39t47.5 90q0 41 -39 73t-114 32z" />
    <glyph glyph-name="seven" unicode="7" horiz-adv-x="600" 
d="M49 478v77h500v-77l-311 -478h-113l325 478h-401z" />
    <glyph glyph-name="eight" unicode="8" horiz-adv-x="675" 
d="M337 -18q-111 0 -194 48t-83 129q0 61 43.5 99t105.5 48q-113 19 -113 116q0 71 75 111t166 40q57 0 110.5 -15.5t92.5 -51t39 -84.5q0 -98 -114 -116q63 -10 106.5 -48t43.5 -99q0 -81 -83 -129t-195 -48zM337 57q73 0 129 30t56 80q0 49 -57 76.5t-128 27.5
q-70 0 -127 -27.5t-57 -76.5q0 -50 56 -80t128 -30zM337 335q148 0 148 80q0 42 -45.5 66t-102.5 24q-55 0 -101 -24t-46 -66q0 -80 147 -80z" />
    <glyph glyph-name="nine" unicode="9" horiz-adv-x="667" 
d="M85 40l45 60q68 -41 166 -41q92 0 159 57.5t72 155.5q-119 -80 -244 -80q-110 0 -170.5 53.5t-60.5 122.5q0 86 71 144.5t181 58.5q124 0 213 -75.5t89 -208.5q0 -138 -91 -221t-220 -83q-115 0 -210 57zM290 261q111 0 231 75q-17 76 -77.5 118t-141.5 42
q-69 0 -117 -39t-48 -90q0 -41 39 -73.5t114 -32.5z" />
    <glyph glyph-name="colon" unicode=":" horiz-adv-x="325" 
d="M97 47q0 25 18.5 42.5t46.5 17.5t47 -17.5t19 -42.5t-19 -42t-47 -17t-46.5 17t-18.5 42zM97 384q0 25 18.5 42.5t46.5 17.5t47 -17.5t19 -42.5t-19 -42t-47 -17t-46.5 17t-18.5 42z" />
    <glyph glyph-name="semicolon" unicode=";" horiz-adv-x="338" 
d="M100 -182l-24 51q43 12 82.5 42.5t39.5 68.5q0 20 -12 23q-16 -4 -26 -4q-26 0 -44 15.5t-18 38.5t18 38.5t44 15.5q41 0 71 -30.5t30 -75.5q0 -129 -161 -183zM98 384q0 25 18.5 42.5t46.5 17.5t47 -17.5t19 -42.5t-19 -42t-47 -17t-46.5 17t-18.5 42z" />
    <glyph glyph-name="less" unicode="&#x3c;" 
d="M641 487v-81l-454 -146v-10l454 -145v-80l-554 191v79z" />
    <glyph glyph-name="equal" unicode="=" 
d="M87 341v72h554v-72h-554zM87 98v72h554v-72h-554z" />
    <glyph glyph-name="greater" unicode="&#x3e;" 
d="M87 406v81l554 -192v-79l-554 -191v80l454 145v10z" />
    <glyph glyph-name="question" unicode="?" horiz-adv-x="589" 
d="M103 503l-54 50q54 57 113.5 86.5t152.5 29.5q94 0 153.5 -37.5t59.5 -119.5q0 -70 -65 -124q-19 -16 -71 -49.5t-78 -63.5t-31 -73h-77q1 46 24 84.5t48.5 58.5t66.5 47.5t58 41.5q48 35 48 76q0 45 -39.5 67.5t-98.5 22.5q-71 0 -118.5 -24.5t-91.5 -72.5zM195 47
q0 25 18.5 42.5t45.5 17.5q28 0 47 -17.5t19 -42.5t-19 -42t-47 -17t-46 17t-18 42z" />
    <glyph glyph-name="at" unicode="@" horiz-adv-x="989" 
d="M651 472h73l-90 -273q-4 -11 -4 -21q0 -26 15 -40t42 -14q61 0 120.5 67t59.5 164q0 113 -90 187.5t-234 74.5q-171 0 -293.5 -103t-122.5 -265q0 -80 33 -145t87.5 -104t119 -59.5t132.5 -20.5q66 0 140.5 17t115.5 39l21 -52q-43 -25 -124 -45.5t-157 -20.5
q-78 0 -154 24.5t-140.5 71t-104.5 123t-40 171.5q0 126 68.5 226t179 152.5t239.5 52.5q173 0 280.5 -91.5t107.5 -229.5q0 -126 -84.5 -211t-176.5 -85q-44 0 -73 21.5t-29 56.5v8q-70 -85 -159 -85q-59 0 -100 40.5t-41 118.5q0 109 78 188.5t161 79.5q46 0 78 -27
t40 -66zM429 133q67 0 134 71l39 122q-6 39 -32.5 67t-62.5 28q-55 0 -107.5 -53.5t-52.5 -134.5q0 -50 22.5 -75t59.5 -25z" />
    <glyph glyph-name="A" unicode="A" horiz-adv-x="753" 
d="M123 0h-90l303 653h82l303 -653h-95l-89 196h-326zM371 551l-129 -285h264l-129 285h-6z" />
    <glyph glyph-name="B" unicode="B" horiz-adv-x="818" 
d="M510 0h-389v653h379q102 0 159 -57q44 -44 44 -103q0 -47 -26 -85.5t-67 -52.5q58 -12 92.5 -57.5t34.5 -106.5q0 -79 -59 -135t-168 -56zM526 303h-318v-226h305q64 0 100 36q34 32 34 79q0 42 -31 73q-36 38 -90 38zM491 576h-283v-203h295q50 0 79 29q31 31 31 75
q0 38 -27 67q-33 32 -95 32z" />
    <glyph glyph-name="C" unicode="C" horiz-adv-x="779" 
d="M676 170l58 -57q-132 -130 -313 -130q-156 0 -257.5 99.5t-101.5 244.5q0 143 101 243t254 100q86 0 165 -30.5t134 -81.5l-59 -58q-45 43 -109.5 68t-128.5 25q-115 0 -190.5 -78t-75.5 -189q0 -112 76 -189t193 -77q74 0 140 30.5t114 79.5z" />
    <glyph glyph-name="D" unicode="D" horiz-adv-x="817" 
d="M411 0h-290v653h290q86 0 143.5 -23t105.5 -68q91 -93 91 -235q0 -148 -96 -241q-49 -44 -103.5 -65t-140.5 -21zM208 77h200q65 0 102.5 15t76.5 48q73 73 73 187q0 111 -70 183q-37 34 -77 50t-105 16h-200v-499z" />
    <glyph glyph-name="E" unicode="E" horiz-adv-x="717" 
d="M472 382v-77h-264v-228h461v-77h-548v653h525v-77h-438v-194h264z" />
    <glyph glyph-name="F" unicode="F" horiz-adv-x="657" 
d="M208 0h-87v653h516v-77h-429v-200h264v-77h-264v-299z" />
    <glyph glyph-name="G" unicode="G" horiz-adv-x="812" 
d="M713 560l-60 -54q-43 40 -106.5 63.5t-125.5 23.5q-115 0 -191.5 -77.5t-76.5 -189.5q0 -110 76 -188t200 -78q59 0 116.5 17t94.5 47v155h-212v77h291v-274q-59 -46 -138 -72.5t-157 -26.5q-153 0 -257.5 100.5t-104.5 243.5t104 243t254 100q163 0 293 -110z" />
    <glyph glyph-name="H" unicode="H" horiz-adv-x="817" 
d="M208 0h-87v653h87v-260h401v260h86v-653h-86v316h-401v-316z" />
    <glyph glyph-name="I" unicode="I" horiz-adv-x="329" 
d="M208 0h-87v653h87v-653z" />
    <glyph glyph-name="J" unicode="J" horiz-adv-x="662" 
d="M468 653h86v-421q0 -117 -76 -183t-198 -66q-58 0 -104 15t-76 42.5t-47.5 51.5t-32.5 55l72 38q55 -125 187 -125q84 0 136.5 45.5t52.5 126.5v421z" />
    <glyph glyph-name="K" unicode="K" horiz-adv-x="755" 
d="M581 653h107l-260 -249l315 -404h-112l-266 346l-157 -153v-193h-87v653h87v-363z" />
    <glyph glyph-name="L" unicode="L" horiz-adv-x="641" 
d="M121 653h87v-576h412v-77h-499v653z" />
    <glyph glyph-name="M" unicode="M" horiz-adv-x="912" 
d="M791 0h-87v495h-5l-236 -397h-18l-236 397h-5v-495h-83v653h92l244 -411h2l244 411h88v-653z" />
    <glyph glyph-name="N" unicode="N" horiz-adv-x="824" 
d="M616 653h87v-653h-79l-415 501h-1v-501h-87v653h79l415 -501h1v501z" />
    <glyph glyph-name="O" unicode="O" horiz-adv-x="851" 
d="M63 328q0 142 105 242t257 100q151 0 257.5 -100t106.5 -242q0 -144 -106 -244.5t-258 -100.5t-257 100.5t-105 244.5zM154 328q0 -112 78.5 -190t192.5 -78t193.5 78.5t79.5 189.5q0 110 -79.5 187.5t-193.5 77.5t-192.5 -77.5t-78.5 -187.5z" />
    <glyph glyph-name="P" unicode="P" horiz-adv-x="748" 
d="M208 0h-87v653h353q120 0 183 -66q50 -55 50 -126q0 -80 -58 -135q-62 -60 -175 -60h-266v-266zM474 576h-266v-233h266q73 0 112 37q35 33 35 80q0 42 -31 76q-38 40 -116 40z" />
    <glyph glyph-name="Q" unicode="Q" horiz-adv-x="851" 
d="M63 328q0 142 105 242t257 100q151 0 257.5 -100t106.5 -242q0 -92 -46.5 -169.5t-125.5 -124.5l88 -124l-84 -27l-83 117q-54 -17 -113 -17q-152 0 -257 100.5t-105 244.5zM400 196l84 27l86 -123q59 37 93.5 97t34.5 131q0 110 -79.5 187.5t-193.5 77.5t-192.5 -77.5
t-78.5 -187.5q0 -112 78.5 -190t192.5 -78q31 0 65 8z" />
    <glyph glyph-name="R" unicode="R" horiz-adv-x="789" 
d="M208 0h-87v653h360q120 0 183 -66q50 -53 50 -128q0 -65 -41 -114t-111 -68l161 -277h-99l-150 266h-266v-266zM481 576h-273v-233h295q53 0 89 34t36 83q0 43 -31 76q-40 40 -116 40z" />
    <glyph glyph-name="S" unicode="S" horiz-adv-x="741" 
d="M638 575l-52 -60q-36 32 -98.5 56.5t-143.5 24.5q-71 0 -120.5 -27.5t-49.5 -84.5q0 -20 7.5 -35.5t26 -25t32.5 -15.5t46.5 -10t47.5 -5t54 -3q36 -2 53.5 -4t54.5 -7.5t58 -13t49.5 -22t44 -33.5t27 -48.5t11.5 -65.5q0 -73 -41 -122t-105 -70t-146 -21
q-197 0 -343 134l53 60q129 -120 292 -120q89 0 146 32.5t57 95.5q0 35 -16 58.5t-49 36t-65 17.5t-81 9q-48 3 -72.5 5.5t-67 9t-65.5 17.5t-48 28.5t-36.5 45t-11.5 64.5q0 53 23.5 92.5t63 60.5t83 31t90.5 10q92 0 169 -29t122 -66z" />
    <glyph glyph-name="T" unicode="T" horiz-adv-x="656" 
d="M31 576v77h594v-77h-253v-576h-87v576h-254z" />
    <glyph glyph-name="U" unicode="U" horiz-adv-x="790" 
d="M595 653h87v-421q0 -116 -80.5 -182.5t-207.5 -66.5q-126 0 -206 66.5t-80 182.5v421h86v-421q0 -81 56.5 -126.5t143.5 -45.5q88 0 144.5 45.5t56.5 126.5v421z" />
    <glyph glyph-name="V" unicode="V" horiz-adv-x="751" 
d="M626 653h94l-304 -653h-81l-304 653h98l246 -544h6z" />
    <glyph glyph-name="W" unicode="W" horiz-adv-x="1008" 
d="M44 653h95l162 -522h5l167 522h66l167 -522h6l162 522h90l-210 -653h-89l-158 490h-6l-158 -490h-89z" />
    <glyph glyph-name="X" unicode="X" horiz-adv-x="718" 
d="M565 653h105l-257 -311l274 -342h-111l-219 281l-225 -281h-105l278 338l-251 315h110l198 -254z" />
    <glyph glyph-name="Y" unicode="Y" horiz-adv-x="673" 
d="M546 653h102l-268 -347v-306h-87v306l-268 347h110l205 -270z" />
    <glyph glyph-name="Z" unicode="Z" horiz-adv-x="681" 
d="M620 77v-77h-571v55l442 521h-413v77h538v-55l-442 -521h446z" />
    <glyph glyph-name="bracketleft" unicode="[" horiz-adv-x="354" 
d="M314 -84v-70h-218v843h218v-70h-139v-703h139z" />
    <glyph glyph-name="backslash" unicode="\" horiz-adv-x="521" 
d="M403 -119l-343 772h79l343 -772h-79z" />
    <glyph glyph-name="bracketright" unicode="]" horiz-adv-x="354" 
d="M40 689h218v-843h-218v70h139v703h-139v70z" />
    <glyph glyph-name="asciicircum" unicode="^" 
d="M194 212h-90l218 401h86l216 -401h-89l-166 317h-7z" />
    <glyph glyph-name="underscore" unicode="_" horiz-adv-x="600" 
d="M-6 -156v56h612v-56h-612z" />
    <glyph glyph-name="grave" unicode="`" horiz-adv-x="500" 
d="M130 692l92 1l85 -146l-72 -1z" />
    <glyph glyph-name="a" unicode="a" horiz-adv-x="600" 
d="M114 358l-29 65q99 61 216 61q88 0 149.5 -33.5t61.5 -105.5v-260q0 -56 15 -85h-81q-12 23 -14 66q-83 -76 -195 -76q-85 0 -136 45t-51 116q0 66 57.5 110t158.5 44q114 0 166 -49v67q0 47 -38 70t-96 23q-52 0 -103 -18t-81 -40zM253 57q44 0 87 17.5t64 33t28 25.5
v59q-20 22 -62.5 36t-90.5 14q-75 0 -111.5 -25t-36.5 -66t32.5 -67.5t89.5 -26.5z" />
    <glyph glyph-name="b" unicode="b" horiz-adv-x="627" 
d="M159 0h-74q9 46 9 120v580h79v-294q73 78 162 78q98 0 166 -69.5t68 -178.5q0 -111 -69 -180.5t-169 -69.5q-54 0 -98.5 26.5t-66.5 56.5q0 -38 -7 -69zM328 414q-80 0 -155 -73v-212q20 -25 59 -49t91 -24q67 0 112.5 50t45.5 130q0 79 -44 128.5t-109 49.5z" />
    <glyph glyph-name="c" unicode="c" horiz-adv-x="564" 
d="M512 407l-54 -54q-61 61 -149 61q-69 0 -116.5 -49.5t-47.5 -128.5q0 -80 49 -129.5t121 -49.5q87 0 154 69l54 -50q-24 -29 -80 -59.5t-135 -30.5q-104 0 -177.5 69.5t-73.5 180.5q0 109 73 178.5t179 69.5q119 0 203 -77z" />
    <glyph glyph-name="d" unicode="d" horiz-adv-x="627" 
d="M542 0h-74q-7 31 -7 69q-22 -30 -67 -56.5t-100 -26.5q-99 0 -167.5 69.5t-68.5 180.5q0 109 69 178.5t167 69.5q88 0 160 -70v286h80v-580q0 -79 8 -120zM302 414q-66 0 -111 -49.5t-45 -128.5q0 -80 45 -130t111 -50q52 0 92 24t60 49v212q-73 73 -152 73z" />
    <glyph glyph-name="e" unicode="e" horiz-adv-x="595" 
d="M474 126l53 -52q-41 -39 -101 -63.5t-128 -24.5q-111 0 -176 70t-65 174q0 107 70.5 180.5t177.5 73.5q94 0 164.5 -60t71.5 -176q0 -16 -1 -24h-403q2 -72 47 -119.5t122 -47.5q101 0 168 69zM301 417q-61 0 -102.5 -36.5t-55.5 -93.5h310q-1 62 -47 96t-105 34z" />
    <glyph glyph-name="f" unicode="f" horiz-adv-x="359" 
d="M39 469h92v96q0 75 41.5 110.5t97.5 35.5q71 0 108 -30l-16 -65q-12 10 -35 17t-42 7q-33 0 -53.5 -19t-20.5 -56v-96h138v-62h-138v-407h-80v407h-92v62z" />
    <glyph glyph-name="g" unicode="g" horiz-adv-x="627" 
d="M454 -30v93q-74 -77 -162 -77q-98 0 -166 69t-68 178q0 112 69 181.5t170 69.5q54 0 98.5 -28t65.5 -59q0 39 10 73h74q-11 -45 -11 -120v-380q0 -85 -61.5 -141t-173.5 -56q-137 0 -213 81l48 47q59 -61 165 -61q74 0 114.5 36.5t40.5 93.5zM299 56q81 0 155 72v212
q-12 15 -29 29.5t-51 29.5t-70 15q-66 0 -112 -50t-46 -131q0 -79 44 -128t109 -49z" />
    <glyph glyph-name="h" unicode="h" horiz-adv-x="604" 
d="M172 0h-79v700h79v-294q72 78 159 78q84 0 135.5 -46.5t51.5 -119.5v-318h-80v318q0 40 -32 68t-82 28q-78 0 -152 -80v-334z" />
    <glyph glyph-name="i" unicode="i" horiz-adv-x="265" 
d="M172 0h-79v469h79v-469zM80 641q0 20 15 34t37 14t37.5 -14t15.5 -34t-15.5 -34t-37.5 -14t-37 14t-15 34z" />
    <glyph glyph-name="j" unicode="j" horiz-adv-x="265" 
d="M13 -227l-23 63q103 15 103 113v520h79v-520q0 -89 -48.5 -132.5t-110.5 -43.5zM80 641q0 20 15 34t37 14t37.5 -14t15.5 -34t-15.5 -34t-37.5 -14t-37 14t-15 34z" />
    <glyph glyph-name="k" unicode="k" horiz-adv-x="563" 
d="M415 469h108l-189 -167l218 -302h-100l-177 250l-102 -90v-160h-80v700h80v-455z" />
    <glyph glyph-name="l" unicode="l" horiz-adv-x="279" 
d="M179 0h-80v700h80v-700z" />
    <glyph glyph-name="m" unicode="m" horiz-adv-x="895" 
d="M174 0h-80v350q0 60 -13 119h73q10 -34 11 -71q72 86 158 86q53 0 94 -26t61 -69q66 95 163 95q72 0 120 -47t48 -119v-318h-81v318q0 40 -28 68t-72 28q-72 0 -137 -80v-334h-80v331q-4 35 -31 59t-69 24q-74 0 -137 -80v-334z" />
    <glyph glyph-name="n" unicode="n" horiz-adv-x="606" 
d="M174 0h-80v350q0 60 -13 119h73q10 -34 11 -72q79 87 173 87q78 0 129.5 -47t51.5 -119v-318h-80v318q0 40 -32 68t-81 28q-80 0 -152 -80v-334z" />
    <glyph glyph-name="o" unicode="o" horiz-adv-x="617" 
d="M57 236q0 105 71.5 176.5t179.5 71.5q109 0 180.5 -71.5t71.5 -176.5q0 -106 -71.5 -178t-180.5 -72t-180 72t-71 178zM140 236q0 -77 47 -130t121 -53q75 0 122.5 53t47.5 130q0 75 -47.5 128t-122.5 53q-74 0 -121 -53t-47 -128z" />
    <glyph glyph-name="p" unicode="p" horiz-adv-x="627" 
d="M174 -210h-80v558q0 75 -11 121h74q9 -36 9 -69q26 33 71.5 58.5t98.5 25.5q98 0 165.5 -69.5t67.5 -180.5q0 -110 -69 -179t-169 -69q-90 0 -157 77v-273zM174 341v-213q70 -72 149 -72q67 0 112.5 49.5t45.5 128.5q0 80 -44 130t-109 50q-86 0 -154 -73z" />
    <glyph glyph-name="q" unicode="q" horiz-adv-x="627" 
d="M534 -210h-80v273q-68 -77 -160 -77q-99 0 -167.5 69t-68.5 179q0 111 68.5 180.5t167.5 69.5q52 0 97 -25.5t70 -58.5q0 35 10 69h74q-11 -46 -11 -121v-558zM454 128v213q-68 73 -152 73q-65 0 -110.5 -50t-45.5 -130q0 -79 45 -128.5t111 -49.5q82 0 152 72z" />
    <glyph glyph-name="r" unicode="r" horiz-adv-x="396" 
d="M174 0h-80v350q0 62 -14 119h74q10 -37 11 -81q64 96 143 96q50 0 71 -24l-26 -73q-22 19 -63 19q-56 0 -116 -86v-320z" />
    <glyph glyph-name="s" unicode="s" horiz-adv-x="551" 
d="M468 428l-31 -61q-31 19 -79.5 35.5t-97.5 16.5q-46 0 -79.5 -17.5t-33.5 -51.5q0 -20 12 -33.5t35.5 -19.5t41.5 -8t44 -3q29 -1 46 -3t47 -6.5t49 -14t39 -24t30 -39t10 -55.5q0 -78 -61.5 -118.5t-158.5 -40.5q-125 0 -230 73l31 60q102 -67 198 -67q62 0 101.5 22
t39.5 63q0 23 -13 38.5t-37.5 22.5t-43 9t-47.5 4q-32 2 -50 4t-47 6.5t-46 13.5t-35 22.5t-26 35t-8 49.5q0 52 30.5 86t71 46.5t89.5 12.5q60 0 118 -18.5t91 -39.5z" />
    <glyph glyph-name="t" unicode="t" horiz-adv-x="390" 
d="M30 407v62h92v142h80v-142h141v-62h-141v-291q0 -31 18 -47t47 -16q52 0 78 15l10 -62q-34 -23 -103 -23q-52 0 -91 32t-39 101v291h-92z" />
    <glyph glyph-name="u" unicode="u" horiz-adv-x="605" 
d="M431 469h80v-349q0 -79 8 -120h-73q-7 31 -7 72q-78 -86 -172 -86q-78 0 -130 46.5t-52 118.5v318h81v-318q0 -40 32 -67.5t81 -27.5q81 0 152 79v334z" />
    <glyph glyph-name="v" unicode="v" horiz-adv-x="544" 
d="M431 469h82l-206 -469h-70l-205 469h90l149 -360h6z" />
    <glyph glyph-name="w" unicode="w" horiz-adv-x="777" 
d="M653 469h87l-156 -469h-84l-109 354h-5l-109 -354h-84l-156 469h87l109 -364h6l112 364h79l113 -364h5z" />
    <glyph glyph-name="x" unicode="x" horiz-adv-x="555" 
d="M414 469h101l-189 -228l200 -241h-100l-148 190l-148 -190h-101l200 241l-189 228h102l136 -178z" />
    <glyph glyph-name="y" unicode="y" horiz-adv-x="556" 
d="M444 469h81l-328 -679h-82l117 232l-201 447h90l152 -359h4z" />
    <glyph glyph-name="z" unicode="z" horiz-adv-x="523" 
d="M468 63v-63h-422v48l307 359h-281v62h392v-48l-308 -358h312z" />
    <glyph glyph-name="braceleft" unicode="{" horiz-adv-x="380" 
d="M341 -84v-70q-120 0 -160.5 31t-40.5 131v127q0 105 -113 105v72q46 0 80 30.5t34 79.5v103q1 101 41.5 133t158.5 32v-70q-72 0 -96 -18t-25 -77v-103q0 -61 -34 -100t-80 -42v-8q113 -2 113 -137v-127q0 -57 24.5 -74.5t97.5 -17.5z" />
    <glyph glyph-name="bar" unicode="|" horiz-adv-x="350" 
d="M139 -306v1209h74v-1209h-74z" />
    <glyph glyph-name="braceright" unicode="}" horiz-adv-x="380" 
d="M39 -154v70q70 0 95.5 17.5t25.5 74.5v127q0 135 114 137v8q-47 3 -81 42.5t-34 99.5v103q-1 59 -26 77t-94 18v70q117 0 157.5 -32t41.5 -133v-103q0 -49 34.5 -79.5t80.5 -30.5v-72q-114 0 -114 -105v-127q0 -100 -40 -131t-160 -31z" />
    <glyph glyph-name="asciitilde" unicode="~" 
d="M115 198l-59 38q100 113 182 113q77 0 147 -66q53 -48 96 -48q58 0 130 78l62 -38q-102 -117 -195 -117q-35 0 -68.5 14.5t-45.5 24.5t-37 32q-50 43 -92 43q-49 0 -120 -74z" />
    <glyph glyph-name="nbspace" unicode="&#xa0;" horiz-adv-x="225" 
 />
    <glyph glyph-name="exclamdown" unicode="&#xa1;" horiz-adv-x="288" 
d="M189 422q0 -25 -18.5 -42.5t-46.5 -17.5t-47 17.5t-19 42.5t19 42t47 17t46.5 -17t18.5 -42zM95 267h57l19 -293v-158h-94v158z" />
    <glyph glyph-name="cent" unicode="&#xa2;" horiz-adv-x="584" 
d="M343 531h59l-22 -97q75 -15 135 -62l-52 -53q-43 32 -98 45l-69 -308h11q86 0 159 63l53 -50q-22 -26 -78 -54t-134 -28q-18 0 -27 1l-27 -124h-58l30 135q-76 22 -123.5 79.5t-47.5 137.5q0 100 71.5 163.5t175.5 63.5q15 0 22 -1zM141 216q0 -53 27 -91.5t72 -56.5
l68 304h-7q-68 0 -114 -43t-46 -113z" />
    <glyph glyph-name="sterling" unicode="&#xa3;" horiz-adv-x="718" 
d="M63 266v62h135v78q0 80 65.5 122.5t155.5 42.5q46 0 109.5 -19.5t118.5 -51.5l-43 -59q-106 54 -185 54q-55 0 -95 -23t-40 -66v-78h252v-62h-252v-88q0 -51 -18.5 -76t-62.5 -33h444v-69h-584v69h38q56 0 76.5 21.5t20.5 87.5v88h-135z" />
    <glyph glyph-name="currency" unicode="&#xa4;" horiz-adv-x="742" 
d="M96 258q0 85 51 154l-80 75l56 56l79 -74q76 58 168 58q94 0 170 -58l80 74l56 -56l-81 -75q52 -70 52 -154t-52 -155l81 -74l-56 -56l-80 74q-76 -58 -170 -58q-93 0 -168 57l-79 -73l-56 56l80 74q-51 69 -51 155zM182 258q0 -79 55.5 -135t132.5 -56q78 0 134 56
t56 135t-56 135t-134 56q-77 0 -132.5 -56t-55.5 -135z" />
    <glyph glyph-name="yen" unicode="&#xa5;" horiz-adv-x="763" 
d="M69 317v55h174l-151 183h110l183 -221l183 221h102l-151 -183h176v-55h-221l-49 -60v-14h270v-55h-270v-188h-86v188h-270v55h270v14l-50 60h-220z" />
    <glyph glyph-name="brokenbar" unicode="&#xa6;" horiz-adv-x="350" 
d="M139 383v413h74v-413h-74zM139 -227v420h74v-420h-74z" />
    <glyph glyph-name="section" unicode="&#xa7;" horiz-adv-x="708" 
d="M608 94q-28 -26 -73 -43q10 -7 19 -20q13 -23 13 -52q0 -69 -63.5 -102.5t-145.5 -33.5q-118 0 -205 52l38 59q72 -42 167 -42q47 0 85.5 15t38.5 50q0 19 -12 28q-7 7 -17 11.5t-26.5 7.5t-26.5 4.5t-35 3.5t-33 3q-163 18 -226 77q-44 42 -44 101q0 61 47 108
q27 26 72 44q-10 7 -17 17q-14 23 -14 55q0 69 63.5 102.5t146.5 33.5q117 0 204 -52l-38 -59q-72 42 -166 42q-46 0 -85 -14.5t-39 -50.5q0 -19 12 -28q7 -6 17 -10.5t26 -8t27 -5t34.5 -4t32.5 -3.5q164 -16 227 -77q43 -41 43 -100q0 -64 -47 -109zM384 306
q-112 10 -153 25q-29 -11 -45 -27q-37 -34 -37 -80q0 -39 28 -64q40 -38 156 -50q110 -10 152 -25q30 11 46 26q38 35 38 81q0 37 -28 63q-41 39 -157 51z" />
    <glyph glyph-name="dieresis" unicode="&#xa8;" horiz-adv-x="500" 
d="M301 605q0 19 14 33t35 14t35.5 -14t14.5 -33t-14.5 -32t-35.5 -13t-35 13t-14 32zM99 605q0 19 14.5 33t35.5 14t35.5 -14t14.5 -33t-14.5 -32t-35.5 -13q-22 0 -36 12.5t-14 32.5z" />
    <glyph glyph-name="copyright" unicode="&#xa9;" horiz-adv-x="997" 
d="M499 -140q-120 0 -222.5 54.5t-162 149t-59.5 206.5q0 170 130.5 289.5t313.5 119.5q120 0 222 -54.5t161.5 -149t59.5 -205.5q0 -170 -130 -290t-313 -120zM499 -84q156 0 267 103.5t111 250.5q0 146 -111 250t-267 104q-155 0 -267 -104.5t-112 -249.5
q0 -147 111.5 -250.5t267.5 -103.5zM700 415l-31 -54q-72 64 -167 64q-73 0 -119 -45t-46 -110q0 -62 48.5 -101t119.5 -39q56 0 92.5 14.5t76.5 43.5l31 -53q-43 -34 -87 -51t-113 -17q-101 0 -170.5 56.5t-69.5 146.5q0 93 66 155.5t171 62.5q107 0 198 -73z" />
    <glyph glyph-name="ordfeminine" unicode="&#xaa;" horiz-adv-x="459" 
d="M88 474l-25 55q72 43 169 43q68 0 114.5 -24t46.5 -76v-191q0 -35 11 -61h-69q-8 14 -10 44q-66 -54 -144 -54q-64 0 -103 34t-39 86q0 48 44 79.5t122 31.5q79 0 120 -30v42q0 31 -27 46.5t-70 15.5q-39 0 -78.5 -13t-61.5 -28zM196 269q46 0 82 19t47 33v36
q-40 31 -109 31q-107 0 -107 -58q0 -26 23 -43.5t64 -17.5z" />
    <glyph glyph-name="guillemotleft" unicode="&#xab;" horiz-adv-x="568" 
d="M160 387h96l-121 -140v-8l121 -138h-96l-104 122v41zM398 387h96l-121 -140v-8l121 -138h-96l-118 138v9z" />
    <glyph glyph-name="logicalnot" unicode="&#xac;" 
d="M641 109h-79v225h-475v72h554v-297z" />
    <glyph glyph-name="registered" unicode="&#xae;" horiz-adv-x="632" 
d="M314 205q-106 0 -179.5 68t-73.5 166q0 95 73.5 163.5t179.5 68.5t181.5 -69t75.5 -163q0 -98 -75 -166t-182 -68zM249 327h-44v235h152q38 0 63 -19.5t25 -50.5q0 -22 -15.5 -40t-41.5 -26l61 -99h-49l-57 94h-94v-94zM357 527h-108v-69h108q19 0 32 10t13 24
q0 15 -13 25t-32 10zM314 238q92 0 156.5 58.5t64.5 142.5q0 82 -64.5 141.5t-156.5 59.5q-91 0 -154 -59.5t-63 -141.5q0 -84 63 -142.5t154 -58.5z" />
    <glyph glyph-name="macron" unicode="&#xaf;" horiz-adv-x="500" 
d="M122 639h255v-63h-255v63z" />
    <glyph glyph-name="degree" unicode="&#xb0;" horiz-adv-x="494" 
d="M246 297q-90 0 -140.5 48t-50.5 119q0 72 50.5 120.5t140.5 48.5q91 0 142.5 -48.5t51.5 -120.5q0 -70 -51.5 -118.5t-142.5 -48.5zM246 359q57 0 89.5 30t32.5 75q0 46 -32.5 76.5t-89.5 30.5q-56 0 -88 -30.5t-32 -76.5q0 -45 32 -75t88 -30z" />
    <glyph glyph-name="plusminus" unicode="&#xb1;" 
d="M87 305v72h238v175h78v-175h238v-72h-238v-174h-78v174h-238zM87 0v72h554v-72h-554z" />
    <glyph glyph-name="two.superior" unicode="&#xb2;" horiz-adv-x="476" 
d="M95 536l-45 53q35 26 56.5 39t60.5 26t82 13q75 0 129.5 -31t54.5 -91q0 -19 -6 -35t-13 -28t-23.5 -23.5t-25.5 -17.5t-32 -14.5t-29.5 -11t-32 -10t-26.5 -7.5q-59 -17 -91.5 -42t-32.5 -70v-5h303v-61h-379v59q0 137 197 186q1 0 10.5 2.5t13 3.5t14 4.5t16 5.5
t15 6.5t15 8t12.5 9.5t10.5 11.5t6 12.5t2.5 15q0 28 -31 41.5t-75 13.5q-82 0 -156 -63z" />
    <glyph glyph-name="three.superior" unicode="&#xb3;" horiz-adv-x="538" 
d="M243 418v61h87q22 0 40 15t18 40q0 33 -32.5 49t-74.5 16q-89 0 -167 -70l-46 46q102 92 214 92q68 0 125.5 -30.5t57.5 -89.5q0 -32 -16.5 -55.5t-35.5 -32.5q32 -7 59.5 -32t27.5 -72q0 -70 -66.5 -109.5t-167.5 -39.5q-145 0 -239 90l46 52q79 -74 192 -74
q69 0 114 22.5t45 63.5q0 32 -28.5 45t-62.5 13h-90z" />
    <glyph glyph-name="acute" unicode="&#xb4;" horiz-adv-x="500" 
d="M278 693l91 -1l-104 -146l-72 1z" />
    <glyph glyph-name="mu" unicode="&#xb5;" horiz-adv-x="601" 
d="M162 -230h-80v692h80v-319q1 -39 33 -65t81 -26q82 0 152 80v330h79v-342q0 -74 9 -120h-74q-7 31 -7 68q-75 -85 -172 -85q-66 0 -101 41v-254z" />
    <glyph glyph-name="mu" unicode="&#x3bc;" horiz-adv-x="601" 
d="M162 -230h-80v692h80v-319q1 -39 33 -65t81 -26q82 0 152 80v330h79v-342q0 -74 9 -120h-74q-7 31 -7 68q-75 -85 -172 -85q-66 0 -101 41v-254z" />
    <glyph glyph-name="paragraph" unicode="&#xb6;" horiz-adv-x="850" 
d="M560 -206h-72v469h-212q-90 0 -158.5 50t-68.5 150q0 190 235 190h461v-859h-71v789h-114v-789zM284 583q-156 0 -156 -120q0 -65 45 -97.5t103 -32.5h212v250h-204z" />
    <glyph glyph-name="periodcentered" unicode="&#xb7;" 
d="M291 255q0 28 21 47.5t52 19.5t51.5 -19.5t20.5 -47.5q0 -27 -20.5 -46t-51.5 -19t-52 19t-21 46z" />
    <glyph glyph-name="cedilla" unicode="&#xb8;" horiz-adv-x="500" 
d="M249 14h52l-29 -75q24 6 40 6q39 1 68.5 -19.5t29.5 -58.5q0 -43 -44 -68t-114 -25q-52 0 -146 23l13 45q89 -19 129 -19q90 0 90 45q0 36 -54 36q-15 0 -50 -7l-23 26z" />
    <glyph glyph-name="one.superior" unicode="&#xb9;" horiz-adv-x="311" 
d="M26 535l-17 61l136 57h76v-433h-76v365z" />
    <glyph glyph-name="ordmasculine" unicode="&#xba;" horiz-adv-x="465" 
d="M41 392q0 74 56.5 127t134.5 53t135 -52.5t57 -127.5q0 -76 -56.5 -129t-135.5 -53q-78 0 -134.5 53t-56.5 129zM112 392q0 -53 33 -88t87 -35q55 0 88.5 35t33.5 88q0 51 -33.5 86t-88.5 35q-54 0 -87 -35t-33 -86z" />
    <glyph glyph-name="guillemotright" unicode="&#xbb;" horiz-adv-x="568" 
d="M312 387h96l104 -123v-41l-104 -122h-96l121 138v8zM74 387h96l118 -139v-9l-118 -138h-96l121 138v8z" />
    <glyph glyph-name="onequarter" unicode="&#xbc;" horiz-adv-x="1047" 
d="M24 535l-17 61l136 57h76v-433h-76v365zM640 653l-370 -653h-69l370 653h69zM1016 159v-61h-87v-98h-76v98h-342v53l350 282h68v-274h87zM624 161v-2h229v177h-8q-218 -173 -221 -175z" />
    <glyph glyph-name="onehalf" unicode="&#xbd;" horiz-adv-x="1005" 
d="M24 535l-17 61l136 57h76v-433h-76v365zM640 653l-370 -653h-69l370 653h69zM623 316l-45 53q35 26 56.5 39t60.5 26t82 13q76 0 130 -31t54 -91q0 -19 -6 -35t-13 -28t-23.5 -23.5t-25.5 -17.5t-32 -14.5t-29.5 -11t-32 -10t-26.5 -7.5q-59 -17 -91.5 -42t-32.5 -70v-5
h303v-61h-379v59q0 137 197 186q1 0 10.5 2.5t13 3.5t14 4.5t16 5.5t15 6.5t15 8t12.5 9.5t10.5 11.5t6 12.5t2.5 15q0 28 -31 41.5t-74 13.5q-83 0 -157 -63z" />
    <glyph glyph-name="threequarters" unicode="&#xbe;" horiz-adv-x="1277" 
d="M243 418v61h87q22 0 40 15t18 40q0 33 -32.5 49t-74.5 16q-89 0 -167 -70l-46 46q102 92 214 92q68 0 125.5 -30.5t57.5 -89.5q0 -32 -16.5 -55.5t-35.5 -32.5q32 -7 59.5 -32t27.5 -72q0 -70 -66.5 -109.5t-167.5 -39.5q-145 0 -239 90l46 52q79 -74 192 -74
q69 0 114 22.5t45 63.5q0 32 -28.5 45t-62.5 13h-90zM870 653l-370 -653h-69l370 653h69zM1246 159v-61h-87v-98h-76v98h-342v53l350 282h68v-274h87zM854 161v-2h229v177h-8q-218 -173 -221 -175z" />
    <glyph glyph-name="questiondown" unicode="&#xbf;" horiz-adv-x="583" 
d="M475 -34l54 -50q-54 -57 -113.5 -86.5t-152.5 -29.5q-94 0 -153.5 37.5t-59.5 119.5q0 70 65 124q19 16 71 49.5t78 63.5t31 73h77q-1 -46 -24 -84.5t-48.5 -58.5t-66.5 -47.5t-58 -41.5q-48 -35 -48 -76q0 -45 39.5 -67.5t98.5 -22.5q71 0 118.5 24.5t91.5 72.5z
M383 422q0 -25 -18.5 -42.5t-45.5 -17.5q-28 0 -47 17.5t-19 42.5t19 42t47 17t46 -17t18 -42z" />
    <glyph glyph-name="Agrave" unicode="&#xc0;" horiz-adv-x="753" 
d="M374 734l-148 123l103 2l121 -123zM123 0h-90l303 653h82l303 -653h-95l-89 196h-326zM371 551l-129 -285h264l-129 285h-6z" />
    <glyph glyph-name="Aacute" unicode="&#xc1;" horiz-adv-x="753" 
d="M304 736l120 123l103 -2l-148 -123zM123 0h-90l303 653h82l303 -653h-95l-89 196h-326zM371 551l-129 -285h264l-129 285h-6z" />
    <glyph glyph-name="Acircumflex" unicode="&#xc2;" horiz-adv-x="753" 
d="M226 736l107 125h88l107 -125l-64 -2l-87 80l-87 -80zM123 0h-90l303 653h82l303 -653h-95l-89 196h-326zM371 551l-129 -285h264l-129 285h-6z" />
    <glyph glyph-name="Atilde" unicode="&#xc3;" horiz-adv-x="753" 
d="M260 736l-52 28q47 79 102 79q29 0 69 -28q37 -27 57 -27q25 0 57 46l49 -27q-47 -80 -103 -80q-37 0 -70 26q-40 29 -55 29q-11 0 -22 -8.5t-15.5 -14.5t-16.5 -23zM123 0h-90l303 653h82l303 -653h-95l-89 196h-326zM371 551l-129 -285h264l-129 285h-6z" />
    <glyph glyph-name="Adieresis" unicode="&#xc4;" horiz-adv-x="753" 
d="M477 838q21 0 35.5 -13.5t14.5 -32.5t-14.5 -32.5t-35.5 -13.5t-35 13t-14 33q0 19 14 32.5t35 13.5zM276 838q21 0 35.5 -13.5t14.5 -32.5t-14.5 -32.5t-35.5 -13.5q-22 0 -36 13t-14 33q0 19 14.5 32.5t35.5 13.5zM123 0h-90l303 653h82l303 -653h-95l-89 196h-326z
M371 551l-129 -285h264l-129 285h-6z" />
    <glyph glyph-name="Aring" unicode="&#xc5;" horiz-adv-x="753" 
d="M305 792q0 -26 19 -42.5t50 -16.5t51 16.5t20 42.5q0 27 -20 44.5t-51 17.5q-30 0 -49.5 -17.5t-19.5 -44.5zM374 695q-55 0 -86.5 28t-31.5 69q0 42 31.5 70.5t86.5 28.5t88 -29t33 -70t-33 -69t-88 -28zM123 0h-90l303 653h82l303 -653h-95l-89 196h-326zM371 551
l-129 -285h264l-129 285h-6z" />
    <glyph glyph-name="AE" unicode="&#xc6;" horiz-adv-x="1088" 
d="M95 0h-97l477 653h543v-77h-439v-195h265v-77h-265v-227h461v-77h-547v196h-257zM489 551l-204 -285h208v285h-4z" />
    <glyph glyph-name="Ccedilla" unicode="&#xc7;" horiz-adv-x="779" 
d="M676 170l58 -57q-58 -57 -137.5 -93t-172.5 -37l-17 -44q24 6 40 6q39 1 68.5 -19.5t29.5 -58.5q0 -43 -44 -68t-114 -25q-52 0 -146 23l13 45q89 -19 129 -19q90 0 90 45q0 36 -54 36q-15 0 -50 -7l-23 26l26 63q-138 16 -224 112.5t-86 228.5q0 143 101 243t254 100
q86 0 165 -30.5t134 -81.5l-59 -58q-45 43 -109.5 68t-128.5 25q-115 0 -190.5 -78t-75.5 -189q0 -112 76 -189t193 -77q74 0 140 30.5t114 79.5z" />
    <glyph glyph-name="Egrave" unicode="&#xc8;" horiz-adv-x="717" 
d="M382 734l-148 123l103 2l121 -123zM472 382v-77h-264v-228h461v-77h-548v653h525v-77h-438v-194h264z" />
    <glyph glyph-name="Eacute" unicode="&#xc9;" horiz-adv-x="717" 
d="M312 736l120 123l103 -2l-148 -123zM472 382v-77h-264v-228h461v-77h-548v653h525v-77h-438v-194h264z" />
    <glyph glyph-name="Ecircumflex" unicode="&#xca;" horiz-adv-x="717" 
d="M234 736l107 125h88l107 -125l-64 -2l-87 80l-87 -80zM472 382v-77h-264v-228h461v-77h-548v653h525v-77h-438v-194h264z" />
    <glyph glyph-name="Edieresis" unicode="&#xcb;" horiz-adv-x="717" 
d="M485 838q21 0 35.5 -13.5t14.5 -32.5t-14.5 -32.5t-35.5 -13.5t-35 13t-14 33q0 19 14 32.5t35 13.5zM284 838q21 0 35.5 -13.5t14.5 -32.5t-14.5 -32.5t-35.5 -13.5q-22 0 -36 13t-14 33q0 19 14.5 32.5t35.5 13.5zM472 382v-77h-264v-228h461v-77h-548v653h525v-77
h-438v-194h264z" />
    <glyph glyph-name="Igrave" unicode="&#xcc;" horiz-adv-x="329" 
d="M208 0h-87v653h87v-653zM117 859l120 -123l-76 -2l-147 123z" />
    <glyph glyph-name="Iacute" unicode="&#xcd;" horiz-adv-x="329" 
d="M208 0h-87v653h87v-653zM92 736l120 123l103 -2l-148 -123z" />
    <glyph glyph-name="Icircumflex" unicode="&#xce;" horiz-adv-x="329" 
d="M208 0h-87v653h87v-653zM13 736l107 125h89l106 -125l-64 -2l-86 80l-88 -80z" />
    <glyph glyph-name="Idieresis" unicode="&#xcf;" horiz-adv-x="329" 
d="M208 0h-87v653h87v-653zM265 838q21 0 35.5 -13.5t14.5 -32.5t-14.5 -32.5t-35.5 -13.5q-22 0 -36 13t-14 33q0 19 14.5 32.5t35.5 13.5zM63 838q21 0 35.5 -13.5t14.5 -32.5q0 -20 -14 -33t-36 -13q-21 0 -35 13t-14 33q0 19 14 32.5t35 13.5z" />
    <glyph glyph-name="Eth" unicode="&#xd0;" horiz-adv-x="845" 
d="M49 305v70h100v278h290q86 0 143 -23t106 -68q90 -92 90 -235q0 -148 -96 -241q-48 -44 -102.5 -65t-140.5 -21h-290v305h-100zM235 77h200q66 0 103 15t76 48q74 74 74 187q0 112 -71 183q-36 34 -76 50t-106 16h-200v-201h208v-70h-208v-228z" />
    <glyph glyph-name="Ntilde" unicode="&#xd1;" horiz-adv-x="824" 
d="M295 736l-52 28q47 79 102 79q29 0 69 -28q37 -27 57 -27q25 0 57 46l49 -27q-47 -80 -103 -80q-37 0 -70 26q-40 29 -55 29q-11 0 -22 -8.5t-15.5 -14.5t-16.5 -23zM616 653h87v-653h-79l-415 501h-1v-501h-87v653h79l415 -501h1v501z" />
    <glyph glyph-name="Ograve" unicode="&#xd2;" horiz-adv-x="851" 
d="M423 734l-148 123l103 2l121 -123zM63 328q0 142 105 242t257 100q151 0 257.5 -100t106.5 -242q0 -144 -106 -244.5t-258 -100.5t-257 100.5t-105 244.5zM154 328q0 -112 78.5 -190t192.5 -78t193.5 78.5t79.5 189.5q0 110 -79.5 187.5t-193.5 77.5t-192.5 -77.5
t-78.5 -187.5z" />
    <glyph glyph-name="Oacute" unicode="&#xd3;" horiz-adv-x="851" 
d="M353 736l120 123l103 -2l-148 -123zM63 328q0 142 105 242t257 100q151 0 257.5 -100t106.5 -242q0 -144 -106 -244.5t-258 -100.5t-257 100.5t-105 244.5zM154 328q0 -112 78.5 -190t192.5 -78t193.5 78.5t79.5 189.5q0 110 -79.5 187.5t-193.5 77.5t-192.5 -77.5
t-78.5 -187.5z" />
    <glyph glyph-name="Ocircumflex" unicode="&#xd4;" horiz-adv-x="851" 
d="M275 736l107 125h88l107 -125l-64 -2l-87 80l-87 -80zM63 328q0 142 105 242t257 100q151 0 257.5 -100t106.5 -242q0 -144 -106 -244.5t-258 -100.5t-257 100.5t-105 244.5zM154 328q0 -112 78.5 -190t192.5 -78t193.5 78.5t79.5 189.5q0 110 -79.5 187.5t-193.5 77.5
t-192.5 -77.5t-78.5 -187.5z" />
    <glyph glyph-name="Otilde" unicode="&#xd5;" horiz-adv-x="851" 
d="M309 736l-52 28q47 79 102 79q29 0 69 -28q37 -27 57 -27q25 0 57 46l49 -27q-47 -80 -103 -80q-37 0 -70 26q-40 29 -55 29q-11 0 -22 -8.5t-15.5 -14.5t-16.5 -23zM63 328q0 142 105 242t257 100q151 0 257.5 -100t106.5 -242q0 -144 -106 -244.5t-258 -100.5
t-257 100.5t-105 244.5zM154 328q0 -112 78.5 -190t192.5 -78t193.5 78.5t79.5 189.5q0 110 -79.5 187.5t-193.5 77.5t-192.5 -77.5t-78.5 -187.5z" />
    <glyph glyph-name="Odieresis" unicode="&#xd6;" horiz-adv-x="851" 
d="M526 838q21 0 35.5 -13.5t14.5 -32.5t-14.5 -32.5t-35.5 -13.5t-35 13t-14 33q0 19 14 32.5t35 13.5zM325 838q21 0 35.5 -13.5t14.5 -32.5t-14.5 -32.5t-35.5 -13.5q-22 0 -36 13t-14 33q0 19 14.5 32.5t35.5 13.5zM63 328q0 142 105 242t257 100q151 0 257.5 -100
t106.5 -242q0 -144 -106 -244.5t-258 -100.5t-257 100.5t-105 244.5zM154 328q0 -112 78.5 -190t192.5 -78t193.5 78.5t79.5 189.5q0 110 -79.5 187.5t-193.5 77.5t-192.5 -77.5t-78.5 -187.5z" />
    <glyph glyph-name="multiply" unicode="&#xd7;" 
d="M100 439l55 52l209 -186l210 186l52 -51l-207 -184l208 -184l-54 -52l-210 186l-209 -186l-53 51l207 184z" />
    <glyph glyph-name="Oslash" unicode="&#xd8;" horiz-adv-x="851" 
d="M63 328q0 142 105 242t257 100q91 0 169 -39l60 86l58 -39l-59 -84q63 -47 99.5 -116.5t36.5 -149.5q0 -144 -106 -244.5t-258 -100.5q-90 0 -170 39l-59 -85l-58 38l58 84q-63 48 -98 118t-35 151zM698 328q0 121 -92 198l-304 -438q56 -28 123 -28q114 0 193.5 78.5
t79.5 189.5zM154 328q0 -122 90 -201l304 438q-58 28 -123 28q-114 0 -192.5 -77.5t-78.5 -187.5z" />
    <glyph glyph-name="Ugrave" unicode="&#xd9;" horiz-adv-x="790" 
d="M391 734l-148 123l103 2l121 -123zM595 653h87v-421q0 -116 -80.5 -182.5t-207.5 -66.5q-126 0 -206 66.5t-80 182.5v421h86v-421q0 -81 56.5 -126.5t143.5 -45.5q88 0 144.5 45.5t56.5 126.5v421z" />
    <glyph glyph-name="Uacute" unicode="&#xda;" horiz-adv-x="790" 
d="M321 736l120 123l103 -2l-148 -123zM595 653h87v-421q0 -116 -80.5 -182.5t-207.5 -66.5q-126 0 -206 66.5t-80 182.5v421h86v-421q0 -81 56.5 -126.5t143.5 -45.5q88 0 144.5 45.5t56.5 126.5v421z" />
    <glyph glyph-name="Ucircumflex" unicode="&#xdb;" horiz-adv-x="790" 
d="M243 736l107 125h88l107 -125l-64 -2l-87 80l-87 -80zM595 653h87v-421q0 -116 -80.5 -182.5t-207.5 -66.5q-126 0 -206 66.5t-80 182.5v421h86v-421q0 -81 56.5 -126.5t143.5 -45.5q88 0 144.5 45.5t56.5 126.5v421z" />
    <glyph glyph-name="Udieresis" unicode="&#xdc;" horiz-adv-x="790" 
d="M494 838q21 0 35.5 -13.5t14.5 -32.5t-14.5 -32.5t-35.5 -13.5t-35 13t-14 33q0 19 14 32.5t35 13.5zM293 838q21 0 35.5 -13.5t14.5 -32.5t-14.5 -32.5t-35.5 -13.5q-22 0 -36 13t-14 33q0 19 14.5 32.5t35.5 13.5zM595 653h87v-421q0 -116 -80.5 -182.5t-207.5 -66.5
q-126 0 -206 66.5t-80 182.5v421h86v-421q0 -81 56.5 -126.5t143.5 -45.5q88 0 144.5 45.5t56.5 126.5v421z" />
    <glyph glyph-name="Yacute" unicode="&#xdd;" horiz-adv-x="673" 
d="M263 736l120 123l103 -2l-148 -123zM546 653h102l-268 -347v-306h-87v306l-268 347h110l205 -270z" />
    <glyph glyph-name="Thorn" unicode="&#xde;" horiz-adv-x="766" 
d="M121 653h87v-130h281q117 0 181 -66q52 -55 52 -129q0 -81 -58 -137q-65 -60 -175 -60h-281v-131h-87v653zM489 446h-281v-238h281q72 0 112 38q35 33 35 81q0 46 -33 79q-39 40 -114 40z" />
    <glyph glyph-name="germandbls" unicode="&#xdf;" horiz-adv-x="595" 
d="M311 -10l-8 62q75 0 115.5 35t40.5 92q0 40 -20 74t-50 55.5t-57 34t-49 17.5l7 61q42 9 69 44.5t27 80.5t-29 72t-73 27q-46 0 -79 -30.5t-33 -90.5v-524h-79v524q0 95 56 141t135 46q82 0 133.5 -46t51.5 -113q0 -58 -36.5 -99t-76.5 -56q27 -7 57 -24.5t60 -44
t49.5 -66.5t19.5 -85q0 -82 -61 -134.5t-170 -52.5z" />
    <glyph glyph-name="agrave" unicode="&#xe0;" horiz-adv-x="600" 
d="M114 358l-29 65q99 61 216 61q88 0 149.5 -33.5t61.5 -105.5v-260q0 -56 15 -85h-81q-12 23 -14 66q-83 -76 -195 -76q-85 0 -136 45t-51 116q0 66 57.5 110t158.5 44q114 0 166 -49v67q0 47 -38 70t-96 23q-52 0 -103 -18t-81 -40zM253 57q44 0 87 17.5t64 33t28 25.5
v59q-20 22 -62.5 36t-90.5 14q-75 0 -111.5 -25t-36.5 -66t32.5 -67.5t89.5 -26.5zM180 692l92 1l85 -146l-72 -1z" />
    <glyph glyph-name="aacute" unicode="&#xe1;" horiz-adv-x="600" 
d="M114 358l-29 65q99 61 216 61q88 0 149.5 -33.5t61.5 -105.5v-260q0 -56 15 -85h-81q-12 23 -14 66q-83 -76 -195 -76q-85 0 -136 45t-51 116q0 66 57.5 110t158.5 44q114 0 166 -49v67q0 47 -38 70t-96 23q-52 0 -103 -18t-81 -40zM253 57q44 0 87 17.5t64 33t28 25.5
v59q-20 22 -62.5 36t-90.5 14q-75 0 -111.5 -25t-36.5 -66t32.5 -67.5t89.5 -26.5zM328 693l91 -1l-104 -146l-72 1z" />
    <glyph glyph-name="acircumflex" unicode="&#xe2;" horiz-adv-x="600" 
d="M114 358l-29 65q99 61 216 61q88 0 149.5 -33.5t61.5 -105.5v-260q0 -56 15 -85h-81q-12 23 -14 66q-83 -76 -195 -76q-85 0 -136 45t-51 116q0 66 57.5 110t158.5 44q114 0 166 -49v67q0 47 -38 70t-96 23q-52 0 -103 -18t-81 -40zM253 57q44 0 87 17.5t64 33t28 25.5
v59q-20 22 -62.5 36t-90.5 14q-75 0 -111.5 -25t-36.5 -66t32.5 -67.5t89.5 -26.5zM149 549l107 130h88l107 -130l-64 -2l-87 86l-87 -86z" />
    <glyph glyph-name="atilde" unicode="&#xe3;" horiz-adv-x="600" 
d="M114 358l-29 65q99 61 216 61q88 0 149.5 -33.5t61.5 -105.5v-260q0 -56 15 -85h-81q-12 23 -14 66q-83 -76 -195 -76q-85 0 -136 45t-51 116q0 66 57.5 110t158.5 44q114 0 166 -49v67q0 47 -38 70t-96 23q-52 0 -103 -18t-81 -40zM253 57q44 0 87 17.5t64 33t28 25.5
v59q-20 22 -62.5 36t-90.5 14q-75 0 -111.5 -25t-36.5 -66t32.5 -67.5t89.5 -26.5zM183 549l-52 28q47 79 102 79q29 0 69 -28q37 -27 57 -27q24 0 57 46l49 -27q-48 -80 -103 -80q-37 0 -70 26q-40 29 -55 29q-11 0 -22 -8.5t-15.5 -14.5t-16.5 -23z" />
    <glyph glyph-name="adieresis" unicode="&#xe4;" horiz-adv-x="600" 
d="M114 358l-29 65q99 61 216 61q88 0 149.5 -33.5t61.5 -105.5v-260q0 -56 15 -85h-81q-12 23 -14 66q-83 -76 -195 -76q-85 0 -136 45t-51 116q0 66 57.5 110t158.5 44q114 0 166 -49v67q0 47 -38 70t-96 23q-52 0 -103 -18t-81 -40zM253 57q44 0 87 17.5t64 33t28 25.5
v59q-20 22 -62.5 36t-90.5 14q-75 0 -111.5 -25t-36.5 -66t32.5 -67.5t89.5 -26.5zM351 605q0 19 14 33t35 14t35.5 -14t14.5 -33t-14.5 -32t-35.5 -13t-35 13t-14 32zM149 605q0 19 14.5 33t35.5 14t35.5 -14t14.5 -33t-14.5 -32t-35.5 -13q-22 0 -36 12.5t-14 32.5z" />
    <glyph glyph-name="aring" unicode="&#xe5;" horiz-adv-x="600" 
d="M114 358l-29 65q99 61 216 61q88 0 149.5 -33.5t61.5 -105.5v-260q0 -56 15 -85h-81q-12 23 -14 66q-83 -76 -195 -76q-85 0 -136 45t-51 116q0 66 57.5 110t158.5 44q114 0 166 -49v67q0 47 -38 70t-96 23q-52 0 -103 -18t-81 -40zM253 57q44 0 87 17.5t64 33t28 25.5
v59q-20 22 -62.5 36t-90.5 14q-75 0 -111.5 -25t-36.5 -66t32.5 -67.5t89.5 -26.5zM228 634q0 -26 19 -42t50 -16t51 16t20 42q0 27 -20 45t-51 18q-30 0 -49.5 -18t-19.5 -45zM179 634q0 42 31.5 70.5t86.5 28.5t88 -28.5t33 -70.5q0 -41 -33 -68.5t-88 -27.5t-86.5 27.5
t-31.5 68.5z" />
    <glyph glyph-name="ae" unicode="&#xe6;" horiz-adv-x="970" 
d="M675 -14q-131 0 -201 100q-42 -45 -105 -72.5t-132 -27.5q-85 0 -136 46.5t-51 118.5q0 66 57.5 110t158.5 44q49 0 96.5 -12.5t72.5 -36.5v67q0 46 -39.5 69.5t-97.5 23.5q-52 0 -103 -18t-81 -40l-29 65q99 61 216 61q70 0 122.5 -22.5t64.5 -75.5l1 -12q24 49 76 79.5
t110 30.5q48 0 91 -15t78.5 -45t54.5 -81.5t15 -118.5h-402l5 -39q12 -56 54.5 -92t103.5 -36q107 0 173 69l54 -52q-92 -88 -227 -88zM253 57q108 0 193 85q-9 20 -13 49q-56 51 -154 51q-75 0 -111.5 -25t-36.5 -66t32.5 -67.5t89.5 -26.5zM515 287h312q-1 62 -46.5 96
t-105.5 34q-61 0 -103 -35.5t-57 -94.5z" />
    <glyph glyph-name="ccedilla" unicode="&#xe7;" horiz-adv-x="564" 
d="M512 407l-54 -54q-61 61 -149 61q-69 0 -116.5 -49.5t-47.5 -128.5q0 -80 49 -129.5t121 -49.5q87 0 154 69l54 -50q-23 -28 -76.5 -57.5t-127.5 -32.5l-18 -47q24 6 40 6q39 1 68.5 -19.5t29.5 -58.5q0 -43 -44 -68t-114 -25q-52 0 -146 23l13 45q89 -19 129 -19
q90 0 90 45q0 36 -54 36q-15 0 -50 -7l-23 26l27 66q-91 13 -150.5 80t-59.5 167q0 109 73 178.5t179 69.5q119 0 203 -77z" />
    <glyph glyph-name="egrave" unicode="&#xe8;" horiz-adv-x="595" 
d="M474 126l53 -52q-41 -39 -101 -63.5t-128 -24.5q-111 0 -176 70t-65 174q0 107 70.5 180.5t177.5 73.5q94 0 164.5 -60t71.5 -176q0 -16 -1 -24h-403q2 -72 47 -119.5t122 -47.5q101 0 168 69zM301 417q-61 0 -102.5 -36.5t-55.5 -93.5h310q-1 62 -47 96t-105 34z
M182 692l92 1l85 -146l-72 -1z" />
    <glyph glyph-name="eacute" unicode="&#xe9;" horiz-adv-x="595" 
d="M474 126l53 -52q-41 -39 -101 -63.5t-128 -24.5q-111 0 -176 70t-65 174q0 107 70.5 180.5t177.5 73.5q94 0 164.5 -60t71.5 -176q0 -16 -1 -24h-403q2 -72 47 -119.5t122 -47.5q101 0 168 69zM301 417q-61 0 -102.5 -36.5t-55.5 -93.5h310q-1 62 -47 96t-105 34z
M330 693l91 -1l-104 -146l-72 1z" />
    <glyph glyph-name="ecircumflex" unicode="&#xea;" horiz-adv-x="595" 
d="M474 126l53 -52q-41 -39 -101 -63.5t-128 -24.5q-111 0 -176 70t-65 174q0 107 70.5 180.5t177.5 73.5q94 0 164.5 -60t71.5 -176q0 -16 -1 -24h-403q2 -72 47 -119.5t122 -47.5q101 0 168 69zM301 417q-61 0 -102.5 -36.5t-55.5 -93.5h310q-1 62 -47 96t-105 34z
M151 549l107 130h88l107 -130l-64 -2l-87 86l-87 -86z" />
    <glyph glyph-name="edieresis" unicode="&#xeb;" horiz-adv-x="595" 
d="M474 126l53 -52q-41 -39 -101 -63.5t-128 -24.5q-111 0 -176 70t-65 174q0 107 70.5 180.5t177.5 73.5q94 0 164.5 -60t71.5 -176q0 -16 -1 -24h-403q2 -72 47 -119.5t122 -47.5q101 0 168 69zM301 417q-61 0 -102.5 -36.5t-55.5 -93.5h310q-1 62 -47 96t-105 34z
M353 605q0 19 14 33t35 14t35.5 -14t14.5 -33t-14.5 -32t-35.5 -13t-35 13t-14 32zM151 605q0 19 14.5 33t35.5 14t35.5 -14t14.5 -33t-14.5 -32t-35.5 -13q-22 0 -36 12.5t-14 32.5z" />
    <glyph glyph-name="igrave" unicode="&#xec;" horiz-adv-x="265" 
d="M172 0h-79v469h79v-469zM13 692l92 1l85 -146l-72 -1z" />
    <glyph glyph-name="iacute" unicode="&#xed;" horiz-adv-x="265" 
d="M172 0h-79v469h79v-469zM161 693l91 -1l-105 -146l-71 1z" />
    <glyph glyph-name="icircumflex" unicode="&#xee;" horiz-adv-x="265" 
d="M172 0h-79v469h79v-469zM-18 549l107 130h88l106 -130l-63 -2l-87 86l-88 -86z" />
    <glyph glyph-name="idieresis" unicode="&#xef;" horiz-adv-x="265" 
d="M172 0h-79v469h79v-469zM184 605q0 19 14 33t35 14t35.5 -14t14.5 -33t-14.5 -32t-35.5 -13q-22 0 -35.5 12.5t-13.5 32.5zM-18 605q0 19 14.5 33t35.5 14t35.5 -14t14.5 -33t-14.5 -32t-35.5 -13q-22 0 -36 12.5t-14 32.5z" />
    <glyph glyph-name="eth" unicode="&#xf0;" horiz-adv-x="626" 
d="M179 516l-19 53l134 48q-50 39 -113 72l88 17q58 -32 98 -63l123 44l19 -53l-94 -34l5 -5q132 -136 132 -339q0 -127 -70 -199q-71 -71 -178 -71q-101 0 -173.5 70.5t-72.5 170.5q0 102 67 172t161 70q56 0 101 -24.5t68 -64.5q-24 102 -104 185l-9 9zM142 228
q0 -72 45.5 -121.5t115.5 -49.5q73 0 119 49q48 51 48 125q0 73 -48 120.5t-120 47.5q-70 0 -115 -49.5t-45 -121.5z" />
    <glyph glyph-name="ntilde" unicode="&#xf1;" horiz-adv-x="606" 
d="M174 0h-80v350q0 60 -13 119h73q10 -34 11 -72q79 87 173 87q78 0 129.5 -47t51.5 -119v-318h-80v318q0 40 -32 68t-81 28q-80 0 -152 -80v-334zM185 549l-52 28q47 79 102 79q29 0 69 -28q37 -27 57 -27q24 0 57 46l49 -27q-48 -80 -103 -80q-37 0 -70 26q-40 29 -55 29
q-11 0 -22 -8.5t-15.5 -14.5t-16.5 -23z" />
    <glyph glyph-name="ograve" unicode="&#xf2;" horiz-adv-x="617" 
d="M57 236q0 105 71.5 176.5t179.5 71.5q109 0 180.5 -71.5t71.5 -176.5q0 -106 -71.5 -178t-180.5 -72t-180 72t-71 178zM140 236q0 -77 47 -130t121 -53q75 0 122.5 53t47.5 130q0 75 -47.5 128t-122.5 53q-74 0 -121 -53t-47 -128zM188 692l92 1l85 -146l-72 -1z" />
    <glyph glyph-name="oacute" unicode="&#xf3;" horiz-adv-x="617" 
d="M57 236q0 105 71.5 176.5t179.5 71.5q109 0 180.5 -71.5t71.5 -176.5q0 -106 -71.5 -178t-180.5 -72t-180 72t-71 178zM140 236q0 -77 47 -130t121 -53q75 0 122.5 53t47.5 130q0 75 -47.5 128t-122.5 53q-74 0 -121 -53t-47 -128zM336 693l91 -1l-104 -146l-72 1z" />
    <glyph glyph-name="ocircumflex" unicode="&#xf4;" horiz-adv-x="617" 
d="M57 236q0 105 71.5 176.5t179.5 71.5q109 0 180.5 -71.5t71.5 -176.5q0 -106 -71.5 -178t-180.5 -72t-180 72t-71 178zM140 236q0 -77 47 -130t121 -53q75 0 122.5 53t47.5 130q0 75 -47.5 128t-122.5 53q-74 0 -121 -53t-47 -128zM157 549l107 130h88l107 -130l-64 -2
l-87 86l-87 -86z" />
    <glyph glyph-name="otilde" unicode="&#xf5;" horiz-adv-x="617" 
d="M57 236q0 105 71.5 176.5t179.5 71.5q109 0 180.5 -71.5t71.5 -176.5q0 -106 -71.5 -178t-180.5 -72t-180 72t-71 178zM140 236q0 -77 47 -130t121 -53q75 0 122.5 53t47.5 130q0 75 -47.5 128t-122.5 53q-74 0 -121 -53t-47 -128zM191 549l-52 28q47 79 102 79
q29 0 69 -28q37 -27 57 -27q24 0 57 46l49 -27q-48 -80 -103 -80q-37 0 -70 26q-40 29 -55 29q-11 0 -22 -8.5t-15.5 -14.5t-16.5 -23z" />
    <glyph glyph-name="odieresis" unicode="&#xf6;" horiz-adv-x="617" 
d="M57 236q0 105 71.5 176.5t179.5 71.5q109 0 180.5 -71.5t71.5 -176.5q0 -106 -71.5 -178t-180.5 -72t-180 72t-71 178zM140 236q0 -77 47 -130t121 -53q75 0 122.5 53t47.5 130q0 75 -47.5 128t-122.5 53q-74 0 -121 -53t-47 -128zM359 605q0 19 14 33t35 14t35.5 -14
t14.5 -33t-14.5 -32t-35.5 -13t-35 13t-14 32zM157 605q0 19 14.5 33t35.5 14t35.5 -14t14.5 -33t-14.5 -32t-35.5 -13q-22 0 -36 12.5t-14 32.5z" />
    <glyph glyph-name="divide" unicode="&#xf7;" 
d="M87 220v71h554v-71h-554zM303 52q0 23 18 39.5t44 16.5t43.5 -16.5t17.5 -39.5q0 -24 -17.5 -40t-43.5 -16t-44 16t-18 40zM303 459q0 23 18 39.5t44 16.5q25 0 43 -16.5t18 -39.5t-17.5 -39.5t-43.5 -16.5t-44 16.5t-18 39.5z" />
    <glyph glyph-name="oslash" unicode="&#xf8;" horiz-adv-x="617" 
d="M138 -56l-45 32l48 69q-84 73 -84 191q0 105 71.5 176.5t179.5 71.5q65 0 121 -29l50 71l45 -31l-49 -70q85 -74 85 -189q0 -106 -71.5 -178t-180.5 -72q-67 0 -121 28zM478 236q0 75 -47 127l-203 -290q35 -20 80 -20q75 0 122.5 53t47.5 130zM140 236q0 -77 45 -128
l203 289q-35 20 -80 20q-74 0 -121 -53t-47 -128z" />
    <glyph glyph-name="ugrave" unicode="&#xf9;" horiz-adv-x="605" 
d="M431 469h80v-349q0 -79 8 -120h-73q-7 31 -7 72q-78 -86 -172 -86q-78 0 -130 46.5t-52 118.5v318h81v-318q0 -40 32 -67.5t81 -27.5q81 0 152 79v334zM182 692l92 1l85 -146l-72 -1z" />
    <glyph glyph-name="uacute" unicode="&#xfa;" horiz-adv-x="605" 
d="M431 469h80v-349q0 -79 8 -120h-73q-7 31 -7 72q-78 -86 -172 -86q-78 0 -130 46.5t-52 118.5v318h81v-318q0 -40 32 -67.5t81 -27.5q81 0 152 79v334zM330 693l91 -1l-104 -146l-72 1z" />
    <glyph glyph-name="ucircumflex" unicode="&#xfb;" horiz-adv-x="605" 
d="M431 469h80v-349q0 -79 8 -120h-73q-7 31 -7 72q-78 -86 -172 -86q-78 0 -130 46.5t-52 118.5v318h81v-318q0 -40 32 -67.5t81 -27.5q81 0 152 79v334zM151 549l107 130h88l107 -130l-64 -2l-87 86l-87 -86z" />
    <glyph glyph-name="udieresis" unicode="&#xfc;" horiz-adv-x="605" 
d="M431 469h80v-349q0 -79 8 -120h-73q-7 31 -7 72q-78 -86 -172 -86q-78 0 -130 46.5t-52 118.5v318h81v-318q0 -40 32 -67.5t81 -27.5q81 0 152 79v334zM353 605q0 19 14 33t35 14t35.5 -14t14.5 -33t-14.5 -32t-35.5 -13t-35 13t-14 32zM151 605q0 19 14.5 33t35.5 14
t35.5 -14t14.5 -33t-14.5 -32t-35.5 -13q-22 0 -36 12.5t-14 32.5z" />
    <glyph glyph-name="yacute" unicode="&#xfd;" horiz-adv-x="556" 
d="M444 469h81l-328 -679h-82l117 232l-201 447h90l152 -359h4zM305 693l91 -1l-104 -146l-72 1z" />
    <glyph glyph-name="thorn" unicode="&#xfe;" horiz-adv-x="627" 
d="M168 341v-213q70 -72 150 -72q67 0 112 49.5t45 128.5q0 80 -44 130t-109 50q-84 0 -154 -73zM168 700v-292q67 76 162 76q98 0 165.5 -69.5t67.5 -180.5q0 -110 -69 -179t-169 -69q-91 0 -157 77v-273h-80v910h80z" />
    <glyph glyph-name="ydieresis" unicode="&#xff;" horiz-adv-x="556" 
d="M444 469h81l-328 -679h-82l117 232l-201 447h90l152 -359h4zM328 605q0 19 14 33t35 14t35.5 -14t14.5 -33t-14.5 -32t-35.5 -13t-35 13t-14 32zM126 605q0 19 14.5 33t35.5 14t35.5 -14t14.5 -33t-14.5 -32t-35.5 -13q-22 0 -36 12.5t-14 32.5z" />
    <glyph glyph-name="dotlessi" unicode="&#x131;" horiz-adv-x="265" 
d="M172 0h-79v469h79v-469z" />
    <glyph glyph-name="Lslash" unicode="&#x141;" horiz-adv-x="662" 
d="M142 653h86v-265l202 118l1 -69l-203 -118v-242h412v-77h-498v269l-100 -58l-1 69l101 58v315z" />
    <glyph glyph-name="lslash" unicode="&#x142;" horiz-adv-x="315" 
d="M197 0h-79v319l-71 -41l-27 47l98 57v318h79v-272l88 51l28 -47l-116 -67v-365z" />
    <glyph glyph-name="OE" unicode="&#x152;" horiz-adv-x="1294" 
d="M1246 77v-77h-548v134q-40 -74 -115 -112.5t-166 -38.5q-148 0 -251 100.5t-103 244.5q0 142 103 242t251 100q91 0 166 -38t115 -113v134h525v-77h-438v-195h264v-77h-264v-227h461zM154 328q0 -111 76 -189.5t187 -78.5q118 0 199.5 78.5t81.5 189.5q0 110 -81.5 187.5
t-199.5 77.5q-110 0 -186.5 -77.5t-76.5 -187.5z" />
    <glyph glyph-name="oe" unicode="&#x153;" horiz-adv-x="1016" 
d="M894 126l54 -52q-90 -88 -226 -88q-72 0 -128 35t-79 91q-26 -56 -84 -91t-124 -35q-102 0 -176 73t-74 177q0 103 74 175.5t176 72.5q67 0 126.5 -36.5t84.5 -93.5q24 58 80.5 94t123.5 36q65 0 119 -25.5t89.5 -86t30.5 -148.5h-403q2 -22 5 -36q11 -57 53.5 -94
t105.5 -37q106 0 172 69zM139 236q0 -77 47 -130t121 -53q75 0 122.5 53t47.5 130q0 75 -47.5 128t-122.5 53q-73 0 -120.5 -53t-47.5 -128zM722 417q-59 0 -101 -36t-56 -94h308q-1 62 -46 96t-105 34z" />
    <glyph glyph-name="Scaron" unicode="&#x160;" horiz-adv-x="741" 
d="M283 861l87 -80l87 80l64 -2l-107 -125h-88l-107 125zM638 575l-52 -60q-36 32 -98.5 56.5t-143.5 24.5q-71 0 -120.5 -27.5t-49.5 -84.5q0 -20 7.5 -35.5t26 -25t32.5 -15.5t46.5 -10t47.5 -5t54 -3q36 -2 53.5 -4t54.5 -7.5t58 -13t49.5 -22t44 -33.5t27 -48.5
t11.5 -65.5q0 -73 -41 -122t-105 -70t-146 -21q-197 0 -343 134l53 60q129 -120 292 -120q89 0 146 32.5t57 95.5q0 35 -16 58.5t-49 36t-65 17.5t-81 9q-48 3 -72.5 5.5t-67 9t-65.5 17.5t-48 28.5t-36.5 45t-11.5 64.5q0 53 23.5 92.5t63 60.5t83 31t90.5 10q92 0 169 -29
t122 -66z" />
    <glyph glyph-name="scaron" unicode="&#x161;" horiz-adv-x="551" 
d="M468 428l-31 -61q-31 19 -79.5 35.5t-97.5 16.5q-46 0 -79.5 -17.5t-33.5 -51.5q0 -20 12 -33.5t35.5 -19.5t41.5 -8t44 -3q29 -1 46 -3t47 -6.5t49 -14t39 -24t30 -39t10 -55.5q0 -78 -61.5 -118.5t-158.5 -40.5q-125 0 -230 73l31 60q102 -67 198 -67q62 0 101.5 22
t39.5 63q0 23 -13 38.5t-37.5 22.5t-43 9t-47.5 4q-32 2 -50 4t-47 6.5t-46 13.5t-35 22.5t-26 35t-8 49.5q0 52 30.5 86t71 46.5t89.5 12.5q60 0 118 -18.5t91 -39.5zM124 678l64 2l87 -86l87 86l64 -2l-107 -131h-88z" />
    <glyph glyph-name="Ydieresis" unicode="&#x178;" horiz-adv-x="673" 
d="M436 838q21 0 35.5 -13.5t14.5 -32.5t-14.5 -32.5t-35.5 -13.5t-35 13t-14 33q0 19 14 32.5t35 13.5zM235 838q21 0 35.5 -13.5t14.5 -32.5t-14.5 -32.5t-35.5 -13.5q-22 0 -36 13t-14 33q0 19 14.5 32.5t35.5 13.5zM546 653h102l-268 -347v-306h-87v306l-268 347h110
l205 -270z" />
    <glyph glyph-name="Zcaron" unicode="&#x17d;" horiz-adv-x="681" 
d="M253 861l87 -80l87 80l64 -2l-107 -125h-88l-107 125zM620 77v-77h-571v55l442 521h-413v77h538v-55l-442 -521h446z" />
    <glyph glyph-name="zcaron" unicode="&#x17e;" horiz-adv-x="523" 
d="M468 63v-63h-422v48l307 359h-281v62h392v-48l-308 -358h312zM111 678l64 2l87 -86l87 86l64 -2l-107 -131h-88z" />
    <glyph glyph-name="florin" unicode="&#x192;" horiz-adv-x="490" 
d="M56 328h110l25 113q15 67 64.5 99t105.5 32q66 0 105 -24l-30 -66q-9 8 -32.5 14t-42.5 6q-33 0 -57.5 -15.5t-31.5 -44.5l-26 -114h125v-62h-139l-59 -266q-18 -82 -74 -121t-123 -39v62q99 15 118 98l58 266h-96v62z" />
    <glyph glyph-name="circumflex" unicode="&#x2c6;" horiz-adv-x="500" 
d="M99 549l107 130h88l107 -130l-64 -2l-87 86l-87 -86z" />
    <glyph glyph-name="caron" unicode="&#x2c7;" horiz-adv-x="500" 
d="M99 678l64 2l87 -86l87 86l64 -2l-107 -131h-88z" />
    <glyph glyph-name="breve" unicode="&#x2d8;" horiz-adv-x="500" 
d="M110 676h59q0 -83 81 -83t81 83h59q0 -25 -6 -47t-20.5 -43.5t-43.5 -34.5t-70 -13t-70 13t-43.5 34.5t-20.5 43.5t-6 47z" />
    <glyph glyph-name="dotaccent" unicode="&#x2d9;" horiz-adv-x="500" 
d="M201 605q0 19 14 33t35 14t35.5 -14t14.5 -33t-14.5 -32t-35.5 -13t-35 13t-14 32z" />
    <glyph glyph-name="ring" unicode="&#x2da;" horiz-adv-x="500" 
d="M178 634q0 -26 19 -42t50 -16t51 16t20 42q0 27 -20 45t-51 18q-30 0 -49.5 -18t-19.5 -45zM129 634q0 42 31.5 70.5t86.5 28.5t88 -28.5t33 -70.5q0 -41 -33 -68.5t-88 -27.5t-86.5 27.5t-31.5 68.5z" />
    <glyph glyph-name="ogonek" unicode="&#x2db;" horiz-adv-x="500" 
d="M270 23l37 -23q-121 -52 -121 -114q0 -27 22.5 -43t60.5 -16q19 0 65 8l7 -50q-46 -11 -86 -11q-64 0 -101.5 26.5t-37.5 70.5q0 29 17 55t44.5 45.5t49 31t43.5 20.5z" />
    <glyph glyph-name="tilde" unicode="&#x2dc;" horiz-adv-x="500" 
d="M133 549l-52 28q47 79 102 79q29 0 69 -28q37 -27 57 -27q24 0 57 46l49 -27q-48 -80 -103 -80q-37 0 -70 26q-40 29 -55 29q-11 0 -22 -8.5t-15.5 -14.5t-16.5 -23z" />
    <glyph glyph-name="hungarumlaut" unicode="&#x2dd;" horiz-adv-x="500" 
d="M177 542l-52 2l52 138l73 -2zM348 542l-52 2l52 138l74 -2z" />
    <glyph glyph-name="Delta" unicode="&#x394;" horiz-adv-x="729" 
d="M676 0h-623v70l270 583h82l271 -583v-70zM359 551l-217 -481h440l-217 481h-6z" />
    <glyph glyph-name="Delta" unicode="&#x2206;" horiz-adv-x="729" 
d="M676 0h-623v70l270 583h82l271 -583v-70zM359 551l-217 -481h440l-217 481h-6z" />
    <glyph glyph-name="Omega" unicode="&#x3a9;" horiz-adv-x="866" 
d="M76 0v70h182q-90 31 -142.5 104.5t-52.5 168.5q0 136 107 231.5t262 95.5q156 0 264.5 -96t108.5 -231q0 -91 -55 -166t-143 -107h180v-70h-279v70q91 23 148.5 98.5t57.5 174.5q0 104 -82 177t-200 73q-117 0 -197.5 -73t-80.5 -177q0 -99 56 -174t146 -99v-70h-280z
" />
    <glyph glyph-name="Omega" unicode="&#x2126;" horiz-adv-x="866" 
d="M76 0v70h182q-90 31 -142.5 104.5t-52.5 168.5q0 136 107 231.5t262 95.5q156 0 264.5 -96t108.5 -231q0 -91 -55 -166t-143 -107h180v-70h-279v70q91 23 148.5 98.5t57.5 174.5q0 104 -82 177t-200 73q-117 0 -197.5 -73t-80.5 -177q0 -99 56 -174t146 -99v-70h-280z
" />
    <glyph glyph-name="pi" unicode="&#x3c0;" horiz-adv-x="685" 
d="M40 399v63h605v-63h-112l-33 -318q-4 -36 -1 -81h-79q-3 43 1 81l33 318h-210l-41 -399h-80l41 399h-124z" />
    <glyph glyph-name="endash" unicode="&#x2013;" horiz-adv-x="635" 
d="M70 221v71h494v-71h-494z" />
    <glyph glyph-name="emdash" unicode="&#x2014;" horiz-adv-x="1115" 
d="M70 221v71h974v-71h-974z" />
    <glyph glyph-name="quoteleft" unicode="&#x2018;" horiz-adv-x="283" 
d="M209 680l24 -49q-41 -11 -78.5 -40t-37.5 -66q0 -16 11 -21q20 5 25 5q26 0 43 -14.5t17 -36.5q0 -23 -17 -37.5t-43 -14.5q-39 0 -67.5 28.5t-28.5 70.5q0 123 152 175z" />
    <glyph glyph-name="quoteright" unicode="&#x2019;" horiz-adv-x="283" 
d="M80 396l-23 49q41 11 78.5 40t37.5 66q0 16 -12 21q-20 -5 -25 -5q-25 0 -42 14.5t-17 36.5t16.5 37t42.5 15q39 0 68 -28.5t29 -70.5q0 -123 -153 -175z" />
    <glyph glyph-name="quotesinglbase" unicode="&#x201a;" horiz-adv-x="301" 
d="M82 -168l-24 49q42 12 79 41t37 66q0 16 -11 21q-20 -5 -26 -5q-25 0 -42 14.5t-17 36.5t17 37t42 15q39 0 68 -28.5t29 -70.5q0 -121 -152 -176z" />
    <glyph glyph-name="quotedblleft" unicode="&#x201c;" horiz-adv-x="528" 
d="M455 680l23 -49q-41 -11 -78.5 -40t-37.5 -66q0 -16 12 -21q20 5 25 5q26 0 43 -14.5t17 -36.5t-17 -37t-43 -15q-39 0 -68 28.5t-29 70.5q0 122 153 175zM209 680l24 -49q-41 -11 -78.5 -40t-37.5 -66q0 -16 11 -21q20 5 25 5q26 0 43 -14.5t17 -36.5q0 -23 -17 -37.5
t-43 -14.5q-39 0 -67.5 28.5t-28.5 70.5q0 123 152 175z" />
    <glyph glyph-name="quotedblright" unicode="&#x201d;" horiz-adv-x="529" 
d="M80 396l-23 49q41 11 78.5 40t37.5 66q0 16 -12 21q-20 -5 -25 -5q-25 0 -42 14.5t-17 36.5t16.5 37t42.5 15q39 0 68 -28.5t29 -70.5q0 -123 -153 -175zM326 396l-23 49q41 11 78.5 40t37.5 66q0 16 -12 21q-20 -5 -25 -5q-26 0 -43 14.5t-17 36.5t17 37t43 15
q39 0 68 -28.5t29 -70.5q0 -123 -153 -175z" />
    <glyph glyph-name="quotedblbase" unicode="&#x201e;" horiz-adv-x="547" 
d="M82 -168l-24 49q42 12 79 41t37 66q0 16 -11 21q-20 -5 -26 -5q-25 0 -42 14.5t-17 36.5t17 37t42 15q39 0 68 -28.5t29 -70.5q0 -121 -152 -176zM327 -168l-23 49q42 12 79 41t37 66q0 16 -12 21q-20 -5 -25 -5q-25 0 -42 14.5t-17 36.5t17 37t42 15q39 0 68 -28.5
t29 -70.5q0 -122 -153 -176z" />
    <glyph glyph-name="dagger" unicode="&#x2020;" horiz-adv-x="504" 
d="M452 528v-64h-165v-384h-71v384h-164v64h164v172h71v-172h165z" />
    <glyph glyph-name="daggerdbl" unicode="&#x2021;" horiz-adv-x="525" 
d="M227 80v178h-164v63h164v143h-164v64h164v172h71v-172h164v-64h-164v-143h164v-63h-164v-178h-71z" />
    <glyph glyph-name="bullet" unicode="&#x2022;" horiz-adv-x="439" 
d="M220 144q-66 0 -112.5 44t-46.5 107t46.5 107t112.5 44q65 0 111.5 -44t46.5 -107t-46.5 -107t-111.5 -44z" />
    <glyph glyph-name="ellipsis" unicode="&#x2026;" horiz-adv-x="1000" 
d="M115 47q0 25 18.5 42.5t46.5 17.5t46.5 -17.5t18.5 -42.5t-18.5 -42t-46.5 -17t-46.5 17t-18.5 42zM434 47q0 25 18.5 42.5t46.5 17.5t47 -17.5t19 -42.5t-19 -42t-47 -17t-46.5 17t-18.5 42zM754 47q0 25 18.5 42.5t46.5 17.5t47 -17.5t19 -42.5t-19 -42t-47 -17
t-46.5 17t-18.5 42z" />
    <glyph glyph-name="perthousand" unicode="&#x2030;" horiz-adv-x="1464" 
d="M57 434q0 70 55.5 120t134.5 50t136 -50t57 -120t-56.5 -120.5t-136.5 -50.5q-79 0 -134.5 50t-55.5 121zM728 591l-351 -591h-69l351 591h69zM131 434q0 -43 34 -74t82 -31q49 0 84 31t35 74t-35 73.5t-84 30.5q-48 0 -82 -30.5t-34 -73.5zM595 158q0 69 56 119.5
t135 50.5q78 0 135.5 -50.5t57.5 -119.5q0 -71 -57 -121t-136 -50q-80 0 -135.5 50t-55.5 121zM670 158q0 -44 34 -75t82 -31q49 0 84 31.5t35 74.5t-35 73.5t-84 30.5t-82.5 -30.5t-33.5 -73.5zM1028 158q0 69 56 119.5t134 50.5q79 0 136.5 -50.5t57.5 -119.5
q0 -71 -57 -121t-137 -50q-79 0 -134.5 50t-55.5 121zM1103 158q0 -44 33.5 -75t81.5 -31q49 0 84.5 31.5t35.5 74.5t-35.5 73.5t-84.5 30.5q-48 0 -81.5 -30.5t-33.5 -73.5z" />
    <glyph glyph-name="guilsinglleft" unicode="&#x2039;" horiz-adv-x="330" 
d="M160 387h96l-121 -140v-8l121 -138h-96l-104 122v41z" />
    <glyph glyph-name="guilsinglright" unicode="&#x203a;" horiz-adv-x="330" 
d="M74 387h96l104 -123v-41l-104 -122h-96l121 138v8z" />
    <glyph glyph-name="fraction" unicode="&#x2044;" horiz-adv-x="220" 
d="M331 653l-370 -653h-69l370 653h69z" />
    <glyph glyph-name="zero.superior" unicode="&#x2070;" horiz-adv-x="579" 
d="M40 437q0 96 73 163t175 67q103 0 177 -67t74 -163t-74 -163.5t-177 -67.5q-102 0 -175 67.5t-73 163.5zM116 437q0 -68 50.5 -115.5t121.5 -47.5q72 0 124 48t52 115t-52 114.5t-124 47.5q-71 0 -121.5 -47.5t-50.5 -114.5z" />
    <glyph glyph-name="four.superior" unicode="&#x2074;" horiz-adv-x="566" 
d="M532 379v-61h-87v-98h-76v98h-342v53l350 282h68v-274h87zM140 381v-2h229v177h-8q-218 -173 -221 -175z" />
    <glyph glyph-name="five.superior" unicode="&#x2075;" horiz-adv-x="519" 
d="M433 653v-67h-289v-113q64 40 145 40q80 0 138 -37.5t58 -105.5q0 -83 -67.5 -123.5t-162.5 -40.5q-123 0 -222 59l39 61q75 -52 183 -52q64 0 109 23.5t45 72.5q0 38 -35.5 58t-85.5 20q-83 0 -166 -48l-48 34v219h359z" />
    <glyph glyph-name="six.superior" unicode="&#x2076;" horiz-adv-x="534" 
d="M477 614l-46 -53q-53 38 -135 38q-74 0 -127.5 -42.5t-57.5 -115.5q92 63 197 63q90 0 139.5 -41.5t49.5 -96.5q0 -68 -58.5 -114t-148.5 -46q-102 0 -175.5 59.5t-73.5 163.5q0 108 75 173t181 65q94 0 180 -53zM302 443q-89 0 -185 -57q14 -54 62.5 -83t111.5 -29
q56 0 93 28t37 65q0 29 -30 52.5t-89 23.5z" />
    <glyph glyph-name="seven.superior" unicode="&#x2077;" horiz-adv-x="473" 
d="M31 586v67h411v-67l-253 -366h-98l264 366h-324z" />
    <glyph glyph-name="eight.superior" unicode="&#x2078;" horiz-adv-x="535" 
d="M268 205q-93 0 -161 37.5t-68 101.5q0 47 35 77t84 37q-90 14 -90 91q0 56 62 87.5t138 31.5q75 0 137 -31.5t62 -87.5q0 -77 -91 -91q50 -7 85 -37t35 -77q0 -64 -68 -101.5t-160 -37.5zM268 272q58 0 102 21.5t44 57.5t-45.5 56.5t-100.5 20.5q-56 0 -101.5 -20.5
t-45.5 -56.5t44.5 -57.5t102.5 -21.5zM268 484q117 0 117 58q0 31 -36.5 48t-80.5 17q-45 0 -81.5 -17t-36.5 -48q0 -58 118 -58z" />
    <glyph glyph-name="nine.superior" unicode="&#x2079;" horiz-adv-x="534" 
d="M56 259l46 53q55 -38 136 -38q74 0 128 42.5t58 114.5q-96 -62 -198 -62q-90 0 -139.5 41.5t-49.5 96.5q0 68 58.5 114t148.5 46q102 0 175 -59.5t73 -163.5q0 -108 -74.5 -173t-181.5 -65q-16 0 -31.5 1.5t-29.5 4t-25 5t-23 7.5t-19.5 7.5t-17.5 8t-13.5 7.5t-12.5 7z
M233 430q87 0 185 57q-15 54 -64 83t-112 29q-55 0 -92.5 -28t-37.5 -65q0 -30 30.5 -53t90.5 -23z" />
    <glyph glyph-name="parenleft.superior" unicode="&#x207d;" horiz-adv-x="278" 
d="M264 148l-38 -46q-89 45 -139 125.5t-50 178.5q0 99 50 179.5t139 125.5l38 -45q-69 -38 -110 -107.5t-41 -152.5t41 -152t110 -106z" />
    <glyph glyph-name="parenright.superior" unicode="&#x207e;" horiz-adv-x="278" 
d="M14 666l39 45q89 -45 138.5 -125.5t49.5 -179.5q0 -98 -49.5 -178.5t-138.5 -125.5l-39 46q69 37 110 106t41 152t-41 152.5t-110 107.5z" />
    <glyph glyph-name="n.superior" unicode="&#x207f;" horiz-adv-x="461" 
d="M140 220h-69v250q0 51 -9 91h62q6 -20 9 -51q54 62 126 62q58 0 98 -34t40 -87v-231h-69v231q0 26 -23 44t-58 18q-58 0 -107 -55v-238z" />
    <glyph glyph-name="zero.inferior" unicode="&#x2080;" horiz-adv-x="578" 
d="M40 49q0 96 73 163t175 67q103 0 176.5 -67t73.5 -163t-73.5 -163.5t-176.5 -67.5q-102 0 -175 67.5t-73 163.5zM115 49q0 -68 50.5 -115.5t122.5 -47.5t123.5 48t51.5 115t-52 114.5t-123 47.5q-72 0 -122.5 -47.5t-50.5 -114.5z" />
    <glyph glyph-name="one.inferior" unicode="&#x2081;" horiz-adv-x="309" 
d="M24 147l-17 61l136 57h76v-433h-76v365z" />
    <glyph glyph-name="two.inferior" unicode="&#x2082;" horiz-adv-x="476" 
d="M94 148l-45 53q35 26 56.5 39t60.5 26t82 13q76 0 130 -31t54 -91q0 -19 -6 -35t-13 -28t-23.5 -23.5t-25.5 -17.5t-32 -14.5t-29.5 -11t-32 -10t-26.5 -7.5q-59 -17 -91.5 -42t-32.5 -70v-5h303v-61h-379v59q0 137 197 186q1 0 10.5 2.5t13 3.5t14 4.5t16 5.5t15 6.5
t15 8t12.5 9.5t10.5 11.5t6 12.5t2.5 15q0 28 -31 41.5t-74 13.5q-83 0 -157 -63z" />
    <glyph glyph-name="three.inferior" unicode="&#x2083;" horiz-adv-x="539" 
d="M242 30v61h87q22 0 40.5 15t18.5 40q0 33 -33 49t-75 16q-88 0 -167 -70l-46 46q104 92 215 92q67 0 124.5 -30.5t57.5 -89.5q0 -32 -16 -55.5t-36 -32.5q32 -7 59.5 -32t27.5 -72q0 -70 -66.5 -109.5t-167.5 -39.5q-143 0 -239 90l46 52q79 -74 192 -74q70 0 115 22.5
t45 63.5q0 32 -29 45t-63 13h-90z" />
    <glyph glyph-name="four.inferior" unicode="&#x2084;" horiz-adv-x="563" 
d="M532 -9v-61h-87v-98h-76v98h-342v53l350 282h68v-274h87zM140 -7v-2h229v177h-8q-218 -173 -221 -175z" />
    <glyph glyph-name="five.inferior" unicode="&#x2085;" horiz-adv-x="519" 
d="M433 265v-67h-289v-113q64 40 145 40q80 0 138 -37.5t58 -105.5q0 -83 -67.5 -123.5t-162.5 -40.5q-123 0 -222 59l39 61q75 -52 183 -52q64 0 109 23.5t45 72.5q0 38 -35.5 58t-85.5 20q-83 0 -166 -48l-48 34v219h359z" />
    <glyph glyph-name="six.inferior" unicode="&#x2086;" horiz-adv-x="533" 
d="M477 226l-46 -53q-53 38 -136 38q-73 0 -127 -42.5t-58 -115.5q95 63 197 63q90 0 139.5 -41.5t49.5 -96.5q0 -68 -58.5 -114t-148.5 -46q-102 0 -175 59.5t-73 163.5q0 108 74.5 173t181.5 65q94 0 180 -53zM301 55q-85 0 -185 -57q15 -54 63.5 -83t111.5 -29
q55 0 92.5 28t37.5 65q0 29 -30.5 52.5t-89.5 23.5z" />
    <glyph glyph-name="seven.inferior" unicode="&#x2087;" horiz-adv-x="470" 
d="M31 198v67h411v-67l-252 -366h-99l265 366h-325z" />
    <glyph glyph-name="eight.inferior" unicode="&#x2088;" horiz-adv-x="535" 
d="M268 -183q-93 0 -161 37.5t-68 101.5q0 47 35 77t84 37q-90 14 -90 91q0 56 62 87.5t138 31.5q75 0 137 -31.5t62 -87.5q0 -77 -91 -91q50 -7 85 -37t35 -77q0 -64 -68 -101.5t-160 -37.5zM268 -116q58 0 102 21.5t44 57.5t-45.5 56.5t-100.5 20.5q-56 0 -101.5 -20.5
t-45.5 -56.5t44.5 -57.5t102.5 -21.5zM268 96q117 0 117 58q0 31 -36.5 48t-80.5 17q-45 0 -81.5 -17t-36.5 -48q0 -58 118 -58z" />
    <glyph glyph-name="nine.inferior" unicode="&#x2089;" horiz-adv-x="533" 
d="M56 -129l46 53q55 -38 136 -38q74 0 128 42.5t58 114.5q-96 -62 -198 -62q-90 0 -139.5 41.5t-49.5 96.5q0 68 58.5 114t148.5 46q102 0 175 -59.5t73 -163.5q0 -108 -74.5 -173t-181.5 -65q-16 0 -31.5 1.5t-29.5 4t-25 5t-23 7.5t-19.5 7.5t-17.5 8t-13.5 7.5t-12.5 7z
M233 42q87 0 185 57q-15 54 -64 83t-112 29q-55 0 -92.5 -28t-37.5 -65q0 -30 30.5 -53t90.5 -23z" />
    <glyph glyph-name="Euro" unicode="&#x20ac;" horiz-adv-x="780" 
d="M59 317v55h97q32 88 113.5 143.5t183.5 55.5q152 0 254 -89l-53 -59q-82 72 -201 72q-66 0 -121 -34t-83 -89h284v-55h-303q-4 -17 -4 -40q0 -17 3 -34h304v-55h-287q27 -58 83 -93t124 -35q124 0 209 80l53 -60q-112 -96 -262 -96q-104 0 -186 57t-112 147h-96v55h83
q-2 22 -2 34q0 21 3 40h-84z" />
    <glyph glyph-name="litre" unicode="&#x2113;" horiz-adv-x="533" 
d="M73 112l-21 58l102 58v204q0 202 152 202q74 0 117 -43.5t43 -113.5q0 -142 -213 -262l-20 -12v-78q0 -69 78 -69q50 0 110 29l13 -62q-66 -37 -126 -37q-154 0 -154 139v33zM233 432v-158l14 8q68 40 104 90t36 99q0 43 -21.5 68t-58.5 25q-34 0 -54 -27.5t-20 -104.5z
" />
    <glyph glyph-name="soundrecordingcopyright" unicode="&#x2117;" horiz-adv-x="997" 
d="M942 270q0 -111 -60 -206t-162 -149.5t-222 -54.5q-183 0 -313 120t-130 290t130 289.5t313 119.5t313.5 -119.5t130.5 -289.5zM877 271q0 146 -112 249.5t-268 103.5t-266.5 -103.5t-110.5 -249.5t110.5 -250.5t266.5 -104.5t268 104t112 251zM575 204h-166v-118h-73
v386h211q31 0 60 -5.5t58.5 -18.5t47 -40.5t17.5 -66.5q0 -66 -46.5 -101.5t-108.5 -35.5zM409 409v-142h166q33 0 58 18t25 55t-28 53t-64 16h-157z" />
    <glyph glyph-name="trademark" unicode="&#x2122;" horiz-adv-x="859" 
d="M771 326h-58v225h-3l-107 -180h-9l-107 180h-3v-225h-55v327h60l111 -191h1l112 191h58v-327zM54 606v47h285v-47h-113v-280h-58v280h-114z" />
    <glyph glyph-name="estimated" unicode="&#x212e;" horiz-adv-x="807" 
d="M209 443v-107q0 -6 6 -6h383q8 0 8 6v107q0 9 -6 21q-62 95 -191 95q-53 0 -110.5 -27t-82.5 -68q-7 -11 -7 -21zM711 138q-56 -78 -135 -117t-167 -39q-135 0 -240 89.5t-104 222.5q0 69 29.5 128.5t78 98.5t110.5 61.5t126 22.5q92 0 169.5 -38t125 -112t47.5 -170
h-536q-6 0 -6 -8v-127q0 -19 7 -28q82 -94 193 -94q124 0 211 110h91z" />
    <glyph glyph-name="onethird" unicode="&#x2153;" horiz-adv-x="1068" 
d="M24 535l-17 61l136 57h76v-433h-76v365zM640 653l-370 -653h-69l370 653h69zM771 198v61h87q22 0 40.5 15t18.5 40q0 33 -33 49t-75 16q-88 0 -167 -70l-46 46q104 92 215 92q67 0 124.5 -30.5t57.5 -89.5q0 -32 -16 -55.5t-36 -32.5q32 -7 59.5 -32t27.5 -72
q0 -70 -66.5 -109.5t-167.5 -39.5q-143 0 -239 90l46 52q79 -74 192 -74q70 0 115 22.5t45 63.5q0 32 -29 45t-63 13h-90z" />
    <glyph glyph-name="twothirds" unicode="&#x2154;" horiz-adv-x="1235" 
d="M94 536l-45 53q35 26 56.5 39t60.5 26t82 13q76 0 130 -31t54 -91q0 -19 -6 -35t-13 -28t-23.5 -23.5t-25.5 -17.5t-32 -14.5t-29.5 -11t-32 -10t-26.5 -7.5q-59 -17 -91.5 -42t-32.5 -70v-5h303v-61h-379v59q0 137 197 186q1 0 10.5 2.5t13 3.5t14 4.5t16 5.5t15 6.5
t15 8t12.5 9.5t10.5 11.5t6 12.5t2.5 15q0 28 -31 41.5t-74 13.5q-83 0 -157 -63zM807 653l-370 -653h-69l370 653h69zM938 198v61h87q22 0 40.5 15t18.5 40q0 33 -33 49t-75 16q-88 0 -167 -70l-46 46q104 92 215 92q67 0 124.5 -30.5t57.5 -89.5q0 -32 -16 -55.5
t-36 -32.5q32 -7 59.5 -32t27.5 -72q0 -70 -66.5 -109.5t-167.5 -39.5q-143 0 -239 90l46 52q79 -74 192 -74q70 0 115 22.5t45 63.5q0 32 -29 45t-63 13h-90z" />
    <glyph glyph-name="oneeighth" unicode="&#x215b;" horiz-adv-x="1064" 
d="M24 535l-17 61l136 57h76v-433h-76v365zM640 653l-370 -653h-69l370 653h69zM797 -15q-93 0 -161 37.5t-68 101.5q0 47 35 77t84 37q-90 14 -90 91q0 56 62 87.5t138 31.5q75 0 137 -31.5t62 -87.5q0 -77 -91 -91q50 -7 85 -37t35 -77q0 -64 -68 -101.5t-160 -37.5z
M797 52q58 0 102 21.5t44 57.5t-45.5 56.5t-100.5 20.5q-56 0 -101.5 -20.5t-45.5 -56.5t44.5 -57.5t102.5 -21.5zM797 264q117 0 117 58q0 31 -36.5 48t-80.5 17q-45 0 -81.5 -17t-36.5 -48q0 -58 118 -58z" />
    <glyph glyph-name="threeeighths" unicode="&#x215c;" horiz-adv-x="1294" 
d="M243 418v61h87q22 0 40 15t18 40q0 33 -32.5 49t-74.5 16q-89 0 -167 -70l-46 46q102 92 214 92q68 0 125.5 -30.5t57.5 -89.5q0 -32 -16.5 -55.5t-35.5 -32.5q32 -7 59.5 -32t27.5 -72q0 -70 -66.5 -109.5t-167.5 -39.5q-145 0 -239 90l46 52q79 -74 192 -74
q69 0 114 22.5t45 63.5q0 32 -28.5 45t-62.5 13h-90zM870 653l-370 -653h-69l370 653h69zM1027 -15q-93 0 -161 37.5t-68 101.5q0 47 35 77t84 37q-90 14 -90 91q0 56 62 87.5t138 31.5q75 0 137 -31.5t62 -87.5q0 -77 -91 -91q50 -7 85 -37t35 -77q0 -64 -68 -101.5
t-160 -37.5zM1027 52q58 0 102 21.5t44 57.5t-45.5 56.5t-100.5 20.5q-56 0 -101.5 -20.5t-45.5 -56.5t44.5 -57.5t102.5 -21.5zM1027 264q117 0 117 58q0 31 -36.5 48t-80.5 17q-45 0 -81.5 -17t-36.5 -48q0 -58 118 -58z" />
    <glyph glyph-name="fiveeighths" unicode="&#x215d;" horiz-adv-x="1274" 
d="M433 653v-67h-289v-113q64 40 145 40q80 0 138 -37.5t58 -105.5q0 -83 -67.5 -123.5t-162.5 -40.5q-123 0 -222 59l39 61q75 -52 183 -52q64 0 109 23.5t45 72.5q0 38 -35.5 58t-85.5 20q-83 0 -166 -48l-48 34v219h359zM850 653l-370 -653h-69l370 653h69zM1007 -15
q-93 0 -161 37.5t-68 101.5q0 47 35 77t84 37q-90 14 -90 91q0 56 62 87.5t138 31.5q75 0 137 -31.5t62 -87.5q0 -77 -91 -91q50 -7 85 -37t35 -77q0 -64 -68 -101.5t-160 -37.5zM1007 52q58 0 102 21.5t44 57.5t-45.5 56.5t-100.5 20.5q-56 0 -101.5 -20.5t-45.5 -56.5
t44.5 -57.5t102.5 -21.5zM1007 264q117 0 117 58q0 31 -36.5 48t-80.5 17q-45 0 -81.5 -17t-36.5 -48q0 -58 118 -58z" />
    <glyph glyph-name="seveneighths" unicode="&#x215e;" horiz-adv-x="1166" 
d="M31 586v67h411v-67l-252 -366h-99l265 366h-325zM742 653l-370 -653h-69l370 653h69zM899 -15q-93 0 -161 37.5t-68 101.5q0 47 35 77t84 37q-90 14 -90 91q0 56 62 87.5t138 31.5q75 0 137 -31.5t62 -87.5q0 -77 -91 -91q50 -7 85 -37t35 -77q0 -64 -68 -101.5
t-160 -37.5zM899 52q58 0 102 21.5t44 57.5t-45.5 56.5t-100.5 20.5q-56 0 -101.5 -20.5t-45.5 -56.5t44.5 -57.5t102.5 -21.5zM899 264q117 0 117 58q0 31 -36.5 48t-80.5 17q-45 0 -81.5 -17t-36.5 -48q0 -58 118 -58z" />
    <glyph glyph-name="partialdiff" unicode="&#x2202;" horiz-adv-x="638" 
d="M291 457q117 0 192 -101v14q0 26 -7 52.5t-25.5 56.5t-47.5 52.5t-78 37.5t-111 15v70q354 0 354 -344q0 -164 -74 -245.5t-189 -81.5q-102 0 -176 61.5t-74 174.5q0 112 71.5 175t164.5 63zM301 47q77 0 128.5 54t58.5 161q-32 57 -81.5 94t-109.5 37q-67 0 -115 -46
t-48 -128q0 -83 48 -127.5t119 -44.5z" />
    <glyph glyph-name="product" unicode="&#x220f;" horiz-adv-x="797" 
d="M51 576v77h696v-77h-111v-683h-87v683h-303v-683h-86v683h-109z" />
    <glyph glyph-name="summation" unicode="&#x2211;" horiz-adv-x="702" 
d="M646 653v-77h-451l333 -276v-52l-333 -278h451v-77h-597v55l389 323v6l-389 321v55h597z" />
    <glyph glyph-name="minus" unicode="&#x2212;" 
d="M87 220v71h554v-71h-554z" />
    <glyph glyph-name="radical" unicode="&#x221a;" horiz-adv-x="684" 
d="M32 470h174l134 -353l235 637h80l-288 -754h-56l-160 407h-119v63z" />
    <glyph glyph-name="infinity" unicode="&#x221e;" horiz-adv-x="1039" 
d="M265 450h12q83 0 167 -75l75 -69l75 69q87 75 166 75h12q84 0 142 -55t58 -127v-25q0 -72 -58 -126t-142 -54h-12q-80 0 -166 73l-75 67l-75 -68q-85 -72 -167 -72h-12q-84 0 -141 54t-57 126v25q0 72 57 127t141 55zM649 329l-82 -73l82 -73q57 -52 111 -52h12
q53 0 88.5 33.5t35.5 78.5v25q0 45 -35.5 79t-88.5 34h-12q-54 0 -111 -52zM141 268v-25q0 -45 35.5 -78.5t88.5 -33.5h12q55 0 112 53l80 72l-80 73q-59 52 -112 52h-12q-53 0 -88.5 -34t-35.5 -79z" />
    <glyph glyph-name="integral" unicode="&#x222b;" horiz-adv-x="410" 
d="M361 723v-70h-56q-27 0 -42.5 -19.5t-15.5 -47.5v-656q0 -50 -37 -83.5t-107 -33.5h-49v70h55q28 0 43.5 19.5t15.5 47.5v656q0 49 28.5 83t81.5 34h83z" />
    <glyph glyph-name="approxequal" unicode="&#x2248;" 
d="M87 85v73q77 56 150 56q62 0 124 -37q66 -39 120 -39q79 0 160 60v-74q-78 -57 -160 -57q-61 0 -124 37q-66 38 -121 38q-76 0 -149 -57zM87 329v73q75 55 150 55q62 0 124 -37q66 -39 120 -39q80 0 160 61v-74q-77 -58 -160 -58q-61 0 -124 37q-66 38 -121 38
q-75 0 -149 -56z" />
    <glyph glyph-name="notequal" unicode="&#x2260;" 
d="M87 341v72h326l66 106h79l-66 -106h149v-72h-194l-106 -171h300v-72h-345l-65 -105h-79l65 105h-130v72h175l106 171h-281z" />
    <glyph glyph-name="lessequal" unicode="&#x2264;" 
d="M87 0v72h554v-72h-554zM641 564v-81l-454 -139v-10l454 -139v-81l-554 185v80z" />
    <glyph glyph-name="greaterequal" unicode="&#x2265;" 
d="M641 72v-72h-554v72h554zM87 483v81l554 -185v-80l-554 -185v81l454 139v10z" />
    <glyph glyph-name="lozenge" unicode="&#x25ca;" horiz-adv-x="659" 
d="M305 653h49l255 -300v-51l-255 -302h-49l-255 302v51zM329 565l-199 -236v-3l199 -238h1l199 237v4l-199 236h-1z" />
    <glyph glyph-name="sweetfonts.com" unicode="&#xf8ff;" horiz-adv-x="1000" 
d="M343 424q0 65 46 111t111 46t111 -46t46 -111t-46 -111t-111 -46t-111 46t-46 111zM706 428l237 137q8 6 8 -4v-274q0 -10 -8 -4l-237 137q-6 4 0 8zM49 287v274q0 10 8 4l237 -137q8 -4 0 -8l-237 -137q-8 -6 -8 4zM878 0v116h-57v20h138v-20h-57v-116h-24zM659 0v136
h117v-20h-93v-32h62v-20h-62v-44h99v-20h-123zM472 0v136h117v-20h-93v-32h62v-20h-62v-44h99v-20h-123zM268 0l-47 136h25l30 -99h2l34 99h15l33 -99h2l32 99h23l-49 -136h-16l-33 97h-2l-33 -97h-16zM37 22l12 15q32 -21 61 -21q49 0 49 24q0 6 -3.5 10.5t-10 6t-14 2.5
t-16.5 1h-3q-69 2 -69 37q0 17 15.5 29t44.5 12q37 0 69 -18l-12 -16q-24 15 -57 15q-38 0 -38 -21q0 -14 47 -16q33 -1 51 -9.5t18 -31.5q0 -21 -20 -32.5t-51 -11.5q-41 0 -73 25z" />
    <glyph glyph-name="dollar.superior" horiz-adv-x="510" 
d="M232 738h50v-74q98 -11 173 -64l-44 -50q-47 41 -129 51v-117q36 -2 64 -7.5t60 -19t49.5 -40.5t17.5 -66q0 -72 -53.5 -108t-137.5 -37v-92h-50v94q-113 12 -200 89l43 48q75 -61 157 -73v146q-39 4 -66 9.5t-54.5 17.5t-41.5 34.5t-14 55.5q0 69 51.5 100t124.5 32v71z
M402 341q0 37 -29.5 52t-90.5 21v-145q53 1 86.5 18.5t33.5 53.5zM128 542q0 -48 104 -55v117q-104 0 -104 -62z" />
    <glyph glyph-name="cent.superior" horiz-adv-x="428" 
d="M252 638h52l-16 -75q56 -12 101 -48l-47 -47q-28 23 -67 34l-50 -231h3q61 0 116 47l47 -44q-11 -12 -28.5 -25t-55 -26.5t-79.5 -13.5h-16l-20 -95h-51l22 105q-57 18 -92.5 63.5t-35.5 108.5q0 79 54 129t134 50q3 0 7 -0.5t7 -0.5zM111 391q0 -78 65 -109l48 227h-1
q-48 0 -80 -32.5t-32 -85.5z" />
    <glyph glyph-name="Euro.superior" horiz-adv-x="566" 
d="M38 466v47h73q24 68 84.5 111t135.5 43q114 0 189 -69l-46 -53q-56 54 -143 54q-44 0 -81 -23.5t-58 -62.5h199v-47h-215q-2 -20 -2 -29q0 -18 2 -26h215v-47h-201q20 -41 57.5 -65.5t83.5 -24.5q89 0 150 61l46 -53q-82 -76 -196 -76q-76 0 -136.5 44t-84.5 114h-72v47
h61q-1 8 -1 26q0 19 1 29h-61z" />
    <glyph glyph-name="sterling.superior" horiz-adv-x="519" 
d="M42 424v55h95v58q0 63 50 96.5t118 33.5q76 0 173 -56l-38 -53q-74 41 -135 41q-37 0 -64 -16t-27 -46v-58h181v-55h-181v-62q0 -37 -14.5 -56t-48.5 -25h326v-61h-435v61h28q39 0 53 16t14 65v62h-95z" />
    <glyph glyph-name="yen.superior" horiz-adv-x="560" 
d="M42 466v47h126l-110 140h96l129 -166l129 166h89l-110 -140h127v-47h-163l-37 -47v-8h200v-47h-200v-144h-76v144h-200v47h200v8l-37 47h-163z" />
    <glyph glyph-name="numbersign.superior" horiz-adv-x="644" 
d="M431 690h56l-24 -137h146v-54h-156l-24 -140h139v-54h-149l-27 -158h-57l28 158h-128l-27 -158h-57l28 158h-144v54h153l25 140h-136v54h145l25 137h56l-24 -137h127zM269 499l-24 -140h127l25 140h-128z" />
    <glyph glyph-name="percent.superior" horiz-adv-x="762" 
d="M35 560q0 54 41.5 93.5t100.5 39.5q58 0 101 -39.5t43 -93.5q0 -55 -42.5 -94.5t-101.5 -39.5t-100.5 39t-41.5 95zM542 681l-261 -461h-60l262 461h59zM99 560q0 -31 23 -53.5t55 -22.5t55.5 22.5t23.5 53.5t-23.5 52.5t-55.5 21.5t-55 -21.5t-23 -52.5zM442 342
q0 54 41.5 93.5t100.5 39.5t101.5 -39.5t42.5 -93.5q0 -55 -42 -94t-102 -39q-59 0 -100.5 39t-41.5 94zM507 342q0 -31 22.5 -53t54.5 -22q33 0 56.5 22t23.5 53t-23.5 53t-56.5 22q-32 0 -54.5 -22t-22.5 -53z" />
    <glyph glyph-name="period.superior" horiz-adv-x="229" 
d="M60 259q0 20 16 35t39 15q22 0 38 -15t16 -35q0 -21 -15.5 -35t-38.5 -14t-39 14t-16 35z" />
    <glyph glyph-name="comma.superior" horiz-adv-x="245" 
d="M63 86l-21 45q55 14 77 51q12 20 7 35q-4 -1 -12 -1q-22 0 -37.5 13t-15.5 33q0 19 15.5 33t37.5 14q30 0 53.5 -23t23.5 -57q0 -100 -128 -143z" />
    <glyph glyph-name="hyphen.superior" horiz-adv-x="295" 
d="M57 359v69h182v-69h-182z" />
    <glyph glyph-name="zero.pl" horiz-adv-x="829" 
d="M64 307q0 134 103 228.5t247 94.5t248 -94.5t104 -228.5q0 -135 -104 -229.5t-248 -94.5t-247 94.5t-103 229.5zM151 307q0 -103 77 -175t186 -72t187.5 72.5t78.5 174.5q0 101 -78.5 173.5t-187.5 72.5t-186 -72t-77 -174z" />
    <glyph glyph-name="one.pl" horiz-adv-x="431" 
d="M38 461l-19 69l199 83h86v-613h-86v535z" />
    <glyph glyph-name="two.pl" horiz-adv-x="685" 
d="M132 464l-51 61q47 34 77.5 52.5t85 35.5t114.5 17q67 0 123.5 -17t95 -56.5t38.5 -95.5q0 -20 -5 -38.5t-12.5 -33t-21.5 -28t-25 -23t-31.5 -19.5t-32.5 -16t-35.5 -13.5t-34.5 -11t-34.5 -10t-30.5 -8.5q-92 -25 -144.5 -66t-52.5 -113v-11h450v-70h-536v73
q0 192 279 263l20 5q19 5 25 7t25 7.5t27.5 10t25 12.5t24 15.5t17 18t13.5 22.5t4 25q0 47 -49.5 70.5t-119.5 23.5q-71 0 -122.5 -23t-105.5 -66z" />
    <glyph glyph-name="three.pl" horiz-adv-x="775" 
d="M354 290v69h123q33 0 65 24.5t32 65.5q0 52 -52.5 78t-118.5 26q-127 0 -244 -100l-53 53q144 124 299 124q43 0 85.5 -9.5t82 -28t64 -52.5t24.5 -77q0 -47 -26 -80.5t-58 -45.5q22 -4 43 -13.5t43.5 -26.5t36 -45t13.5 -64q0 -96 -94 -150.5t-238 -54.5
q-201 0 -335 122l52 61q118 -106 283 -106q107 0 176.5 35.5t69.5 98.5q0 36 -27.5 59t-57 30t-58.5 7h-130z" />
    <glyph glyph-name="four.pl" horiz-adv-x="794" 
d="M746 214v-69h-126v-145h-86v145h-496v62l501 406h81v-399h126zM165 218v-4h369v289h-11z" />
    <glyph glyph-name="five.pl" horiz-adv-x="743" 
d="M619 613v-77h-426v-181q49 29 96.5 43t116.5 14q74 0 135.5 -20t103 -67t41.5 -113q0 -48 -18.5 -87.5t-49.5 -65.5t-73 -43.5t-87 -25t-93 -7.5q-177 0 -316 110l52 61q112 -94 264 -94q61 0 112 14t87 49t36 88q0 63 -57 95.5t-139 32.5q-116 0 -236 -66l-54 39v301
h505z" />
    <glyph glyph-name="six.pl" horiz-adv-x="763" 
d="M669 553l-52 -60q-81 60 -195 60q-111 0 -192 -67t-85 -179q141 93 290 93q128 0 198 -59t70 -136q0 -93 -83 -157.5t-209 -64.5q-91 0 -168 34.5t-127 107t-50 171.5q0 101 50.5 178.5t131 116.5t175.5 39q141 0 246 -77zM427 331q-129 0 -277 -88q19 -87 92.5 -135
t170.5 -48q86 0 144.5 44t58.5 102q0 48 -48 86.5t-141 38.5z" />
    <glyph glyph-name="seven.pl" horiz-adv-x="671" 
d="M45 536v77h575v-77l-365 -536h-113l378 536h-475z" />
    <glyph glyph-name="eight.pl" horiz-adv-x="763" 
d="M381 -19q-127 0 -223 53.5t-96 141.5q0 67 53 109.5t129 54.5q-67 10 -102.5 42.5t-35.5 85.5t44.5 91.5t105 55.5t125.5 17t125.5 -17t105 -55.5t44.5 -91.5q0 -108 -139 -128q77 -12 130 -54.5t53 -109.5q0 -88 -96 -141.5t-223 -53.5zM381 58q89 0 157 33.5t68 91.5
q0 39 -36 68t-85.5 41.5t-103.5 12.5t-103.5 -12.5t-85.5 -41.5t-36 -68q0 -58 68.5 -91.5t156.5 -33.5zM381 369q87 0 134 23.5t47 67.5q0 49 -56 76t-125 27t-125 -27t-56 -76q0 -44 47 -67.5t134 -23.5z" />
    <glyph glyph-name="nine.pl" horiz-adv-x="761" 
d="M92 60l53 60q79 -60 195 -60q111 0 191.5 66t84.5 179q-139 -92 -289 -92q-129 0 -198.5 59t-69.5 136q0 93 82.5 157.5t208.5 64.5q92 0 168.5 -34.5t126.5 -107t50 -171.5q0 -101 -50.5 -178.5t-131 -116.5t-175.5 -39q-138 0 -246 77zM334 282q129 0 276 87
q-18 88 -91 136t-170 48q-87 0 -145.5 -44t-58.5 -102q0 -48 48 -86.5t141 -38.5z" />
    <glyph glyph-name="dollar.pl" horiz-adv-x="695" 
d="M321 733h59v-107q143 -14 241 -89l-50 -57q-69 61 -191 74v-189q40 -2 71.5 -6t71.5 -16t66 -30.5t44.5 -51.5t18.5 -77q0 -99 -76 -149t-196 -52v-133h-59v136q-164 15 -284 123l49 56q104 -93 235 -107v232q-43 3 -74.5 7.5t-67 15.5t-57.5 27.5t-36.5 44t-14.5 64.5
q0 49 22.5 86t60.5 56.5t79.5 29t87.5 9.5v103zM571 173q0 31 -14.5 52.5t-43 33.5t-59 18t-74.5 9v-231q84 2 137.5 31.5t53.5 86.5zM153 456q0 -79 168 -88v190h-1q-72 0 -119.5 -24t-47.5 -78z" />
    <glyph glyph-name="cent.pl" horiz-adv-x="594" 
d="M350 582h58l-23 -107q81 -17 144 -68l-53 -54q-45 37 -106 52l-74 -349h14q92 0 169 70l54 -50q-14 -16 -38 -34t-76 -37t-109 -19q-19 0 -28 1l-29 -137h-59l31 148q-80 23 -130 86.5t-50 151.5q0 110 74.5 179t184.5 69q16 0 25 -1zM132 236q0 -60 29.5 -104t78.5 -63
l74 345h-10q-73 0 -122.5 -49.5t-49.5 -128.5z" />
    <glyph glyph-name="Euro.pl" horiz-adv-x="808" 
d="M57 354v54h101q33 98 119.5 160t194.5 62q160 0 268 -98l-53 -60q-87 81 -215 81q-73 0 -133 -40t-90 -105h308v-54h-325q-4 -20 -4 -47q0 -21 3 -41h326v-55h-310q29 -68 89.5 -109.5t135.5 -41.5q131 0 224 90l53 -60q-117 -107 -277 -107q-110 0 -196.5 64t-118.5 164
h-100v55h87q-2 26 -2 41q0 23 3 47h-88z" />
    <glyph glyph-name="sterling.pl" horiz-adv-x="752" 
d="M66 297v63h144v89q0 88 69.5 134.5t163.5 46.5q48 0 115 -21.5t125 -55.5l-43 -60q-113 60 -197 60q-59 0 -102.5 -27t-43.5 -77v-89h269v-63h-269v-103q0 -57 -19.5 -85.5t-64.5 -38.5h469v-70h-616v70h40q60 0 82 24.5t22 99.5v103h-144z" />
    <glyph glyph-name="yen.pl" horiz-adv-x="799" 
d="M70 354v54h189l-163 205h109l198 -250l196 250h102l-163 -205h191v-54h-233l-54 -68v-20h287v-55h-287v-211h-86v211h-286v55h286v20l-54 68h-232z" />
    <glyph glyph-name="florin.pl" horiz-adv-x="421" 
d="M50 360h116l27 125q11 51 42.5 85.5t66 47.5t71.5 13q31 0 63.5 -9t46.5 -20l-30 -66q-10 9 -35 17t-46 8q-36 0 -63 -19t-36 -57l-27 -125h134v-63h-147l-63 -297q-19 -90 -77.5 -133t-128.5 -43v63q105 15 126 113l63 297h-103v63z" />
    <glyph glyph-name="section.pl" horiz-adv-x="703" 
d="M613 103q-31 -29 -80 -49q11 -7 22 -22q15 -25 15 -57q0 -52 -36 -86.5t-83.5 -47.5t-101.5 -13q-123 0 -216 58l38 60q78 -49 178 -49q31 0 58.5 5.5t51.5 24t24 46.5q0 22 -12 33q-7 7 -18 12t-28.5 9t-29 5.5t-37.5 4.5t-37 4q-170 18 -237 84q-47 45 -47 112
q0 68 49 117q27 29 79 51q-12 9 -19 19q-16 27 -16 61q0 52 36 86.5t83.5 47.5t101.5 13q124 0 216 -59l-38 -59q-78 49 -178 49q-21 0 -42 -3t-43 -11t-36 -24t-14 -38q0 -19 13 -34q6 -5 13 -9t17.5 -7t19 -5t23.5 -4t23 -3t26.5 -3t26.5 -3q172 -18 239 -86
q46 -44 46 -110q0 -68 -50 -120zM377 344q-123 13 -161 28q-33 -14 -53 -34q-40 -40 -40 -91q0 -45 31 -73q44 -44 169 -58q3 0 36.5 -4t46.5 -6t36.5 -7t40.5 -11q30 12 53 33q40 40 40 92q1 42 -29 72q-45 45 -170 59z" />
    <glyph glyph-name="numbersign.pl" horiz-adv-x="901" 
d="M612 666h65l-35 -199h214v-63h-225l-38 -216h204v-63h-215l-40 -229h-65l40 229h-197l-40 -229h-65l40 229h-212v63h223l38 216h-202v63h213l35 199h65l-35 -199h197zM369 404l-38 -216h197l38 216h-197z" />
    <glyph glyph-name="percent.pl" horiz-adv-x="1062" 
d="M44 479q0 77 59 132.5t142 55.5t143.5 -55.5t60.5 -132.5q0 -78 -60.5 -133.5t-143.5 -55.5q-84 0 -142.5 55.5t-58.5 133.5zM751 653l-370 -653h-70l371 653h69zM119 479q0 -50 37 -86t89 -36q53 0 91.5 36t38.5 86t-38.5 86t-91.5 36q-52 0 -89 -36t-37 -86zM613 175
q0 77 59 132.5t142 55.5t143.5 -55.5t60.5 -132.5q0 -78 -60.5 -133.5t-143.5 -55.5q-84 0 -142.5 55.5t-58.5 133.5zM687 175q0 -50 37.5 -86.5t89.5 -36.5q53 0 91 36.5t38 86.5q0 49 -38 85t-91 36q-52 0 -89.5 -35.5t-37.5 -85.5z" />
    <glyph glyph-name="perthousand.pl" horiz-adv-x="1514" 
d="M45 479q0 77 59 132.5t142 55.5t143.5 -55.5t60.5 -132.5q0 -78 -60.5 -133.5t-143.5 -55.5q-84 0 -142.5 55.5t-58.5 133.5zM751 653l-370 -653h-69l370 653h69zM119 479q0 -50 37.5 -86t89.5 -36t90.5 36t38.5 86t-38 86t-91 36q-52 0 -89.5 -36t-37.5 -86zM613 175
q0 77 59 132.5t142 55.5t143.5 -55.5t60.5 -132.5q0 -78 -60.5 -133.5t-143.5 -55.5q-84 0 -142.5 55.5t-58.5 133.5zM688 175q0 -50 37 -86.5t89 -36.5q53 0 91 36.5t38 86.5t-38 85.5t-91 35.5q-52 0 -89 -35.5t-37 -85.5zM1070 175q0 77 59 132.5t142 55.5t143.5 -55.5
t60.5 -132.5q0 -78 -60.5 -133.5t-143.5 -55.5q-84 0 -142.5 55.5t-58.5 133.5zM1145 175q0 -50 37 -86.5t89 -36.5q53 0 91.5 36.5t38.5 86.5t-38.5 85.5t-91.5 35.5q-52 0 -89 -35.5t-37 -85.5z" />
    <glyph glyph-name="zero.numerator" horiz-adv-x="578" 
d="M40 437q0 96 73 163t175 67q103 0 176.5 -67t73.5 -163t-73.5 -163.5t-176.5 -67.5q-102 0 -175 67.5t-73 163.5zM115 437q0 -68 50.5 -115.5t122.5 -47.5t123.5 48t51.5 115t-52 114.5t-123 47.5q-72 0 -122.5 -47.5t-50.5 -114.5z" />
    <glyph glyph-name="one.numerator" horiz-adv-x="309" 
d="M24 535l-17 61l136 57h76v-433h-76v365z" />
    <glyph glyph-name="two.numerator" horiz-adv-x="476" 
d="M94 536l-45 53q35 26 56.5 39t60.5 26t82 13q76 0 130 -31t54 -91q0 -19 -6 -35t-13 -28t-23.5 -23.5t-25.5 -17.5t-32 -14.5t-29.5 -11t-32 -10t-26.5 -7.5q-59 -17 -91.5 -42t-32.5 -70v-5h303v-61h-379v59q0 137 197 186q1 0 10.5 2.5t13 3.5t14 4.5t16 5.5t15 6.5
t15 8t12.5 9.5t10.5 11.5t6 12.5t2.5 15q0 28 -31 41.5t-74 13.5q-83 0 -157 -63z" />
    <glyph glyph-name="three.numerator" horiz-adv-x="539" 
d="M243 418v61h87q22 0 40 15t18 40q0 33 -32.5 49t-74.5 16q-89 0 -167 -70l-46 46q102 92 214 92q68 0 125.5 -30.5t57.5 -89.5q0 -32 -16.5 -55.5t-35.5 -32.5q32 -7 59.5 -32t27.5 -72q0 -70 -66.5 -109.5t-167.5 -39.5q-145 0 -239 90l46 52q79 -74 192 -74
q69 0 114 22.5t45 63.5q0 32 -28.5 45t-62.5 13h-90z" />
    <glyph glyph-name="four.numerator" horiz-adv-x="563" 
d="M532 379v-61h-87v-98h-76v98h-342v53l350 282h68v-274h87zM140 381v-2h229v177h-8q-218 -173 -221 -175z" />
    <glyph glyph-name="five.numerator" horiz-adv-x="519" 
d="M433 653v-67h-289v-113q64 40 145 40q80 0 138 -37.5t58 -105.5q0 -83 -67.5 -123.5t-162.5 -40.5q-123 0 -222 59l39 61q75 -52 183 -52q64 0 109 23.5t45 72.5q0 38 -35.5 58t-85.5 20q-83 0 -166 -48l-48 34v219h359z" />
    <glyph glyph-name="six.numerator" horiz-adv-x="532" 
d="M477 614l-46 -53q-53 38 -136 38q-73 0 -127 -42.5t-58 -115.5q95 63 197 63q90 0 139.5 -41.5t49.5 -96.5q0 -68 -58.5 -114t-148.5 -46q-102 0 -175 59.5t-73 163.5q0 108 74.5 173t181.5 65q94 0 180 -53zM301 443q-85 0 -185 -57q15 -54 63.5 -83t111.5 -29
q55 0 92.5 28t37.5 65q0 29 -30.5 52.5t-89.5 23.5z" />
    <glyph glyph-name="seven.numerator" horiz-adv-x="470" 
d="M31 586v67h411v-67l-252 -366h-99l265 366h-325z" />
    <glyph glyph-name="eight.numerator" horiz-adv-x="535" 
d="M268 205q-93 0 -161 37.5t-68 101.5q0 47 35 77t84 37q-90 14 -90 91q0 56 62 87.5t138 31.5q75 0 137 -31.5t62 -87.5q0 -77 -91 -91q50 -7 85 -37t35 -77q0 -64 -68 -101.5t-160 -37.5zM268 272q58 0 102 21.5t44 57.5t-45.5 56.5t-100.5 20.5q-56 0 -101.5 -20.5
t-45.5 -56.5t44.5 -57.5t102.5 -21.5zM268 484q117 0 117 58q0 31 -36.5 48t-80.5 17q-45 0 -81.5 -17t-36.5 -48q0 -58 118 -58z" />
    <glyph glyph-name="nine.numerator" horiz-adv-x="533" 
d="M56 259l46 53q55 -38 136 -38q74 0 128 42.5t58 114.5q-96 -62 -198 -62q-90 0 -139.5 41.5t-49.5 96.5q0 68 58.5 114t148.5 46q102 0 175 -59.5t73 -163.5q0 -108 -74.5 -173t-181.5 -65q-16 0 -31.5 1.5t-29.5 4t-25 5t-23 7.5t-19.5 7.5t-17.5 8t-13.5 7.5t-12.5 7z
M233 430q87 0 185 57q-15 54 -64 83t-112 29q-55 0 -92.5 -28t-37.5 -65q0 -30 30.5 -53t90.5 -23z" />
    <glyph glyph-name="zero.denominator" horiz-adv-x="578" 
d="M40 217q0 96 73 163t175 67q103 0 176.5 -67t73.5 -163t-73.5 -163.5t-176.5 -67.5q-102 0 -175 67.5t-73 163.5zM115 217q0 -68 50.5 -115.5t122.5 -47.5t123.5 48t51.5 115t-52 114.5t-123 47.5q-72 0 -122.5 -47.5t-50.5 -114.5z" />
    <glyph glyph-name="one.denominator" horiz-adv-x="309" 
d="M24 315l-17 61l136 57h76v-433h-76v365z" />
    <glyph glyph-name="two.denominator" horiz-adv-x="476" 
d="M94 316l-45 53q35 26 56.5 39t60.5 26t82 13q76 0 130 -31t54 -91q0 -19 -6 -35t-13 -28t-23.5 -23.5t-25.5 -17.5t-32 -14.5t-29.5 -11t-32 -10t-26.5 -7.5q-59 -17 -91.5 -42t-32.5 -70v-5h303v-61h-379v59q0 137 197 186q1 0 10.5 2.5t13 3.5t14 4.5t16 5.5t15 6.5
t15 8t12.5 9.5t10.5 11.5t6 12.5t2.5 15q0 28 -31 41.5t-74 13.5q-83 0 -157 -63z" />
    <glyph glyph-name="three.denominator" horiz-adv-x="539" 
d="M242 198v61h87q22 0 40.5 15t18.5 40q0 33 -33 49t-75 16q-88 0 -167 -70l-46 46q104 92 215 92q67 0 124.5 -30.5t57.5 -89.5q0 -32 -16 -55.5t-36 -32.5q32 -7 59.5 -32t27.5 -72q0 -70 -66.5 -109.5t-167.5 -39.5q-143 0 -239 90l46 52q79 -74 192 -74q70 0 115 22.5
t45 63.5q0 32 -29 45t-63 13h-90z" />
    <glyph glyph-name="four.denominator" horiz-adv-x="563" 
d="M532 159v-61h-87v-98h-76v98h-342v53l350 282h68v-274h87zM140 161v-2h229v177h-8q-218 -173 -221 -175z" />
    <glyph glyph-name="five.denominator" horiz-adv-x="519" 
d="M433 433v-67h-289v-113q64 40 145 40q80 0 138 -37.5t58 -105.5q0 -83 -67.5 -123.5t-162.5 -40.5q-123 0 -222 59l39 61q75 -52 183 -52q64 0 109 23.5t45 72.5q0 38 -35.5 58t-85.5 20q-83 0 -166 -48l-48 34v219h359z" />
    <glyph glyph-name="six.denominator" horiz-adv-x="533" 
d="M477 394l-46 -53q-53 38 -136 38q-73 0 -127 -42.5t-58 -115.5q95 63 197 63q90 0 139.5 -41.5t49.5 -96.5q0 -68 -58.5 -114t-148.5 -46q-102 0 -175 59.5t-73 163.5q0 108 74.5 173t181.5 65q94 0 180 -53zM301 223q-85 0 -185 -57q15 -54 63.5 -83t111.5 -29
q55 0 92.5 28t37.5 65q0 29 -30.5 52.5t-89.5 23.5z" />
    <glyph glyph-name="seven.denominator" horiz-adv-x="470" 
d="M31 366v67h411v-67l-252 -366h-99l265 366h-325z" />
    <glyph glyph-name="eight.denominator" horiz-adv-x="535" 
d="M268 -15q-93 0 -161 37.5t-68 101.5q0 47 35 77t84 37q-90 14 -90 91q0 56 62 87.5t138 31.5q75 0 137 -31.5t62 -87.5q0 -77 -91 -91q50 -7 85 -37t35 -77q0 -64 -68 -101.5t-160 -37.5zM268 52q58 0 102 21.5t44 57.5t-45.5 56.5t-100.5 20.5q-56 0 -101.5 -20.5
t-45.5 -56.5t44.5 -57.5t102.5 -21.5zM268 264q117 0 117 58q0 31 -36.5 48t-80.5 17q-45 0 -81.5 -17t-36.5 -48q0 -58 118 -58z" />
    <glyph glyph-name="nine.denominator" horiz-adv-x="533" 
d="M56 39l46 53q55 -38 136 -38q74 0 128 42.5t58 114.5q-96 -62 -198 -62q-90 0 -139.5 41.5t-49.5 96.5q0 68 58.5 114t148.5 46q102 0 175 -59.5t73 -163.5q0 -108 -74.5 -173t-181.5 -65q-16 0 -31.5 1.5t-29.5 4t-25 5t-23 7.5t-19.5 7.5t-17.5 8t-13.5 7.5t-12.5 7z
M233 210q87 0 185 57q-15 54 -64 83t-112 29q-55 0 -92.5 -28t-37.5 -65q0 -30 30.5 -53t90.5 -23z" />
    <glyph glyph-name="fi" horiz-adv-x="620" 
d="M39 469h92v96q0 75 41.5 110.5t96.5 35.5q56 0 92 -20l-15 -66q-24 15 -62 15q-32 0 -52.5 -19t-20.5 -56v-96h138v-62h-138v-407h-80v407h-92v62zM528 0h-80v469h80v-469zM436 641q0 20 15 34t37 14t37.5 -14t15.5 -34t-15.5 -34t-37.5 -14t-37 14t-15 34z" />
    <glyph glyph-name="fl" horiz-adv-x="637" 
d="M39 469h92v96q0 75 41.5 110.5t96.5 35.5q56 0 92 -20l-15 -66q-24 15 -62 15q-32 0 -52.5 -19t-20.5 -56v-96h138v-62h-138v-407h-80v407h-92v62zM537 0h-79v700h79v-700z" />
    <glyph glyph-name="a.superior" horiz-adv-x="459" 
d="M88 474l-25 55q72 43 169 43q68 0 114.5 -24t46.5 -76v-191q0 -35 11 -61h-69q-8 14 -10 44q-66 -54 -144 -54q-64 0 -103 34t-39 86q0 48 44 79.5t122 31.5q79 0 120 -30v42q0 31 -27 46.5t-70 15.5q-39 0 -78.5 -13t-61.5 -28zM196 269q46 0 82 19t47 33v36
q-40 31 -109 31q-107 0 -107 -58q0 -26 23 -43.5t64 -17.5z" />
    <glyph glyph-name="b.superior" horiz-adv-x="476" 
d="M127 220h-64q7 32 7 91v389h69v-181q53 53 118 53q74 0 125.5 -50t51.5 -130q0 -81 -52 -131.5t-128 -50.5q-40 0 -74 19t-47 40q-2 -35 -6 -49zM250 513q-59 0 -111 -49v-146q46 -50 109 -50q46 0 78 34.5t32 89.5q0 54 -31 87.5t-77 33.5z" />
    <glyph glyph-name="d.superior" horiz-adv-x="476" 
d="M413 220h-64q-4 14 -6 49q-14 -22 -47.5 -40.5t-75.5 -18.5q-75 0 -126.5 50.5t-51.5 131.5q0 80 51.5 130t126.5 50q65 0 117 -47v175h69v-389q0 -59 7 -91zM227 513q-46 0 -77.5 -33.5t-31.5 -87.5q0 -55 31.5 -89.5t77.5 -34.5q64 0 110 50v146q-52 49 -110 49z" />
    <glyph glyph-name="e.superior" horiz-adv-x="452" 
d="M355 317l46 -43q-67 -64 -174 -64q-83 0 -134 51t-51 125q0 79 53 132.5t132 53.5q80 0 135 -48.5t49 -145.5h-301q3 -45 35.5 -77t81.5 -32q76 0 128 48zM227 516q-42 0 -71 -23t-40 -62h219q-1 41 -33 63t-75 22z" />
    <glyph glyph-name="h.superior" horiz-adv-x="460" 
d="M139 220h-69v480h69v-181q51 53 114 53q64 0 103.5 -33.5t39.5 -87.5v-231h-70v231q0 27 -22.5 44.5t-57.5 17.5q-58 0 -107 -55v-238z" />
    <glyph glyph-name="i.superior" horiz-adv-x="209" 
d="M139 220h-69v341h69v-341zM60 668q0 16 12.5 27.5t31.5 11.5t32 -11.5t13 -27.5q0 -17 -13 -28t-32 -11t-31.5 11t-12.5 28z" />
    <glyph glyph-name="l.superior" horiz-adv-x="209" 
d="M139 220h-69v480h69v-480z" />
    <glyph glyph-name="m.superior" horiz-adv-x="682" 
d="M140 220h-69v251q0 51 -9 91h62q6 -19 9 -51q51 61 116 61q40 0 71.5 -18.5t47.5 -49.5q47 68 120 68q55 0 92.5 -34t37.5 -87v-231h-69v231q0 26 -20.5 44t-51.5 18q-49 0 -98 -55v-238h-70v235q-2 24 -21.5 41t-49.5 17q-51 0 -98 -55v-238z" />
    <glyph glyph-name="o.superior" horiz-adv-x="465" 
d="M41 392q0 74 56.5 127t134.5 53t135 -52.5t57 -127.5q0 -76 -56.5 -129t-135.5 -53q-78 0 -134.5 53t-56.5 129zM112 392q0 -53 33 -88t87 -35q55 0 88.5 35t33.5 88q0 51 -33.5 86t-88.5 35q-54 0 -87 -35t-33 -86z" />
    <glyph glyph-name="r.superior" horiz-adv-x="310" 
d="M140 220h-69v251q0 47 -10 91h63q6 -23 9 -58q47 68 106 68q38 0 53 -15l-22 -62q-17 12 -47 12q-37 0 -83 -59v-228z" />
    <glyph glyph-name="s.superior" horiz-adv-x="422" 
d="M360 534l-27 -52q-62 36 -137 36q-30 0 -53 -11t-23 -31q0 -13 8 -22t24.5 -13t28.5 -5.5t33 -2.5q26 -1 42.5 -2.5t43.5 -8.5t43 -17.5t28.5 -31t12.5 -49.5q0 -56 -47 -86t-122 -30q-95 0 -176 53l26 51q82 -48 152 -48q43 0 71 15t28 39q0 47 -102 49q-35 1 -59 5
t-51 13.5t-40.5 30.5t-13.5 52q0 54 44 80t103 26q93 0 163 -40z" />
    <glyph glyph-name="t.superior" horiz-adv-x="320" 
d="M34 509v52h68v103h70v-103h101v-52h-101v-205q0 -18 12.5 -28t32.5 -10q41 0 57 8l7 -53q-24 -15 -77 -15q-40 0 -71 24t-31 74v205h-68z" />
    </font>
</defs>
</svg>
