<?xml version="1.0" standalone="no"?>
<!DOCTYPE svg PUBLIC "-//W3C//DTD SVG 1.1//EN" "http://www.w3.org/Graphics/SVG/1.1/DTD/svg11.dtd" >
<svg>
<metadata>
Created by FontForge 20110222 at Mon Apr 28 18:57:38 2014
 By Orthosie Webhosting
Copyright (C) 2011 Markanna Studios Inc.www.SweetFonts.com
</metadata>
<defs>
<font id="SweetSansHairline" horiz-adv-x="645" >
  <font-face 
    font-family="SweetSansHairline"
    font-weight="100"
    font-stretch="normal"
    units-per-em="1000"
    panose-1="2 0 0 0 0 0 0 0 0 0"
    ascent="770"
    descent="-230"
    x-height="430"
    cap-height="653"
    bbox="-80 -302 1488 898"
    underline-thickness="56"
    underline-position="-72"
    unicode-range="U+000D-FB04"
  />
<missing-glyph horiz-adv-x="579" 
d="M579 0h-579v653h579v-653zM289 319l-274 -309h548zM15 643l274 -309l273 309h-547zM296 327l271 -306v612zM282 327l-270 305v-611z" />
    <glyph glyph-name="f_f" unicode="ff" horiz-adv-x="636" 
d="M46 430h100v116q0 84 40.5 124t96.5 40q72 0 113 -48l-8 -6q-40 44 -105 44q-52 0 -88.5 -38t-36.5 -116v-116h291v116q0 84 40.5 124t96.5 40q72 0 113 -48l-8 -6q-40 44 -105 44q-52 0 -88.5 -38t-36.5 -116v-116h172v-10h-172v-420h-12v420h-291v-420h-12v420h-100v10
z" />
    <glyph glyph-name="f_i" unicode="fi" horiz-adv-x="546" 
d="M46 430h100v116q0 83 40 123.5t92 40.5q26 0 52 -9l-4 -9q-24 8 -48 8q-47 0 -83.5 -38t-36.5 -116v-116h172v-10h-172v-420h-12v420h-100v10zM435 0h-12v430h12v-430zM414 643q0 15 15 15t15 -15t-15 -15t-15 15z" />
    <glyph glyph-name="f_l" unicode="fl" horiz-adv-x="581" 
d="M46 430h100v116q0 83 40 123.5t92 40.5q26 0 52 -9l-4 -9q-24 8 -48 8q-47 0 -83.5 -38t-36.5 -116v-116h172v-10h-172v-420h-12v420h-100v10zM457 0h-12v700h12v-700z" />
    <glyph glyph-name="f_f_i" unicode="ffi" horiz-adv-x="849" 
d="M449 0v420h-291v-420h-12v420h-100v10h100v116q0 84 40.5 124t96.5 40q72 0 113 -48l-8 -6q-40 44 -105 44q-52 0 -88.5 -38t-36.5 -116v-116h291v116q0 83 40 123.5t92 40.5q27 0 52 -9l-4 -9q-24 8 -48 8q-47 0 -83.5 -38t-36.5 -116v-116h172v-10h-172v-420h-12z
M726 0v430h12v-430h-12zM732 628q-15 0 -15 15t15 15t15 -15t-15 -15z" />
    <glyph glyph-name="f_f_l" unicode="ffl" horiz-adv-x="884" 
d="M449 0v420h-291v-420h-12v420h-100v10h100v116q0 84 40.5 124t96.5 40q72 0 113 -48l-8 -6q-40 44 -105 44q-52 0 -88.5 -38t-36.5 -116v-116h291v116q0 83 40 123.5t92 40.5q27 0 52 -9l-4 -9q-24 8 -48 8q-47 0 -83.5 -38t-36.5 -116v-116h172v-10h-172v-420h-12z
M748 0v700h12v-700h-12z" />
    <glyph glyph-name=".notdef" horiz-adv-x="579" 
d="M579 0h-579v653h579v-653zM289 319l-274 -309h548zM15 643l274 -309l273 309h-547zM296 327l271 -306v612zM282 327l-270 305v-611z" />
    <glyph glyph-name=".null" horiz-adv-x="289" 
 />
    <glyph glyph-name=".null" horiz-adv-x="289" 
 />
    <glyph glyph-name="nonmarkingreturn" horiz-adv-x="333" 
 />
    <glyph glyph-name="CR" unicode="&#xd;" horiz-adv-x="245" 
 />
    <glyph glyph-name="space" unicode=" " horiz-adv-x="225" 
 />
    <glyph glyph-name="exclam" unicode="!" horiz-adv-x="267" 
d="M139 178h-12v475h12v-475zM108 19q0 9 7 15.5t17 6.5t17 -6.5t7 -15.5t-7 -15.5t-17 -6.5t-17 6.5t-7 15.5z" />
    <glyph glyph-name="quotedbl" unicode="&#x22;" horiz-adv-x="316" 
d="M98 477h-12v176h12v-176zM230 477h-12v176h12v-176z" />
    <glyph glyph-name="numbersign" unicode="#" horiz-adv-x="846" 
d="M591 561h12l-34 -183h210v-10h-212l-43 -238h204v-9h-206l-38 -209h-12l38 209h-225l-38 -209h-13l38 209h-208v9h210l43 238h-201v10h203l34 183h13l-34 -183h225zM330 368l-43 -238h225l43 238h-225z" />
    <glyph glyph-name="dollar" unicode="$" horiz-adv-x="638" 
d="M315 617h12v-94q65 -3 117.5 -25t85.5 -49l-8 -8q-76 65 -195 72v-230h1q31 -1 51.5 -3t53.5 -6.5t54.5 -13.5t44 -23t33.5 -36.5t11 -51.5q0 -74 -71.5 -114.5t-177.5 -42.5v-118h-12v118q-147 1 -255 101l8 8q106 -98 247 -99v270q-40 2 -66 4.5t-59 9.5t-52.5 18.5
t-33 32t-13.5 49.5q0 70 65 104t148 34h11v93zM328 272h-1v-270q101 2 169 39.5t68 107.5q0 27 -10.5 47.5t-31.5 33.5t-41 21t-52.5 12.5t-51 6t-49.5 2.5zM103 386q0 -26 13 -45t31 -29t50 -16.5t55.5 -8.5t62.5 -4v231h-11q-48 0 -91 -11.5t-76.5 -41.5t-33.5 -75z" />
    <glyph glyph-name="percent" unicode="%" horiz-adv-x="973" 
d="M65 400q0 65 51.5 111.5t125.5 46.5q73 0 126 -46.5t53 -111.5q0 -66 -52.5 -112.5t-126.5 -46.5t-125.5 46.5t-51.5 112.5zM657 550l-326 -550h-11l325 550h12zM77 400q0 -62 48 -105.5t117 -43.5t118.5 44t49.5 105t-50 104.5t-118 43.5q-69 0 -117 -43.5t-48 -104.5z
M556 151q0 64 52 111t125 47t126.5 -47t53.5 -111q0 -66 -53 -113t-127 -47q-73 0 -125 47t-52 113zM568 151q0 -62 48 -106t117 -44q68 0 118 44.5t50 105.5q0 60 -50 104t-118 44q-69 0 -117 -44t-48 -104z" />
    <glyph glyph-name="ampersand" unicode="&#x26;" horiz-adv-x="842" 
d="M625 585l-6 -8q-72 36 -153 36q-77 0 -134 -29.5t-57 -83.5q0 -14 5.5 -28t11 -24t19 -24t19.5 -20t22.5 -20t19.5 -16l291 -251q66 55 121 123l10 -6q-57 -71 -123 -124l128 -110h-18l-119 102q-145 -112 -286 -112q-35 0 -72 8.5t-74.5 27.5t-61.5 56.5t-24 87.5
q0 38 15 70t34.5 51t52 36t54 24.5t53.5 16.5q-29 25 -42.5 37t-30.5 40t-17 55q0 59 60.5 91t142.5 32q79 0 159 -38zM376 0q137 0 277 110l-289 250q-34 -10 -53 -16.5t-52.5 -23t-52.5 -34.5t-34.5 -48.5t-15.5 -67.5q0 -47 22.5 -82.5t58 -53.5t70.5 -26t69 -8z" />
    <glyph glyph-name="quotesingle" unicode="'" horiz-adv-x="184" 
d="M98 477h-12v176h12v-176z" />
    <glyph glyph-name="parenleft" unicode="(" horiz-adv-x="341" 
d="M313 -158l-6 -10q-112 52 -175 175t-63 257q0 86 26.5 170t81.5 156t130 107l6 -10q-109 -51 -170.5 -171.5t-61.5 -251.5t61.5 -251t170.5 -171z" />
    <glyph glyph-name="parenright" unicode=")" horiz-adv-x="341" 
d="M28 687l6 10q75 -35 130 -107t81.5 -156t26.5 -170q0 -134 -63 -257t-175 -175l-6 10q109 51 170.5 171t61.5 251t-61.5 251.5t-170.5 171.5z" />
    <glyph glyph-name="asterisk" unicode="*" horiz-adv-x="558" 
d="M73 547l4 10l196 -63v206h12v-206l196 63l4 -10l-197 -64l122 -168l-10 -6l-121 167l-121 -167l-10 6l121 168z" />
    <glyph glyph-name="plus" unicode="+" 
d="M77 240v10h239v240h12v-240h239v-10h-239v-240h-12v240h-239z" />
    <glyph glyph-name="comma" unicode="," horiz-adv-x="297" 
d="M116 -157l-4 8q86 34 86 103q0 26 -12.5 44.5t-32.5 23.5q-16 -4 -20 -4q-14 0 -14 11q0 12 14 12q33 0 54.5 -24t21.5 -62q0 -77 -93 -112z" />
    <glyph glyph-name="hyphen" unicode="-" horiz-adv-x="411" 
d="M77 240v10h257v-10h-257z" />
    <glyph glyph-name="period" unicode="." horiz-adv-x="266" 
d="M109 19q0 9 7 15.5t17 6.5t17 -6.5t7 -15.5t-7 -15.5t-17 -6.5t-17 6.5t-7 15.5z" />
    <glyph glyph-name="slash" unicode="/" horiz-adv-x="466" 
d="M410 653l-343 -772h-12l343 772h12z" />
    <glyph glyph-name="zero" unicode="0" horiz-adv-x="711" 
d="M80 258q0 111 81 190t193 79q113 0 195 -79t82 -190t-82 -190t-195 -79q-112 0 -193 79t-81 190zM92 258q0 -107 77 -182.5t185 -75.5t186.5 75.5t78.5 182.5q0 106 -78.5 182t-186.5 76q-107 0 -184.5 -76t-77.5 -182z" />
    <glyph glyph-name="one" unicode="1" horiz-adv-x="352" 
d="M25 430l-4 10l176 76h12v-516h-12v505z" />
    <glyph glyph-name="two" unicode="2" horiz-adv-x="579" 
d="M104 440l-6 8q35 25 57.5 38.5t62.5 26.5t84 13q82 0 141.5 -35.5t59.5 -100.5q0 -16 -4 -30.5t-13 -26.5t-17 -21t-24.5 -17.5t-26.5 -14t-30.5 -12t-29.5 -9.5t-32 -9t-29 -8q-98 -28 -156 -76.5t-58 -134.5v-21h417v-10h-429v31q0 91 62 142.5t161 79.5q5 1 34 8.5
t39.5 11t35 12.5t35.5 17.5t26 21.5t21 29.5t6 36.5q0 60 -56 92.5t-133 32.5q-42 0 -80.5 -12t-62 -25.5t-55.5 -37.5z" />
    <glyph glyph-name="three" unicode="3" horiz-adv-x="666" 
d="M314 272v10h98q33 0 75 29.5t42 80.5q0 41 -31 70t-72 41t-84 12q-111 0 -219 -91l-8 8q112 94 227 94q75 0 137 -34.5t62 -99.5q0 -44 -29 -72.5t-66 -39.5q23 -4 45 -12t46 -22.5t38.5 -39t14.5 -56.5q0 -73 -75.5 -116.5t-191.5 -43.5q-152 0 -262 95l8 8
q108 -92 255 -92q110 0 182 40.5t72 109.5q0 44 -33 73.5t-65.5 38.5t-56.5 9h-109z" />
    <glyph glyph-name="four" unicode="4" horiz-adv-x="638" 
d="M591 150v-10h-111v-140h-12v140h-430v16l417 360h25v-366h111zM51 153v-3h417v355h-9q-75 -64 -215.5 -185.5t-192.5 -166.5z" />
    <glyph glyph-name="five" unicode="5" horiz-adv-x="625" 
d="M510 516v-10h-387v-213q90 48 191 48q100 0 166.5 -40t66.5 -127q0 -91 -73 -137.5t-173 -46.5q-128 0 -230 83l8 8q95 -80 222 -80q95 0 164.5 44t69.5 129q0 56 -32.5 92.5t-80 50.5t-108.5 14q-95 0 -193 -50l-10 9v226h399z" />
    <glyph glyph-name="six" unicode="6" horiz-adv-x="638" 
d="M524 473l-8 -8q-62 50 -164 50q-105 0 -181.5 -73t-76.5 -194v-5q123 88 258 88q104 0 160.5 -51t56.5 -113q0 -70 -67 -123.5t-163 -53.5q-107 0 -182 69t-75 189q0 126 80 202t190 76q99 0 172 -53zM351 321q-131 0 -257 -90q6 -109 76 -169.5t169 -60.5
q91 0 154.5 50.5t63.5 115.5q0 58 -53.5 106t-152.5 48z" />
    <glyph glyph-name="seven" unicode="7" horiz-adv-x="571" 
d="M66 506v10h439v-10l-311 -506h-15l313 506h-426z" />
    <glyph glyph-name="eight" unicode="8" horiz-adv-x="637" 
d="M318 -10q-92 0 -167.5 43.5t-75.5 114.5q0 59 54 96t132 48q-67 8 -103.5 35.5t-36.5 72.5q0 41 31.5 70.5t75 42.5t90.5 13q75 0 136 -33t61 -93q0 -91 -139 -108q79 -11 133 -48t54 -96q0 -71 -76 -114.5t-169 -43.5zM318 0q88 0 160 40.5t72 107.5q0 45 -37 78t-88 47
t-107 14q-55 0 -106 -14t-88 -47t-37 -78q0 -67 72 -107.5t159 -40.5zM318 298q88 0 136.5 26t48.5 75q0 56 -57 86.5t-128 30.5q-70 0 -127 -30.5t-57 -86.5q0 -49 48.5 -75t135.5 -26z" />
    <glyph glyph-name="nine" unicode="9" horiz-adv-x="634" 
d="M110 43l7 8q64 -50 165 -50q105 0 181.5 73t76.5 194v5q-123 -88 -258 -88q-104 0 -160.5 51t-56.5 113q0 70 66.5 123.5t163.5 53.5q107 0 182 -69t75 -189q0 -126 -80 -202t-190 -76q-102 0 -172 53zM282 195q132 0 257 89q-5 108 -75.5 169.5t-168.5 61.5
q-91 0 -154.5 -50.5t-63.5 -115.5q0 -58 53.5 -106t151.5 -48z" />
    <glyph glyph-name="colon" unicode=":" horiz-adv-x="332" 
d="M142 19q0 9 7 15.5t17 6.5t17 -6.5t7 -15.5t-7 -15.5t-17 -6.5t-17 6.5t-7 15.5zM142 276q0 9 7 15.5t17 6.5t17 -6.5t7 -15.5t-7 -15.5t-17 -6.5t-17 6.5t-7 15.5z" />
    <glyph glyph-name="semicolon" unicode=";" horiz-adv-x="345" 
d="M141 -157l-4 8q86 34 86 103q0 26 -12.5 44.5t-32.5 23.5q-16 -4 -20 -4q-14 0 -14 11q0 12 14 12q33 0 54.5 -24t21.5 -62q0 -77 -93 -112zM144 276q0 9 7 15.5t17 6.5t17 -6.5t7 -15.5t-7 -15.5t-17 -6.5t-17 6.5t-7 15.5z" />
    <glyph glyph-name="less" unicode="&#x3c;" 
d="M567 465v-13l-478 -205v-4l478 -204v-13l-490 211v16z" />
    <glyph glyph-name="equal" unicode="=" 
d="M77 360v10h490v-10h-490zM77 120v10h490v-10h-490z" />
    <glyph glyph-name="greater" unicode="&#x3e;" 
d="M77 452v13l490 -212v-16l-490 -211v13l478 204v4z" />
    <glyph glyph-name="question" unicode="?" horiz-adv-x="616" 
d="M64 555l-8 8q51 47 111 73t151 26q97 0 161 -35t64 -116q0 -49 -26 -78t-83 -64q-75 -47 -115.5 -87.5t-57.5 -103.5h-13q18 67 59 108t121 91q38 24 55.5 37.5t32.5 38.5t15 58q0 52 -32.5 85t-77.5 44.5t-103 11.5q-87 0 -145.5 -25.5t-108.5 -71.5zM234 19q0 9 7 15.5
t17 6.5t17 -6.5t7 -15.5t-7 -15.5t-17 -6.5t-17 6.5t-7 15.5z" />
    <glyph glyph-name="at" unicode="@" horiz-adv-x="1002" 
d="M692 472h13l-102 -310q-4 -11 -4 -22q0 -31 21.5 -49.5t57.5 -18.5q39 0 83 20.5t81.5 56.5t62.5 91t25 117q0 131 -104.5 218t-271.5 87q-126 0 -233.5 -50t-174.5 -146t-67 -217q0 -73 26 -136t68.5 -106t97.5 -73.5t113.5 -44.5t115.5 -14q72 0 155.5 20t125.5 44
l6 -8q-45 -24 -129.5 -45t-157.5 -21q-59 0 -119 14.5t-116.5 46t-100.5 75.5t-70.5 108.5t-26.5 139.5q0 124 68.5 222t179 149.5t239.5 51.5q173 0 280.5 -89.5t107.5 -225.5q0 -64 -26 -121t-66 -94t-85.5 -58.5t-86.5 -21.5q-42 0 -66.5 21t-24.5 57v8q-72 -85 -159 -85
q-59 0 -100 39t-41 113q0 109 82.5 188.5t169.5 79.5q50 0 82.5 -29t40.5 -72zM428 73q84 0 163 94l65 196q-7 45 -37.5 77.5t-79.5 32.5q-82 0 -161 -76.5t-79 -181.5q0 -70 37 -106t92 -36z" />
    <glyph glyph-name="A" unicode="A" horiz-adv-x="746" 
d="M71 0h-12l303 653h22l303 -653h-12l-119 256h-366zM370 643l-176 -377h357l-175 377h-6z" />
    <glyph glyph-name="B" unicode="B" horiz-adv-x="820" 
d="M494 0h-348v653h330q110 0 167 -58q44 -46 44 -103q0 -54 -34.5 -97.5t-88.5 -54.5q65 -6 107 -52.5t42 -108.5q0 -70 -54 -122q-58 -57 -165 -57zM543 333h-385v-323h336q102 0 156 53q51 49 51 117q0 63 -43 106q-47 47 -115 47zM476 643h-318v-300h367q62 0 107 45
q43 43 43 104q0 56 -41 97q-53 54 -158 54z" />
    <glyph glyph-name="C" unicode="C" horiz-adv-x="801" 
d="M726 112l8 -8q-122 -114 -287 -114q-150 0 -256.5 99t-106.5 238t106.5 237.5t256.5 98.5q164 0 278 -104l-8 -8q-112 102 -270 102q-145 0 -248 -96t-103 -230q0 -135 103 -231t248 -96q160 0 279 112z" />
    <glyph glyph-name="D" unicode="D" horiz-adv-x="824" 
d="M369 0h-223v653h223q93 0 155 -25t119 -77q95 -93 95 -224q0 -129 -96 -225q-58 -52 -119 -77t-154 -25zM158 10h211q90 0 149.5 24.5t114.5 74.5q93 93 93 218q0 127 -93 218q-55 49 -115 73.5t-149 24.5h-211v-633z" />
    <glyph glyph-name="E" unicode="E" horiz-adv-x="724" 
d="M462 356v-10h-304v-336h517v-10h-529v653h510v-10h-498v-287h304z" />
    <glyph glyph-name="F" unicode="F" horiz-adv-x="644" 
d="M158 0h-12v653h488v-10h-476v-312h304v-10h-304v-321z" />
    <glyph glyph-name="G" unicode="G" horiz-adv-x="831" 
d="M706 576l-8 -8q-108 85 -252 85q-145 0 -247.5 -95.5t-102.5 -230.5t102.5 -231t247.5 -96q154 0 268 99v222h-235v10h247v-236q-118 -105 -280 -105q-149 0 -255.5 99t-106.5 238t106.5 237.5t255.5 98.5q150 0 260 -87z" />
    <glyph glyph-name="H" unicode="H" horiz-adv-x="851" 
d="M158 0h-12v653h12v-297h535v297h12v-653h-12v346h-535v-346z" />
    <glyph glyph-name="I" unicode="I" horiz-adv-x="304" 
d="M158 0h-12v653h12v-653z" />
    <glyph glyph-name="J" unicode="J" horiz-adv-x="704" 
d="M561 653h12v-421q0 -113 -78 -177.5t-201 -64.5q-47 0 -86 10.5t-64.5 25.5t-47 38t-32.5 41t-23 42l10 4q14 -29 29.5 -51t43.5 -47t71 -39t99 -14q118 0 192.5 61.5t74.5 170.5v421z" />
    <glyph glyph-name="K" unicode="K" horiz-adv-x="724" 
d="M623 653h14l-239 -246l285 -407h-14l-279 398l-232 -239v-159h-12v653h12v-480z" />
    <glyph glyph-name="L" unicode="L" horiz-adv-x="625" 
d="M146 653h12v-643h444v-10h-456v653z" />
    <glyph glyph-name="M" unicode="M" horiz-adv-x="928" 
d="M782 0h-12v643h-5l-292 -485h-18l-292 485h-5v-643h-12v653h25l292 -485h2l292 485h25v-653z" />
    <glyph glyph-name="N" unicode="N" horiz-adv-x="851" 
d="M693 653h12v-653h-19l-527 643h-1v-643h-12v653h19l527 -643h1v643z" />
    <glyph glyph-name="O" unicode="O" horiz-adv-x="867" 
d="M85 328q0 139 101 237t246 98t247.5 -98t102.5 -237q0 -141 -102 -239.5t-248 -98.5q-145 0 -246 98.5t-101 239.5zM97 328q0 -137 97 -232.5t238 -95.5t239.5 95.5t98.5 232.5q0 135 -98.5 230t-239.5 95q-140 0 -237.5 -95t-97.5 -230z" />
    <glyph glyph-name="P" unicode="P" horiz-adv-x="744" 
d="M158 0h-12v653h330q109 0 165 -59q46 -48 46 -111q0 -69 -51 -118q-55 -54 -160 -54h-318v-311zM476 643h-318v-322h318q100 0 151 50q48 47 48 112q0 59 -42 104q-53 56 -157 56z" />
    <glyph glyph-name="Q" unicode="Q" horiz-adv-x="867" 
d="M85 328q0 139 101 237t246 98t247.5 -98t102.5 -237q0 -96 -50 -175t-134 -123l101 -133l-12 -4l-99 132q-72 -35 -156 -35q-145 0 -246 98.5t-101 239.5zM477 172l12 4l103 -138q81 42 129.5 119.5t48.5 170.5q0 135 -98.5 230t-239.5 95q-140 0 -237.5 -95t-97.5 -230
q0 -137 97 -232.5t238 -95.5q78 0 149 33z" />
    <glyph glyph-name="R" unicode="R" horiz-adv-x="808" 
d="M158 0h-12v653h358q110 0 165 -58q46 -49 46 -117q0 -69 -48 -117.5t-129 -49.5l175 -311h-12l-176 311h-367v-311zM504 643h-346v-322h376q78 0 123.5 46t45.5 112q0 65 -43 110q-52 54 -156 54z" />
    <glyph glyph-name="S" unicode="S" horiz-adv-x="754" 
d="M625 568l-8 -8q-41 37 -107.5 65t-148.5 28q-56 0 -107.5 -14.5t-91 -53.5t-39.5 -96q0 -29 10 -51t32.5 -36t42.5 -22.5t57.5 -13.5t59 -6.5t64.5 -3.5q37 -2 60.5 -4t62.5 -7.5t64.5 -17t51.5 -28.5t39 -45.5t13 -64.5q0 -96 -87 -147.5t-216 -51.5q-173 0 -302 127
l8 8q127 -125 294 -125q124 0 207.5 48.5t83.5 140.5q0 34 -12.5 60.5t-37.5 43t-49 27t-62 15.5t-60 7t-58 4q-37 2 -57 3t-54.5 5t-53.5 9.5t-44 16.5t-37.5 25t-22 35.5t-9.5 48.5q0 46 23.5 81.5t61.5 54.5t80 28.5t85 9.5q85 0 154 -28.5t110 -66.5z" />
    <glyph glyph-name="T" unicode="T" horiz-adv-x="573" 
d="M34 643v10h505v-10h-246v-643h-12v643h-247z" />
    <glyph glyph-name="U" unicode="U" horiz-adv-x="821" 
d="M678 653h12v-421q0 -113 -78 -177.5t-202 -64.5q-123 0 -201 64.5t-78 177.5v421h12v-421q0 -109 74.5 -170.5t192.5 -61.5q119 0 193.5 61.5t74.5 170.5v421z" />
    <glyph glyph-name="V" unicode="V" horiz-adv-x="748" 
d="M678 653h12l-305 -653h-22l-306 653h12l302 -643h6z" />
    <glyph glyph-name="W" unicode="W" horiz-adv-x="1008" 
d="M63 653h14l209 -643h3l203 643h24l203 -643h3l209 643h14l-213 -653h-23l-203 643h-4l-203 -643h-23z" />
    <glyph glyph-name="X" unicode="X" horiz-adv-x="673" 
d="M584 653h14l-254 -309l283 -344h-14l-276 336l-277 -336h-14l284 344l-254 309h14l247 -300z" />
    <glyph glyph-name="Y" unicode="Y" horiz-adv-x="652" 
d="M586 653h14l-268 -332v-321h-12v321l-268 332h14l260 -321z" />
    <glyph glyph-name="Z" unicode="Z" horiz-adv-x="694" 
d="M630 10v-10h-586v10l558 633h-504v10h517v-10l-558 -633h573z" />
    <glyph glyph-name="bracketleft" unicode="[" horiz-adv-x="314" 
d="M275 -144v-10h-158v843h158v-10h-146v-823h146z" />
    <glyph glyph-name="backslash" unicode="\" horiz-adv-x="470" 
d="M411 -119l-343 772h12l343 -772h-12z" />
    <glyph glyph-name="bracketright" unicode="]" horiz-adv-x="314" 
d="M39 689h158v-843h-158v10h146v823h-146v10z" />
    <glyph glyph-name="asciicircum" unicode="^" 
d="M116 211h-13l212 402h16l211 -402h-13l-204 390h-4z" />
    <glyph glyph-name="underscore" unicode="_" horiz-adv-x="600" 
d="M-6 -110v10h612v-10h-612z" />
    <glyph glyph-name="grave" unicode="`" horiz-adv-x="500" 
d="M164 676l10 6l100 -146l-10 -6z" />
    <glyph glyph-name="a" unicode="a" horiz-adv-x="586" 
d="M122 376l-6 8q80 56 178 56q74 0 129 -31.5t55 -97.5v-232q0 -49 21 -79h-13q-20 28 -20 84q-30 -32 -94 -63t-134 -31q-82 0 -128.5 41.5t-46.5 104.5q0 65 51.5 107.5t142.5 42.5q151 0 209 -84v109q0 41 -27.5 69t-64.5 39t-80 11q-97 0 -172 -54zM238 0q42 0 85.5 13
t73 31t48.5 33t21 22v87q-54 90 -209 90q-86 0 -134 -39.5t-48 -100.5q0 -58 43 -97t120 -39z" />
    <glyph glyph-name="b" unicode="b" horiz-adv-x="621" 
d="M118 0h-13q8 45 8 81v619h12v-346q92 86 200 86q93 0 158 -62.5t65 -161.5q0 -100 -70 -163t-172 -63q-60 0 -107.5 26.5t-73.5 58.5q-2 -42 -7 -75zM325 430q-104 0 -200 -88v-253q14 -17 34.5 -34.5t62 -36t84.5 -18.5q97 0 163.5 60t66.5 156q0 95 -61.5 154.5
t-149.5 59.5z" />
    <glyph glyph-name="c" unicode="c" horiz-adv-x="563" 
d="M496 368l-8 -8q-76 70 -180 70q-94 0 -158.5 -59.5t-64.5 -154.5q0 -96 66.5 -156t161.5 -60q47 0 89.5 17t62.5 33t32 31l10 -6q-21 -27 -72 -56t-122 -29q-100 0 -170 63t-70 163q0 99 68 161.5t167 62.5q110 0 188 -72z" />
    <glyph glyph-name="d" unicode="d" horiz-adv-x="622" 
d="M517 0h-13q-5 33 -7 75q-27 -32 -77.5 -58.5t-113.5 -26.5q-98 0 -165 63t-67 163q0 99 68 161.5t165 62.5q102 0 190 -86v346h12v-619q0 -36 8 -81zM307 430q-92 0 -156.5 -59.5t-64.5 -154.5q0 -96 63.5 -156t156.5 -60q46 0 89.5 18.5t65 36t36.5 34.5v253
q-91 88 -190 88z" />
    <glyph glyph-name="e" unicode="e" horiz-adv-x="590" 
d="M502 79l8 -6q-79 -83 -204 -83q-104 0 -168.5 62.5t-64.5 155.5q0 97 68.5 164.5t164.5 67.5q82 0 147.5 -51t68.5 -142v-7h-435q-2 -11 -2 -32q0 -89 61 -148.5t160 -59.5q121 0 196 79zM306 430q-80 0 -141.5 -51t-75.5 -129h421q-3 84 -65.5 132t-138.5 48z" />
    <glyph glyph-name="f" unicode="f" horiz-adv-x="333" 
d="M46 430h100v116q0 84 40.5 124t96.5 40q72 0 113 -48l-8 -6q-40 44 -105 44q-52 0 -88.5 -38t-36.5 -116v-116h172v-10h-172v-420h-12v420h-100v10z" />
    <glyph glyph-name="g" unicode="g" horiz-adv-x="623" 
d="M497 -43v119q-92 -86 -200 -86q-93 0 -158 62.5t-65 161.5q0 100 70 163t172 63q60 0 107.5 -26.5t73.5 -58.5q2 42 16 75h13q-17 -40 -17 -81v-392q0 -80 -55.5 -132t-155.5 -52q-123 0 -192 82l10 6q65 -78 182 -78q94 0 146.5 49.5t52.5 124.5zM297 0q104 0 200 88
v253q-14 17 -34.5 34.5t-62 36t-84.5 18.5q-97 0 -163.5 -60t-66.5 -156q0 -95 61.5 -154.5t149.5 -59.5z" />
    <glyph glyph-name="h" unicode="h" horiz-adv-x="605" 
d="M124 0h-12v700h12v-346q92 86 210 86q74 0 120.5 -41.5t46.5 -105.5v-293h-12v293q0 60 -43 98.5t-112 38.5q-108 0 -210 -88v-342z" />
    <glyph glyph-name="i" unicode="i" horiz-adv-x="236" 
d="M124 0h-12v430h12v-430zM103 643q0 15 15 15t15 -15t-15 -15t-15 15z" />
    <glyph glyph-name="j" unicode="j" horiz-adv-x="236" 
d="M-18 -227v10q50 0 90 38.5t40 115.5v493h12v-493q0 -83 -43 -123.5t-99 -40.5zM103 643q0 15 15 15t15 -15t-15 -15t-15 15z" />
    <glyph glyph-name="k" unicode="k" horiz-adv-x="536" 
d="M457 430h18l-182 -143l211 -287h-14l-206 280l-160 -126v-154h-12v700h12v-531z" />
    <glyph glyph-name="l" unicode="l" horiz-adv-x="260" 
d="M136 0h-12v700h12v-700z" />
    <glyph glyph-name="m" unicode="m" horiz-adv-x="881" 
d="M126 0h-12v349q0 41 -17 81h13q14 -36 16 -74q80 84 181 84q98 0 142 -88q31 36 79 62t104 26q65 0 105 -41.5t40 -105.5v-293h-12v293q0 60 -37 98.5t-96 38.5q-91 0 -180 -87v-343h-12v343q-36 87 -133 87q-92 0 -181 -87v-343z" />
    <glyph glyph-name="n" unicode="n" horiz-adv-x="607" 
d="M126 0h-12v349q0 41 -17 81h13q14 -32 16 -76q92 86 210 86q74 0 120.5 -41.5t46.5 -105.5v-293h-12v293q0 60 -43 98.5t-112 38.5q-110 0 -210 -87v-343z" />
    <glyph glyph-name="o" unicode="o" horiz-adv-x="616" 
d="M73 216q0 92 69.5 158t164.5 66t165.5 -66t70.5 -158q0 -94 -70.5 -160t-165.5 -66t-164.5 66t-69.5 160zM85 216q0 -89 66 -152.5t156 -63.5q91 0 157.5 63.5t66.5 152.5q0 88 -66.5 151t-157.5 63q-90 0 -156 -63t-66 -151z" />
    <glyph glyph-name="p" unicode="p" horiz-adv-x="623" 
d="M126 -217h-12v557q0 46 -17 90h13q14 -38 16 -76q91 86 200 86q93 0 158 -62.5t65 -161.5q0 -100 -70 -163t-172 -63q-60 0 -108 26.5t-73 58.5v-292zM126 342v-253q14 -17 34.5 -34.5t62 -36t84.5 -18.5q97 0 163.5 60t66.5 156q0 95 -61.5 154.5t-149.5 59.5
q-104 0 -200 -88z" />
    <glyph glyph-name="q" unicode="q" horiz-adv-x="623" 
d="M509 -217h-12v292q-26 -31 -77 -58t-114 -27q-98 0 -165 63t-67 163q0 99 68 161.5t165 62.5q104 0 190 -86q2 38 16 76h13q-17 -44 -17 -90v-557zM497 89v253q-91 88 -190 88q-92 0 -156.5 -59.5t-64.5 -154.5q0 -96 63.5 -156t156.5 -60q46 0 89.5 18.5t65 36
t36.5 34.5z" />
    <glyph glyph-name="r" unicode="r" horiz-adv-x="380" 
d="M126 0h-12v349q0 41 -17 81h13q14 -35 16 -81q66 91 148 91q56 0 80 -36l-10 -6q-20 32 -70 32q-74 0 -148 -97v-333z" />
    <glyph glyph-name="s" unicode="s" horiz-adv-x="535" 
d="M432 378l-8 -8q-68 61 -168 61q-37 0 -71 -9.5t-60 -35.5t-26 -63q0 -17 6 -30t13.5 -21.5t24.5 -15t27.5 -10t34 -5.5t34 -3t36.5 -2q25 -1 40 -2.5t41.5 -5t43.5 -11t34.5 -19.5t26.5 -31t9 -44q0 -65 -58.5 -99.5t-145.5 -34.5q-111 0 -201 71l8 8q88 -69 193 -69
q82 0 137 32t55 92q0 23 -8 40t-25 28t-32.5 17.5t-40.5 10t-39.5 5t-37.5 2.5q-30 1 -45 2.5t-42 4.5t-41 9.5t-30 16.5t-23 26t-7 38q0 60 52 89t117 29q56 0 102.5 -19.5t73.5 -43.5z" />
    <glyph glyph-name="t" unicode="t" horiz-adv-x="377" 
d="M37 420v10h100v139h12v-139h182v-10h-182v-316q0 -53 27.5 -78.5t62.5 -25.5q57 0 102 37l8 -8q-47 -39 -110 -39q-40 0 -71 27.5t-31 86.5v316h-100z" />
    <glyph glyph-name="u" unicode="u" horiz-adv-x="606" 
d="M481 430h12v-349q0 -42 7 -81h-12q-7 35 -7 75q-93 -85 -210 -85q-74 0 -120.5 41.5t-46.5 105.5v293h12v-293q0 -60 43 -98.5t112 -38.5q110 0 210 87v343z" />
    <glyph glyph-name="v" unicode="v" horiz-adv-x="507" 
d="M444 430h12l-191 -430h-23l-191 430h12l187 -420h7z" />
    <glyph glyph-name="w" unicode="w" horiz-adv-x="756" 
d="M684 430h14l-145 -430h-24l-149 420h-4l-149 -420h-24l-145 430h14l141 -420h4l149 420h24l149 -420h4z" />
    <glyph glyph-name="x" unicode="x" horiz-adv-x="500" 
d="M426 430h14l-183 -210l193 -220h-14l-186 212l-186 -212h-14l193 220l-183 210h14l176 -202z" />
    <glyph glyph-name="y" unicode="y" horiz-adv-x="532" 
d="M471 430h12l-326 -647h-11l102 204l-197 443h12l191 -430h1z" />
    <glyph glyph-name="z" unicode="z" horiz-adv-x="507" 
d="M450 10v-10h-405v10l376 410h-333v10h346v-10l-376 -410h392z" />
    <glyph glyph-name="braceleft" unicode="{" horiz-adv-x="356" 
d="M322 -144v-10q-97 0 -130 31t-33 131v127q0 127 -128 127v28q52 0 90.5 37t38.5 95v103q1 101 34 133t128 32v-10q-87 0 -118 -30t-32 -125v-103q0 -60 -38.5 -99.5t-90.5 -42.5v-8q128 -2 128 -137v-127q0 -94 30.5 -123t120.5 -29z" />
    <glyph glyph-name="bar" unicode="|" horiz-adv-x="350" 
d="M169 -302v1200h12v-1200h-12z" />
    <glyph glyph-name="braceright" unicode="}" horiz-adv-x="356" 
d="M34 -154v10q90 0 120.5 29t30.5 123v127q0 133 128 137v8q-52 3 -90.5 42.5t-38.5 99.5v103q-1 95 -32 125t-118 30v10q95 0 128 -32t34 -133v-103q0 -58 38.5 -95t90.5 -37v-28q-128 0 -128 -127v-127q0 -100 -33 -131t-130 -31z" />
    <glyph glyph-name="asciitilde" unicode="~" 
d="M81 220l-8 6q71 79 134 79q36 0 60.5 -14.5t51.5 -41.5q19 -20 29.5 -29t32.5 -19t47 -10q31 0 68 21.5t66 56.5l10 -6q-31 -37 -70.5 -59.5t-73.5 -22.5q-27 0 -50.5 10.5t-34.5 20t-32 30.5q-18 17 -29 26t-31.5 18t-43.5 9q-59 0 -126 -75z" />
    <glyph glyph-name="nbspace" unicode="&#xa0;" horiz-adv-x="225" 
 />
    <glyph glyph-name="exclamdown" unicode="&#xa1;" horiz-adv-x="246" 
d="M97 259h12v-475h-12v475zM128 418q0 -9 -7 -15.5t-17 -6.5t-17 6.5t-7 15.5t7 15.5t17 6.5t17 -6.5t7 -15.5z" />
    <glyph glyph-name="cent" unicode="&#xa2;" horiz-adv-x="518" 
d="M319 465h12l-22 -97q75 -11 126 -57l-7 -8q-53 45 -121 56l-79 -354q20 -4 46 -4q59 0 100.5 23t60.5 45l10 -6q-11 -13 -29.5 -27.5t-58 -29.5t-83.5 -15q-23 0 -48 5l-27 -122h-11l27 124q-67 16 -110 65.5t-43 118.5q0 84 60 136.5t147 52.5q10 0 28 -2zM74 182
q0 -66 40 -112.5t103 -61.5l78 352q-18 2 -26 2q-82 0 -138.5 -50.5t-56.5 -129.5z" />
    <glyph glyph-name="sterling" unicode="&#xa3;" horiz-adv-x="709" 
d="M71 273v10h153v95q0 71 57 109t135 38q39 0 94.5 -16.5t103.5 -43.5l-6 -8q-106 57 -192 57q-74 0 -127 -34.5t-53 -101.5v-95h275v-10h-275v-134q0 -60 -14 -89.5t-47 -39.5h438v-10h-542v10h35q68 0 93 25.5t25 103.5v134h-153z" />
    <glyph glyph-name="currency" unicode="&#xa4;" horiz-adv-x="731" 
d="M90 258q0 104 73 182l-77 72l8 8l77 -72q82 79 193 79q113 0 195 -80l78 73l8 -8l-78 -73q74 -77 74 -181t-74 -181l78 -73l-8 -8l-78 72q-81 -79 -195 -79q-113 0 -194 79l-76 -72l-8 8l77 72q-73 78 -73 182zM102 258q0 -107 77 -182.5t185 -75.5t186.5 75.5
t78.5 182.5q0 106 -78.5 182t-186.5 76q-107 0 -184.5 -76t-77.5 -182z" />
    <glyph glyph-name="yen" unicode="&#xa5;" horiz-adv-x="691" 
d="M82 316v9h195l-166 191h14l221 -252l220 252h14l-166 -191h195v-9h-203l-54 -63v-41h257v-10h-257v-202h-12v202h-258v10h258v41l-55 63h-203z" />
    <glyph glyph-name="brokenbar" unicode="&#xa6;" horiz-adv-x="350" 
d="M169 378v414h12v-414h-12zM169 -223v420h12v-420h-12z" />
    <glyph glyph-name="section" unicode="&#xa7;" horiz-adv-x="676" 
d="M569 86q-41 -38 -111 -54q25 -8 40 -22q18 -16 18 -47q0 -36 -29.5 -60t-68 -33t-81.5 -9q-110 0 -193 61l8 8q82 -59 186 -59q39 0 74.5 8t63.5 30t28 56q0 25 -15 39q-6 6 -14.5 11t-20.5 8.5t-22.5 6t-28 5t-28.5 3.5t-33 3.5t-33 3.5q-150 18 -206 66q-43 37 -43 94
q0 52 39 91q42 42 112 59q-24 8 -34 17q-22 19 -22 50q0 37 30 61.5t68 33.5t81 9q109 0 192 -62l-7 -8q-81 60 -186 60q-64 0 -115 -23t-51 -71q0 -27 18 -42q8 -7 19.5 -12t22.5 -8t30 -6t30.5 -4.5t36.5 -4.5t36 -4q156 -18 211 -69q40 -37 40 -91q0 -56 -42 -95z
M359 331q-104 11 -134 19q-79 -21 -118 -59q-35 -35 -35 -86q0 -52 39 -86q53 -47 200 -64q105 -11 131 -18q77 18 118 56q39 36 39 88q0 49 -36 83q-54 52 -204 67z" />
    <glyph glyph-name="dieresis" unicode="&#xa8;" horiz-adv-x="500" 
d="M320 571q0 15 15 15t15 -15t-15 -15t-15 15zM150 571q0 15 15 15t15 -15t-15 -15t-15 15z" />
    <glyph glyph-name="copyright" unicode="&#xa9;" horiz-adv-x="1007" 
d="M502 -125q-180 0 -309 117t-129 282t128.5 281.5t309.5 116.5q182 0 311.5 -116.5t129.5 -281.5t-129.5 -282t-311.5 -117zM502 -115q177 0 303 114t126 275t-126 274.5t-303 113.5q-176 0 -301 -113.5t-125 -274.5t125 -275t301 -114zM716 417l-8 -8q-86 70 -188 70
q-105 0 -171.5 -59t-66.5 -146q0 -85 70 -138.5t171 -53.5q63 0 105.5 17t84.5 49l8 -8q-43 -34 -86.5 -51t-111.5 -17q-106 0 -179.5 56.5t-73.5 145.5q0 92 69.5 153.5t180.5 61.5q106 0 196 -72z" />
    <glyph glyph-name="ordfeminine" unicode="&#xaa;" horiz-adv-x="446" 
d="M87 505l-5 8q62 43 143 43q60 0 104 -24t44 -74v-178q0 -36 17 -60h-12q-16 21 -16 63q-25 -25 -75.5 -48t-106.5 -23q-66 0 -103 32t-37 80q0 50 41.5 82t114.5 32q120 0 166 -62v81q0 45 -41 67t-96 22q-79 0 -138 -41zM181 222q44 0 88 16.5t67 33.5t26 25v64
q-43 67 -166 67q-68 0 -106 -29.5t-38 -74.5q0 -43 34 -72.5t95 -29.5z" />
    <glyph glyph-name="guillemotleft" unicode="&#xab;" horiz-adv-x="457" 
d="M185 365h14l-121 -125v-8l121 -124h-14l-119 122v12zM351 365h14l-121 -125v-8l121 -124h-14l-119 122v12z" />
    <glyph glyph-name="logicalnot" unicode="&#xac;" 
d="M567 97h-12v290h-478v10h490v-300z" />
    <glyph glyph-name="registered" unicode="&#xae;" horiz-adv-x="649" 
d="M323 209q-105 0 -177 66.5t-72 162.5q0 94 72 161t177 67q104 0 178 -67.5t74 -160.5q0 -96 -73.5 -162.5t-178.5 -66.5zM230 326h-12v235h151q33 0 56 -18t23 -45q0 -25 -18.5 -43t-49.5 -20l68 -109h-13l-68 108h-137v-108zM369 551h-139v-106h143q29 0 46 15t17 38
q0 22 -19.5 37.5t-47.5 15.5zM323 219q100 0 170 64t70 155q0 90 -70.5 154t-169.5 64q-100 0 -168.5 -64t-68.5 -154q0 -92 68.5 -155.5t168.5 -63.5z" />
    <glyph glyph-name="macron" unicode="&#xaf;" horiz-adv-x="500" 
d="M132 585h236v-10h-236v10z" />
    <glyph glyph-name="degree" unicode="&#xb0;" horiz-adv-x="513" 
d="M253 290q-86 0 -135 48.5t-49 118.5q0 72 48.5 120.5t135.5 48.5t139.5 -49t52.5 -120q0 -70 -52.5 -118.5t-139.5 -48.5zM253 300q81 0 130.5 46t49.5 111q0 67 -49.5 113t-130.5 46t-126.5 -45.5t-45.5 -113.5q0 -66 46 -111.5t126 -45.5z" />
    <glyph glyph-name="plusminus" unicode="&#xb1;" 
d="M77 274v10h239v206h12v-206h239v-10h-239v-206h-12v206h-239zM77 0v10h490v-10h-490z" />
    <glyph glyph-name="two.superior" unicode="&#xb2;" horiz-adv-x="475" 
d="M73 587l-6 8q29 21 50 32.5t56 22t74 10.5q73 0 125 -29.5t52 -83.5q0 -14 -3.5 -26t-11.5 -22t-15.5 -17.5t-21.5 -14.5t-23 -12t-26.5 -10t-26.5 -7.5t-28 -7.5t-25 -7q-188 -50 -188 -175v-18h367v-10h-379v27q0 134 197 186q6 2 30 8t34 9t31 10.5t31 14.5t22.5 18
t18 24.5t5.5 30.5q0 49 -49 75.5t-116 26.5q-38 0 -71.5 -10t-54 -21.5t-48.5 -31.5z" />
    <glyph glyph-name="three.superior" unicode="&#xb3;" horiz-adv-x="551" 
d="M264 447v10h87q29 0 66 24.5t37 66.5q0 50 -51.5 76t-113.5 26q-100 0 -193 -76l-7 8q98 78 200 78q41 0 79.5 -10.5t68 -37t29.5 -63.5t-25.5 -61t-58.5 -33q28 -4 53.5 -14t49 -35t23.5 -60q0 -61 -67 -97t-168 -36q-137 0 -232 79l8 8q93 -77 225 -77q96 0 159 33.5
t63 90.5q0 28 -16.5 49t-40 31.5t-44 15t-35.5 4.5h-96z" />
    <glyph glyph-name="acute" unicode="&#xb4;" horiz-adv-x="500" 
d="M324 682l10 -6l-100 -146l-10 6z" />
    <glyph glyph-name="mu" unicode="&#xb5;" horiz-adv-x="589" 
d="M108 -230h-12v660h12v-299q2 -57 45 -94t110 -37q110 0 210 87v343h12v-349q0 -42 7 -81h-12q-7 35 -7 75q-93 -85 -210 -85q-56 0 -97 24t-58 67v-311z" />
    <glyph glyph-name="mu" unicode="&#x3bc;" horiz-adv-x="589" 
d="M108 -230h-12v660h12v-299q2 -57 45 -94t110 -37q110 0 210 87v343h12v-349q0 -42 7 -81h-12q-7 35 -7 75q-93 -85 -210 -85q-56 0 -97 24t-58 67v-311z" />
    <glyph glyph-name="paragraph" unicode="&#xb6;" horiz-adv-x="816" 
d="M535 -206h-12v484h-242q-90 0 -158.5 48t-68.5 144q0 183 280 183h357v-859h-12v849h-144v-849zM334 643q-268 0 -268 -173q0 -62 34 -104.5t81 -60t100 -17.5h242v355h-189z" />
    <glyph glyph-name="periodcentered" unicode="&#xb7;" 
d="M298 245q0 10 7 16.5t18 6.5q10 0 16.5 -6.5t6.5 -16.5q0 -21 -23 -21q-10 0 -17.5 6t-7.5 15z" />
    <glyph glyph-name="cedilla" unicode="&#xb8;" horiz-adv-x="500" 
d="M269 0h12l-19 -82q38 10 69 10q35 0 60.5 -16.5t25.5 -54.5q0 -40 -40.5 -61t-102.5 -21q-61 0 -152 26l4 10q91 -26 148 -26t94 19t37 53q0 33 -22 47t-52 14q-26 0 -70 -12l-12 9z" />
    <glyph glyph-name="one.superior" unicode="&#xb9;" horiz-adv-x="277" 
d="M10 580l-4 10l155 63h12v-433h-12v422z" />
    <glyph glyph-name="ordmasculine" unicode="&#xba;" horiz-adv-x="469" 
d="M46 385q0 71 56 121t132 50t132.5 -50t56.5 -121t-56.5 -122t-132.5 -51t-132 51t-56 122zM58 385q0 -67 52 -115t124 -48t124.5 48t52.5 115q0 66 -52.5 113.5t-124.5 47.5t-124 -47.5t-52 -113.5z" />
    <glyph glyph-name="guillemotright" unicode="&#xbb;" horiz-adv-x="457" 
d="M258 365h14l119 -123v-12l-119 -122h-14l121 124v8zM92 365h14l119 -123v-12l-119 -122h-14l121 124v8z" />
    <glyph glyph-name="onequarter" unicode="&#xbc;" horiz-adv-x="982" 
d="M10 580l-4 10l155 63h12v-433h-12v422zM575 653l-370 -653h-12l370 653h12zM951 127v-10h-93v-117h-12v117h-379v15l368 301h23v-306h93zM481 130v-3h365v294h-8q-58 -47 -178 -145.5t-179 -145.5z" />
    <glyph glyph-name="onehalf" unicode="&#xbd;" horiz-adv-x="970" 
d="M10 580l-4 10l155 63h12v-433h-12v422zM575 653l-370 -653h-12l370 653h12zM566 367l-6 8q29 21 50 32.5t56 22t74 10.5q73 0 125 -29.5t52 -83.5q0 -14 -3.5 -26t-11.5 -22t-15.5 -17.5t-21.5 -14.5t-23 -12t-26.5 -10t-26.5 -7.5t-28 -7.5t-25 -7q-188 -50 -188 -175
v-18h367v-10h-379v27q0 134 197 186q6 2 30 8t34 9t31 10.5t31 14.5t22.5 18t18 24.5t5.5 30.5q0 49 -49 75.5t-116 26.5q-38 0 -71.5 -10t-54 -21.5t-48.5 -31.5z" />
    <glyph glyph-name="threequarters" unicode="&#xbe;" horiz-adv-x="1261" 
d="M264 447v10h87q29 0 66 24.5t37 66.5q0 50 -51.5 76t-113.5 26q-100 0 -193 -76l-7 8q98 78 200 78q41 0 79.5 -10.5t68 -37t29.5 -63.5t-25.5 -61t-58.5 -33q28 -4 53.5 -14t49 -35t23.5 -60q0 -61 -67 -97t-168 -36q-137 0 -232 79l8 8q93 -77 225 -77q96 0 159 33.5
t63 90.5q0 28 -16.5 49t-40 31.5t-44 15t-35.5 4.5h-96zM854 653l-370 -653h-12l370 653h12zM1230 127v-10h-93v-117h-12v117h-379v15l368 301h23v-306h93zM760 130v-3h365v294h-8q-59 -47 -179 -145.5t-178 -145.5z" />
    <glyph glyph-name="questiondown" unicode="&#xbf;" horiz-adv-x="620" 
d="M560 -118l8 -8q-51 -47 -111 -73t-151 -26q-97 0 -161 35t-64 116q0 49 26 78t83 64q75 47 115.5 87.5t57.5 103.5h13q-18 -67 -59 -108t-121 -91q-38 -24 -55.5 -37.5t-32.5 -38.5t-15 -58q0 -52 32.5 -85t77.5 -44.5t103 -11.5q87 0 145.5 25.5t108.5 71.5zM390 418
q0 -9 -7 -15.5t-17 -6.5t-17 6.5t-7 15.5t7 15.5t17 6.5t17 -6.5t7 -15.5z" />
    <glyph glyph-name="Agrave" unicode="&#xc0;" horiz-adv-x="746" 
d="M409 744l-180 104l6 8l180 -104zM71 0h-12l303 653h22l303 -653h-12l-119 256h-366zM370 643l-176 -377h357l-175 377h-6z" />
    <glyph glyph-name="Aacute" unicode="&#xc1;" horiz-adv-x="746" 
d="M329 752l180 104l6 -8l-180 -104zM71 0h-12l303 653h22l303 -653h-12l-119 256h-366zM370 643l-176 -377h357l-175 377h-6z" />
    <glyph glyph-name="Acircumflex" unicode="&#xc2;" horiz-adv-x="746" 
d="M250 752l119 102h8l119 -102l-8 -8l-115 99l-115 -99zM71 0h-12l303 653h22l303 -653h-12l-119 256h-366zM370 643l-176 -377h357l-175 377h-6z" />
    <glyph glyph-name="Atilde" unicode="&#xc3;" horiz-adv-x="746" 
d="M248 755l-10 6q37 52 68 52q21 0 64 -35q35 -29 63 -29q25 0 58 48l10 -6q-37 -52 -68 -52q-34 0 -71 31q-40 33 -56 33q-25 0 -58 -48zM71 0h-12l303 653h22l303 -653h-12l-119 256h-366zM370 643l-176 -377h357l-175 377h-6z" />
    <glyph glyph-name="Adieresis" unicode="&#xc4;" horiz-adv-x="746" 
d="M458 798q15 0 15 -15t-15 -15t-15 15t15 15zM288 798q15 0 15 -15t-15 -15t-15 15t15 15zM71 0h-12l303 653h22l303 -653h-12l-119 256h-366zM370 643l-176 -377h357l-175 377h-6z" />
    <glyph glyph-name="Aring" unicode="&#xc5;" horiz-adv-x="746" 
d="M287 779q0 -31 23 -51t61 -20t62.5 20.5t24.5 50.5q0 31 -24 51.5t-63 20.5q-38 0 -61 -20.5t-23 -51.5zM371 698q-43 0 -69.5 23t-26.5 58q0 36 26 59t70 23t71.5 -23t27.5 -59q0 -35 -27.5 -58t-71.5 -23zM71 0h-12l303 653h22l303 -653h-12l-119 256h-366zM370 643
l-176 -377h357l-175 377h-6z" />
    <glyph glyph-name="AE" unicode="&#xc6;" horiz-adv-x="1093" 
d="M33 0h-14l484 653h522v-10h-498v-292h304v-10h-304v-331h517v-10h-529v256h-292zM511 643l-280 -377h284v377h-4z" />
    <glyph glyph-name="Ccedilla" unicode="&#xc7;" horiz-adv-x="801" 
d="M726 112l8 -8q-122 -114 -287 -114q-13 0 -19 1l-16 -73q38 10 69 10q35 0 60.5 -16.5t25.5 -54.5q0 -40 -40.5 -61t-102.5 -21q-61 0 -152 26l4 10q91 -26 148 -26t94 19t37 53q0 33 -22 47t-52 14q-26 0 -70 -12l-12 9l17 76q-139 11 -235.5 107.5t-96.5 228.5
q0 139 106.5 237.5t256.5 98.5q164 0 278 -104l-8 -8q-112 102 -270 102q-145 0 -248 -96t-103 -230q0 -135 103 -231t248 -96q160 0 279 112z" />
    <glyph glyph-name="Egrave" unicode="&#xc8;" horiz-adv-x="724" 
d="M439 744l-180 104l6 8l180 -104zM462 356v-10h-304v-336h517v-10h-529v653h510v-10h-498v-287h304z" />
    <glyph glyph-name="Eacute" unicode="&#xc9;" horiz-adv-x="724" 
d="M359 752l180 104l6 -8l-180 -104zM462 356v-10h-304v-336h517v-10h-529v653h510v-10h-498v-287h304z" />
    <glyph glyph-name="Ecircumflex" unicode="&#xca;" horiz-adv-x="724" 
d="M280 752l119 102h8l119 -102l-8 -8l-115 99l-115 -99zM462 356v-10h-304v-336h517v-10h-529v653h510v-10h-498v-287h304z" />
    <glyph glyph-name="Edieresis" unicode="&#xcb;" horiz-adv-x="724" 
d="M488 798q15 0 15 -15t-15 -15t-15 15t15 15zM318 798q15 0 15 -15t-15 -15t-15 15t15 15zM462 356v-10h-304v-336h517v-10h-529v653h510v-10h-498v-287h304z" />
    <glyph glyph-name="Igrave" unicode="&#xcc;" horiz-adv-x="304" 
d="M158 0h-12v653h12v-653zM14 856l180 -104l-6 -8l-180 104z" />
    <glyph glyph-name="Iacute" unicode="&#xcd;" horiz-adv-x="304" 
d="M158 0h-12v653h12v-653zM108 752l180 104l6 -8l-180 -104z" />
    <glyph glyph-name="Icircumflex" unicode="&#xce;" horiz-adv-x="304" 
d="M158 0h-12v653h12v-653zM29 752l119 102h8l119 -102l-8 -8l-115 99l-115 -99z" />
    <glyph glyph-name="Idieresis" unicode="&#xcf;" horiz-adv-x="304" 
d="M158 0h-12v653h12v-653zM237 798q15 0 15 -15t-15 -15t-15 15t15 15zM67 798q15 0 15 -15t-15 -15t-15 15t15 15z" />
    <glyph glyph-name="Eth" unicode="&#xd0;" horiz-adv-x="844" 
d="M66 346v10h100v297h223q93 0 155 -25t119 -77q95 -93 95 -224q0 -129 -96 -225q-58 -52 -119 -77t-154 -25h-223v346h-100zM178 10h211q90 0 149.5 24.5t114.5 74.5q93 93 93 218q0 127 -93 218q-55 49 -115 73.5t-149 24.5h-211v-287h252v-10h-252v-336z" />
    <glyph glyph-name="Ntilde" unicode="&#xd1;" horiz-adv-x="851" 
d="M300 755l-10 6q37 52 68 52q21 0 64 -35q35 -29 63 -29q25 0 58 48l10 -6q-37 -52 -68 -52q-34 0 -71 31q-40 33 -56 33q-25 0 -58 -48zM693 653h12v-653h-19l-527 643h-1v-643h-12v653h19l527 -643h1v643z" />
    <glyph glyph-name="Ograve" unicode="&#xd2;" horiz-adv-x="867" 
d="M469 744l-180 104l6 8l180 -104zM85 328q0 139 101 237t246 98t247.5 -98t102.5 -237q0 -141 -102 -239.5t-248 -98.5q-145 0 -246 98.5t-101 239.5zM97 328q0 -137 97 -232.5t238 -95.5t239.5 95.5t98.5 232.5q0 135 -98.5 230t-239.5 95q-140 0 -237.5 -95t-97.5 -230z
" />
    <glyph glyph-name="Oacute" unicode="&#xd3;" horiz-adv-x="867" 
d="M389 752l180 104l6 -8l-180 -104zM85 328q0 139 101 237t246 98t247.5 -98t102.5 -237q0 -141 -102 -239.5t-248 -98.5q-145 0 -246 98.5t-101 239.5zM97 328q0 -137 97 -232.5t238 -95.5t239.5 95.5t98.5 232.5q0 135 -98.5 230t-239.5 95q-140 0 -237.5 -95t-97.5 -230
z" />
    <glyph glyph-name="Ocircumflex" unicode="&#xd4;" horiz-adv-x="867" 
d="M310 752l119 102h8l119 -102l-8 -8l-115 99l-115 -99zM85 328q0 139 101 237t246 98t247.5 -98t102.5 -237q0 -141 -102 -239.5t-248 -98.5q-145 0 -246 98.5t-101 239.5zM97 328q0 -137 97 -232.5t238 -95.5t239.5 95.5t98.5 232.5q0 135 -98.5 230t-239.5 95
q-140 0 -237.5 -95t-97.5 -230z" />
    <glyph glyph-name="Otilde" unicode="&#xd5;" horiz-adv-x="867" 
d="M308 755l-10 6q37 52 68 52q21 0 64 -35q35 -29 63 -29q25 0 58 48l10 -6q-37 -52 -68 -52q-34 0 -71 31q-40 33 -56 33q-25 0 -58 -48zM85 328q0 139 101 237t246 98t247.5 -98t102.5 -237q0 -141 -102 -239.5t-248 -98.5q-145 0 -246 98.5t-101 239.5zM97 328
q0 -137 97 -232.5t238 -95.5t239.5 95.5t98.5 232.5q0 135 -98.5 230t-239.5 95q-140 0 -237.5 -95t-97.5 -230z" />
    <glyph glyph-name="Odieresis" unicode="&#xd6;" horiz-adv-x="867" 
d="M518 798q15 0 15 -15t-15 -15t-15 15t15 15zM348 798q15 0 15 -15t-15 -15t-15 15t15 15zM85 328q0 139 101 237t246 98t247.5 -98t102.5 -237q0 -141 -102 -239.5t-248 -98.5q-145 0 -246 98.5t-101 239.5zM97 328q0 -137 97 -232.5t238 -95.5t239.5 95.5t98.5 232.5
q0 135 -98.5 230t-239.5 95q-140 0 -237.5 -95t-97.5 -230z" />
    <glyph glyph-name="multiply" unicode="&#xd7;" 
d="M110 449l8 8l204 -205l205 205l7 -7l-205 -205l205 -204l-8 -8l-205 204l-204 -204l-7 7l204 204z" />
    <glyph glyph-name="Oslash" unicode="&#xd8;" horiz-adv-x="867" 
d="M85 328q0 139 101 237t246 98q103 0 190 -54l62 88l10 -6l-62 -88q69 -47 109.5 -119.5t40.5 -155.5q0 -141 -102 -239.5t-248 -98.5q-104 0 -190 54l-62 -88l-10 6l62 89q-69 47 -108 119t-39 158zM770 328q0 81 -38.5 151t-105.5 115l-378 -541q81 -53 184 -53
q141 0 239.5 95.5t98.5 232.5zM97 328q0 -83 37.5 -153.5t103.5 -115.5l378 541q-85 53 -184 53q-140 0 -237.5 -95t-97.5 -230z" />
    <glyph glyph-name="Ugrave" unicode="&#xd9;" horiz-adv-x="821" 
d="M446 744l-180 104l6 8l180 -104zM678 653h12v-421q0 -113 -78 -177.5t-202 -64.5q-123 0 -201 64.5t-78 177.5v421h12v-421q0 -109 74.5 -170.5t192.5 -61.5q119 0 193.5 61.5t74.5 170.5v421z" />
    <glyph glyph-name="Uacute" unicode="&#xda;" horiz-adv-x="821" 
d="M366 752l180 104l6 -8l-180 -104zM678 653h12v-421q0 -113 -78 -177.5t-202 -64.5q-123 0 -201 64.5t-78 177.5v421h12v-421q0 -109 74.5 -170.5t192.5 -61.5q119 0 193.5 61.5t74.5 170.5v421z" />
    <glyph glyph-name="Ucircumflex" unicode="&#xdb;" horiz-adv-x="821" 
d="M287 752l119 102h8l119 -102l-8 -8l-115 99l-115 -99zM678 653h12v-421q0 -113 -78 -177.5t-202 -64.5q-123 0 -201 64.5t-78 177.5v421h12v-421q0 -109 74.5 -170.5t192.5 -61.5q119 0 193.5 61.5t74.5 170.5v421z" />
    <glyph glyph-name="Udieresis" unicode="&#xdc;" horiz-adv-x="821" 
d="M495 798q15 0 15 -15t-15 -15t-15 15t15 15zM325 798q15 0 15 -15t-15 -15t-15 15t15 15zM678 653h12v-421q0 -113 -78 -177.5t-202 -64.5q-123 0 -201 64.5t-78 177.5v421h12v-421q0 -109 74.5 -170.5t192.5 -61.5q119 0 193.5 61.5t74.5 170.5v421z" />
    <glyph glyph-name="Yacute" unicode="&#xdd;" horiz-adv-x="652" 
d="M282 752l180 104l6 -8l-180 -104zM586 653h14l-268 -332v-321h-12v321l-268 332h14l260 -321z" />
    <glyph glyph-name="Thorn" unicode="&#xde;" horiz-adv-x="751" 
d="M146 653h12v-145h318q59 0 91.5 -13t67.5 -43q52 -52 52 -125q0 -74 -53 -125q-34 -29 -67.5 -42.5t-90.5 -13.5h-318v-146h-12v653zM476 498h-318v-342h318q93 0 151 53q48 50 48 118q0 70 -47 117q-30 28 -63 41t-89 13z" />
    <glyph glyph-name="germandbls" unicode="&#xdf;" horiz-adv-x="607" 
d="M315 -10v10q99 0 153.5 49.5t54.5 127.5q0 50 -22 91.5t-57.5 68.5t-60.5 41t-51 24v12q30 9 63 51.5t33 99.5q0 58 -40.5 96.5t-107.5 38.5q-65 0 -110.5 -38t-45.5 -116v-546h-12v546q0 84 49 124t119 40q73 0 116.5 -41t43.5 -104q0 -57 -32 -100t-65 -58
q28 -10 57.5 -27.5t61.5 -45.5t52.5 -69t20.5 -88q0 -83 -57.5 -135t-162.5 -52z" />
    <glyph glyph-name="agrave" unicode="&#xe0;" horiz-adv-x="586" 
d="M122 376l-6 8q80 56 178 56q74 0 129 -31.5t55 -97.5v-232q0 -49 21 -79h-13q-20 28 -20 84q-30 -32 -94 -63t-134 -31q-82 0 -128.5 41.5t-46.5 104.5q0 65 51.5 107.5t142.5 42.5q151 0 209 -84v109q0 41 -27.5 69t-64.5 39t-80 11q-97 0 -172 -54zM238 0q42 0 85.5 13
t73 31t48.5 33t21 22v87q-54 90 -209 90q-86 0 -134 -39.5t-48 -100.5q0 -58 43 -97t120 -39zM207 676l10 6l100 -146l-10 -6z" />
    <glyph glyph-name="aacute" unicode="&#xe1;" horiz-adv-x="586" 
d="M122 376l-6 8q80 56 178 56q74 0 129 -31.5t55 -97.5v-232q0 -49 21 -79h-13q-20 28 -20 84q-30 -32 -94 -63t-134 -31q-82 0 -128.5 41.5t-46.5 104.5q0 65 51.5 107.5t142.5 42.5q151 0 209 -84v109q0 41 -27.5 69t-64.5 39t-80 11q-97 0 -172 -54zM238 0q42 0 85.5 13
t73 31t48.5 33t21 22v87q-54 90 -209 90q-86 0 -134 -39.5t-48 -100.5q0 -58 43 -97t120 -39zM367 682l10 -6l-100 -146l-10 6z" />
    <glyph glyph-name="acircumflex" unicode="&#xe2;" horiz-adv-x="586" 
d="M122 376l-6 8q80 56 178 56q74 0 129 -31.5t55 -97.5v-232q0 -49 21 -79h-13q-20 28 -20 84q-30 -32 -94 -63t-134 -31q-82 0 -128.5 41.5t-46.5 104.5q0 65 51.5 107.5t142.5 42.5q151 0 209 -84v109q0 41 -27.5 69t-64.5 39t-80 11q-97 0 -172 -54zM238 0q42 0 85.5 13
t73 31t48.5 33t21 22v87q-54 90 -209 90q-86 0 -134 -39.5t-48 -100.5q0 -58 43 -97t120 -39zM170 540l119 112h8l119 -112l-8 -8l-115 109l-115 -109z" />
    <glyph glyph-name="atilde" unicode="&#xe3;" horiz-adv-x="586" 
d="M122 376l-6 8q80 56 178 56q74 0 129 -31.5t55 -97.5v-232q0 -49 21 -79h-13q-20 28 -20 84q-30 -32 -94 -63t-134 -31q-82 0 -128.5 41.5t-46.5 104.5q0 65 51.5 107.5t142.5 42.5q151 0 209 -84v109q0 41 -27.5 69t-64.5 39t-80 11q-97 0 -172 -54zM238 0q42 0 85.5 13
t73 31t48.5 33t21 22v87q-54 90 -209 90q-86 0 -134 -39.5t-48 -100.5q0 -58 43 -97t120 -39zM168 543l-10 6q37 52 68 52q21 0 64 -35q35 -29 63 -29q25 0 58 48l10 -6q-37 -52 -68 -52q-34 0 -71 31q-40 33 -56 33q-25 0 -58 -48z" />
    <glyph glyph-name="adieresis" unicode="&#xe4;" horiz-adv-x="586" 
d="M122 376l-6 8q80 56 178 56q74 0 129 -31.5t55 -97.5v-232q0 -49 21 -79h-13q-20 28 -20 84q-30 -32 -94 -63t-134 -31q-82 0 -128.5 41.5t-46.5 104.5q0 65 51.5 107.5t142.5 42.5q151 0 209 -84v109q0 41 -27.5 69t-64.5 39t-80 11q-97 0 -172 -54zM238 0q42 0 85.5 13
t73 31t48.5 33t21 22v87q-54 90 -209 90q-86 0 -134 -39.5t-48 -100.5q0 -58 43 -97t120 -39zM363 571q0 15 15 15t15 -15t-15 -15t-15 15zM193 571q0 15 15 15t15 -15t-15 -15t-15 15z" />
    <glyph glyph-name="aring" unicode="&#xe5;" horiz-adv-x="586" 
d="M122 376l-6 8q80 56 178 56q74 0 129 -31.5t55 -97.5v-232q0 -49 21 -79h-13q-20 28 -20 84q-30 -32 -94 -63t-134 -31q-82 0 -128.5 41.5t-46.5 104.5q0 65 51.5 107.5t142.5 42.5q151 0 209 -84v109q0 41 -27.5 69t-64.5 39t-80 11q-97 0 -172 -54zM238 0q42 0 85.5 13
t73 31t48.5 33t21 22v87q-54 90 -209 90q-86 0 -134 -39.5t-48 -100.5q0 -58 43 -97t120 -39zM207 606q0 -31 23 -51t61 -20t62.5 20.5t24.5 50.5q0 31 -24 51.5t-63 20.5q-38 0 -61 -20.5t-23 -51.5zM195 606q0 36 26 59t70 23t71.5 -23t27.5 -59q0 -35 -27.5 -58
t-71.5 -23q-43 0 -69.5 23t-26.5 58z" />
    <glyph glyph-name="ae" unicode="&#xe6;" horiz-adv-x="983" 
d="M238 0q84 0 158.5 38.5t93.5 66.5q-20 37 -23 80q-30 48 -87.5 69.5t-122.5 21.5q-86 0 -134 -39.5t-48 -100.5q0 -58 43 -97t120 -39zM699 -10q-70 0 -123 28.5t-81 77.5q-39 -40 -108 -73t-149 -33q-82 0 -128.5 41.5t-46.5 104.5q0 65 51.5 107.5t142.5 42.5
q151 0 209 -84v109q0 41 -27.5 69t-64.5 39t-80 11q-97 0 -172 -54l-6 8q80 56 178 56q74 0 128.5 -31.5t54.5 -97.5v-39q21 77 82.5 122.5t139.5 45.5q84 0 150 -53t66 -147h-435q-2 -16 -2 -41q3 -86 64 -142.5t157 -56.5q121 0 196 79l8 -6q-79 -83 -204 -83zM482 250
h421q-3 84 -65 132t-139 48q-80 0 -141.5 -51t-75.5 -129z" />
    <glyph glyph-name="ccedilla" unicode="&#xe7;" horiz-adv-x="563" 
d="M496 368l-8 -8q-76 70 -180 70q-94 0 -158.5 -59.5t-64.5 -154.5q0 -96 66.5 -156t161.5 -60q47 0 89.5 17t62.5 33t32 31l10 -6q-21 -27 -72 -56t-122 -29h-12l-16 -72q38 10 69 10q35 0 60.5 -16.5t25.5 -54.5q0 -40 -40.5 -61t-102.5 -21q-61 0 -152 26l4 10
q91 -26 148 -26t94 19t37 53q0 33 -22 47t-52 14q-26 0 -70 -12l-12 9l18 76q-92 8 -154.5 69.5t-62.5 155.5q0 99 68 161.5t167 62.5q110 0 188 -72z" />
    <glyph glyph-name="egrave" unicode="&#xe8;" horiz-adv-x="590" 
d="M502 79l8 -6q-79 -83 -204 -83q-104 0 -168.5 62.5t-64.5 155.5q0 97 68.5 164.5t164.5 67.5q82 0 147.5 -51t68.5 -142v-7h-435q-2 -11 -2 -32q0 -89 61 -148.5t160 -59.5q121 0 196 79zM306 430q-80 0 -141.5 -51t-75.5 -129h421q-3 84 -65.5 132t-138.5 48zM218 676
l10 6l100 -146l-10 -6z" />
    <glyph glyph-name="eacute" unicode="&#xe9;" horiz-adv-x="590" 
d="M502 79l8 -6q-79 -83 -204 -83q-104 0 -168.5 62.5t-64.5 155.5q0 97 68.5 164.5t164.5 67.5q82 0 147.5 -51t68.5 -142v-7h-435q-2 -11 -2 -32q0 -89 61 -148.5t160 -59.5q121 0 196 79zM306 430q-80 0 -141.5 -51t-75.5 -129h421q-3 84 -65.5 132t-138.5 48zM378 682
l10 -6l-100 -146l-10 6z" />
    <glyph glyph-name="ecircumflex" unicode="&#xea;" horiz-adv-x="590" 
d="M502 79l8 -6q-79 -83 -204 -83q-104 0 -168.5 62.5t-64.5 155.5q0 97 68.5 164.5t164.5 67.5q82 0 147.5 -51t68.5 -142v-7h-435q-2 -11 -2 -32q0 -89 61 -148.5t160 -59.5q121 0 196 79zM306 430q-80 0 -141.5 -51t-75.5 -129h421q-3 84 -65.5 132t-138.5 48zM181 540
l119 112h8l119 -112l-8 -8l-115 109l-115 -109z" />
    <glyph glyph-name="edieresis" unicode="&#xeb;" horiz-adv-x="590" 
d="M502 79l8 -6q-79 -83 -204 -83q-104 0 -168.5 62.5t-64.5 155.5q0 97 68.5 164.5t164.5 67.5q82 0 147.5 -51t68.5 -142v-7h-435q-2 -11 -2 -32q0 -89 61 -148.5t160 -59.5q121 0 196 79zM306 430q-80 0 -141.5 -51t-75.5 -129h421q-3 84 -65.5 132t-138.5 48zM374 571
q0 15 15 15t15 -15t-15 -15t-15 15zM204 571q0 15 15 15t15 -15t-15 -15t-15 15z" />
    <glyph glyph-name="igrave" unicode="&#xec;" horiz-adv-x="236" 
d="M124 0h-12v430h12v-430zM32 676l10 6l100 -146l-10 -6z" />
    <glyph glyph-name="iacute" unicode="&#xed;" horiz-adv-x="236" 
d="M124 0h-12v430h12v-430zM192 682l10 -6l-100 -146l-10 6z" />
    <glyph glyph-name="icircumflex" unicode="&#xee;" horiz-adv-x="236" 
d="M124 0h-12v430h12v-430zM-5 540l119 112h8l119 -112l-8 -8l-115 109l-115 -109z" />
    <glyph glyph-name="idieresis" unicode="&#xef;" horiz-adv-x="236" 
d="M124 0h-12v430h12v-430zM188 571q0 15 15 15t15 -15t-15 -15t-15 15zM18 571q0 15 15 15t15 -15t-15 -15t-15 15z" />
    <glyph glyph-name="eth" unicode="&#xf0;" horiz-adv-x="627" 
d="M195 526l-4 9l173 63q-53 42 -168 87l4 10q115 -43 176 -92l112 41l4 -9l-107 -39q24 -21 39 -38q48 -54 78.5 -135.5t30.5 -180.5q0 -119 -58 -181q-66 -71 -168 -71q-94 0 -164 66.5t-70 159.5t69.5 158.5t163.5 65.5q75 0 137.5 -40.5t76.5 -112.5q-20 172 -109 268
q-16 18 -38 36zM85 215q0 -89 66 -152t157 -63q97 0 159 68q54 59 54 156q0 94 -63 150t-152 56t-155 -63t-66 -152z" />
    <glyph glyph-name="ntilde" unicode="&#xf1;" horiz-adv-x="607" 
d="M126 0h-12v349q0 41 -17 81h13q14 -32 16 -76q92 86 210 86q74 0 120.5 -41.5t46.5 -105.5v-293h-12v293q0 60 -43 98.5t-112 38.5q-110 0 -210 -87v-343zM178 543l-10 6q37 52 68 52q21 0 64 -35q35 -29 63 -29q25 0 58 48l10 -6q-37 -52 -68 -52q-34 0 -71 31
q-40 33 -56 33q-25 0 -58 -48z" />
    <glyph glyph-name="ograve" unicode="&#xf2;" horiz-adv-x="616" 
d="M73 216q0 92 69.5 158t164.5 66t165.5 -66t70.5 -158q0 -94 -70.5 -160t-165.5 -66t-164.5 66t-69.5 160zM85 216q0 -89 66 -152.5t156 -63.5q91 0 157.5 63.5t66.5 152.5q0 88 -66.5 151t-157.5 63q-90 0 -156 -63t-66 -151zM221 676l10 6l100 -146l-10 -6z" />
    <glyph glyph-name="oacute" unicode="&#xf3;" horiz-adv-x="616" 
d="M73 216q0 92 69.5 158t164.5 66t165.5 -66t70.5 -158q0 -94 -70.5 -160t-165.5 -66t-164.5 66t-69.5 160zM85 216q0 -89 66 -152.5t156 -63.5q91 0 157.5 63.5t66.5 152.5q0 88 -66.5 151t-157.5 63q-90 0 -156 -63t-66 -151zM381 682l10 -6l-100 -146l-10 6z" />
    <glyph glyph-name="ocircumflex" unicode="&#xf4;" horiz-adv-x="616" 
d="M73 216q0 92 69.5 158t164.5 66t165.5 -66t70.5 -158q0 -94 -70.5 -160t-165.5 -66t-164.5 66t-69.5 160zM85 216q0 -89 66 -152.5t156 -63.5q91 0 157.5 63.5t66.5 152.5q0 88 -66.5 151t-157.5 63q-90 0 -156 -63t-66 -151zM184 540l119 112h8l119 -112l-8 -8l-115 109
l-115 -109z" />
    <glyph glyph-name="otilde" unicode="&#xf5;" horiz-adv-x="616" 
d="M73 216q0 92 69.5 158t164.5 66t165.5 -66t70.5 -158q0 -94 -70.5 -160t-165.5 -66t-164.5 66t-69.5 160zM85 216q0 -89 66 -152.5t156 -63.5q91 0 157.5 63.5t66.5 152.5q0 88 -66.5 151t-157.5 63q-90 0 -156 -63t-66 -151zM182 543l-10 6q37 52 68 52q21 0 64 -35
q35 -29 63 -29q25 0 58 48l10 -6q-37 -52 -68 -52q-34 0 -71 31q-40 33 -56 33q-25 0 -58 -48z" />
    <glyph glyph-name="odieresis" unicode="&#xf6;" horiz-adv-x="616" 
d="M73 216q0 92 69.5 158t164.5 66t165.5 -66t70.5 -158q0 -94 -70.5 -160t-165.5 -66t-164.5 66t-69.5 160zM85 216q0 -89 66 -152.5t156 -63.5q91 0 157.5 63.5t66.5 152.5q0 88 -66.5 151t-157.5 63q-90 0 -156 -63t-66 -151zM377 571q0 15 15 15t15 -15t-15 -15t-15 15z
M207 571q0 15 15 15t15 -15t-15 -15t-15 15z" />
    <glyph glyph-name="divide" unicode="&#xf7;" 
d="M77 240v10h490v-10h-490zM298 18q0 10 7 16.5t18 6.5q10 0 16.5 -6.5t6.5 -16.5q0 -21 -23 -21q-10 0 -17.5 6t-7.5 15zM298 472q0 9 7.5 15t17.5 6q23 0 23 -21q0 -10 -6.5 -16.5t-16.5 -6.5q-11 0 -18 6.5t-7 16.5z" />
    <glyph glyph-name="oslash" unicode="&#xf8;" horiz-adv-x="616" 
d="M132 -43l-8 6l48 69q-46 32 -72.5 80t-26.5 104q0 92 69.5 158t164.5 66q68 0 126 -36l49 69l8 -6l-48 -69q46 -31 73.5 -79t27.5 -103q0 -94 -70.5 -160t-165.5 -66q-68 0 -126 36zM531 216q0 52 -26 97.5t-69 75.5l-249 -354q56 -35 120 -35q91 0 157.5 63.5
t66.5 152.5zM85 216q0 -54 25 -100t68 -76l249 355q-56 35 -120 35q-90 0 -156 -63t-66 -151z" />
    <glyph glyph-name="ugrave" unicode="&#xf9;" horiz-adv-x="606" 
d="M481 430h12v-349q0 -42 7 -81h-12q-7 35 -7 75q-93 -85 -210 -85q-74 0 -120.5 41.5t-46.5 105.5v293h12v-293q0 -60 43 -98.5t112 -38.5q110 0 210 87v343zM217 676l10 6l100 -146l-10 -6z" />
    <glyph glyph-name="uacute" unicode="&#xfa;" horiz-adv-x="606" 
d="M481 430h12v-349q0 -42 7 -81h-12q-7 35 -7 75q-93 -85 -210 -85q-74 0 -120.5 41.5t-46.5 105.5v293h12v-293q0 -60 43 -98.5t112 -38.5q110 0 210 87v343zM377 682l10 -6l-100 -146l-10 6z" />
    <glyph glyph-name="ucircumflex" unicode="&#xfb;" horiz-adv-x="606" 
d="M481 430h12v-349q0 -42 7 -81h-12q-7 35 -7 75q-93 -85 -210 -85q-74 0 -120.5 41.5t-46.5 105.5v293h12v-293q0 -60 43 -98.5t112 -38.5q110 0 210 87v343zM180 540l119 112h8l119 -112l-8 -8l-115 109l-115 -109z" />
    <glyph glyph-name="udieresis" unicode="&#xfc;" horiz-adv-x="606" 
d="M481 430h12v-349q0 -42 7 -81h-12q-7 35 -7 75q-93 -85 -210 -85q-74 0 -120.5 41.5t-46.5 105.5v293h12v-293q0 -60 43 -98.5t112 -38.5q110 0 210 87v343zM373 571q0 15 15 15t15 -15t-15 -15t-15 15zM203 571q0 15 15 15t15 -15t-15 -15t-15 15z" />
    <glyph glyph-name="yacute" unicode="&#xfd;" horiz-adv-x="532" 
d="M471 430h12l-326 -647h-11l102 204l-197 443h12l191 -430h1zM340 682l10 -6l-100 -146l-10 6z" />
    <glyph glyph-name="thorn" unicode="&#xfe;" horiz-adv-x="623" 
d="M106 342v-253q14 -17 34.5 -34.5t62 -36t84.5 -18.5q97 0 163.5 60t66.5 156q0 95 -61.5 154.5t-149.5 59.5q-104 0 -200 -88zM106 700v-346q91 86 200 86q93 0 158 -62.5t65 -161.5q0 -100 -70 -163t-172 -63q-60 0 -108 26.5t-73 58.5v-292h-12v917h12z" />
    <glyph glyph-name="ydieresis" unicode="&#xff;" horiz-adv-x="532" 
d="M471 430h12l-326 -647h-11l102 204l-197 443h12l191 -430h1zM336 571q0 15 15 15t15 -15t-15 -15t-15 15zM166 571q0 15 15 15t15 -15t-15 -15t-15 15z" />
    <glyph glyph-name="dotlessi" unicode="&#x131;" horiz-adv-x="236" 
d="M124 0h-12v430h12v-430z" />
    <glyph glyph-name="Lslash" unicode="&#x141;" horiz-adv-x="635" 
d="M156 653h12v-322l198 115l5 -8l-203 -117v-311h444v-10h-456v314l-100 -58l-5 8l105 60v329z" />
    <glyph glyph-name="lslash" unicode="&#x142;" horiz-adv-x="286" 
d="M149 0h-12v361l-92 -53l-6 9l98 57v326h12v-319l101 59l6 -9l-107 -63v-368z" />
    <glyph glyph-name="OE" unicode="&#x152;" horiz-adv-x="1348" 
d="M1299 10v-10h-529v249q-28 -117 -122 -188t-216 -71q-145 0 -246 98.5t-101 239.5q0 139 101 237t246 98q122 0 216 -70.5t122 -186.5v247h510v-10h-498v-292h304v-10h-304v-331h517zM97 328q0 -137 97 -232.5t238 -95.5t239.5 95.5t98.5 232.5q0 135 -98.5 230
t-239.5 95q-140 0 -237.5 -95t-97.5 -230z" />
    <glyph glyph-name="oe" unicode="&#x153;" horiz-adv-x="1048" 
d="M960 79l8 -6q-79 -83 -204 -83q-91 0 -153.5 50.5t-75.5 129.5q-16 -77 -82 -128.5t-146 -51.5q-95 0 -164.5 66t-69.5 160q0 92 69.5 158t164.5 66q82 0 149 -53.5t81 -133.5q15 81 80 134t147 53q84 0 150 -53t66 -147h-435q-2 -16 -2 -34q1 -88 62 -147t159 -59
q121 0 196 79zM85 216q0 -89 66 -152.5t156 -63.5t157 62.5t67 153.5q0 88 -66.5 151t-157.5 63q-90 0 -156 -63t-66 -151zM764 430q-80 0 -141.5 -51t-75.5 -129h421q-3 84 -65.5 132t-138.5 48z" />
    <glyph glyph-name="Scaron" unicode="&#x160;" horiz-adv-x="754" 
d="M262 856l115 -99l115 99l8 -8l-119 -102h-8l-119 102zM625 568l-8 -8q-41 37 -107.5 65t-148.5 28q-56 0 -107.5 -14.5t-91 -53.5t-39.5 -96q0 -29 10 -51t32.5 -36t42.5 -22.5t57.5 -13.5t59 -6.5t64.5 -3.5q37 -2 60.5 -4t62.5 -7.5t64.5 -17t51.5 -28.5t39 -45.5
t13 -64.5q0 -96 -87 -147.5t-216 -51.5q-173 0 -302 127l8 8q127 -125 294 -125q124 0 207.5 48.5t83.5 140.5q0 34 -12.5 60.5t-37.5 43t-49 27t-62 15.5t-60 7t-58 4q-37 2 -57 3t-54.5 5t-53.5 9.5t-44 16.5t-37.5 25t-22 35.5t-9.5 48.5q0 46 23.5 81.5t61.5 54.5
t80 28.5t85 9.5q85 0 154 -28.5t110 -66.5z" />
    <glyph glyph-name="scaron" unicode="&#x161;" horiz-adv-x="535" 
d="M432 378l-8 -8q-68 61 -168 61q-37 0 -71 -9.5t-60 -35.5t-26 -63q0 -17 6 -30t13.5 -21.5t24.5 -15t27.5 -10t34 -5.5t34 -3t36.5 -2q25 -1 40 -2.5t41.5 -5t43.5 -11t34.5 -19.5t26.5 -31t9 -44q0 -65 -58.5 -99.5t-145.5 -34.5q-111 0 -201 71l8 8q88 -69 193 -69
q82 0 137 32t55 92q0 23 -8 40t-25 28t-32.5 17.5t-40.5 10t-39.5 5t-37.5 2.5q-30 1 -45 2.5t-42 4.5t-41 9.5t-30 16.5t-23 26t-7 38q0 60 52 89t117 29q56 0 102.5 -19.5t73.5 -43.5zM143 646l8 8l115 -109l115 109l8 -8l-119 -112h-8z" />
    <glyph glyph-name="Ydieresis" unicode="&#x178;" horiz-adv-x="652" 
d="M411 798q15 0 15 -15t-15 -15t-15 15t15 15zM241 798q15 0 15 -15t-15 -15t-15 15t15 15zM586 653h14l-268 -332v-321h-12v321l-268 332h14l260 -321z" />
    <glyph glyph-name="Zcaron" unicode="&#x17d;" horiz-adv-x="694" 
d="M232 856l115 -99l115 99l8 -8l-119 -102h-8l-119 102zM630 10v-10h-586v10l558 633h-504v10h517v-10l-558 -633h573z" />
    <glyph glyph-name="zcaron" unicode="&#x17e;" horiz-adv-x="507" 
d="M450 10v-10h-405v10l376 410h-333v10h346v-10l-376 -410h392zM131 646l8 8l115 -109l115 109l8 -8l-119 -112h-8z" />
    <glyph glyph-name="florin" unicode="&#x192;" horiz-adv-x="468" 
d="M63 283h97l23 104q16 70 61.5 104t94.5 34q29 0 56.5 -12.5t38.5 -27.5l-8 -7q-11 15 -36 26t-53 11q-44 0 -85.5 -31.5t-55.5 -96.5l-23 -104h132v-10h-134l-61 -273q-16 -70 -61.5 -104t-93.5 -34v9q44 1 86.5 33t56.5 96l60 273h-95v10z" />
    <glyph glyph-name="circumflex" unicode="&#x2c6;" horiz-adv-x="500" 
d="M127 540l119 112h8l119 -112l-8 -8l-115 109l-115 -109z" />
    <glyph glyph-name="caron" unicode="&#x2c7;" horiz-adv-x="500" 
d="M127 646l8 8l115 -109l115 109l8 -8l-119 -112h-8z" />
    <glyph glyph-name="breve" unicode="&#x2d8;" horiz-adv-x="500" 
d="M138 647h12q0 -45 22.5 -78.5t77.5 -33.5t77.5 33.5t22.5 78.5h12q0 -49 -25 -85.5t-87 -36.5t-87 36.5t-25 85.5z" />
    <glyph glyph-name="dotaccent" unicode="&#x2d9;" horiz-adv-x="500" 
d="M235 571q0 15 15 15t15 -15t-15 -15t-15 15z" />
    <glyph glyph-name="ring" unicode="&#x2da;" horiz-adv-x="500" 
d="M164 606q0 -31 23 -51t61 -20t62.5 20.5t24.5 50.5q0 31 -24 51.5t-63 20.5q-38 0 -61 -20.5t-23 -51.5zM152 606q0 36 26 59t70 23t71.5 -23t27.5 -59q0 -35 -27.5 -58t-71.5 -23q-43 0 -69.5 23t-26.5 58z" />
    <glyph glyph-name="ogonek" unicode="&#x2db;" horiz-adv-x="500" 
d="M256 9l4 -8q-21 -9 -42.5 -20t-49.5 -29t-45 -42t-17 -48q0 -36 33 -56.5t88 -20.5q31 0 73 7l2 -10q-42 -7 -75 -7q-61 0 -97 23t-36 64q0 27 18 52.5t47.5 44.5t52 30t44.5 20z" />
    <glyph glyph-name="tilde" unicode="&#x2dc;" horiz-adv-x="500" 
d="M125 543l-10 6q37 52 68 52q21 0 64 -35q35 -29 63 -29q25 0 58 48l10 -6q-37 -52 -68 -52q-34 0 -71 31q-40 33 -56 33q-25 0 -58 -48z" />
    <glyph glyph-name="hungarumlaut" unicode="&#x2dd;" horiz-adv-x="500" 
d="M163 523l-10 6l76 131l10 -6zM319 523l-10 6l76 131l10 -6z" />
    <glyph glyph-name="Delta" unicode="&#x394;" horiz-adv-x="736" 
d="M677 0h-618v10l298 643h22l298 -643v-10zM365 643l-295 -633h595l-294 633h-6z" />
    <glyph glyph-name="Delta" unicode="&#x2206;" horiz-adv-x="736" 
d="M677 0h-618v10l298 643h22l298 -643v-10zM365 643l-295 -633h595l-294 633h-6z" />
    <glyph glyph-name="Omega" unicode="&#x3a9;" horiz-adv-x="844" 
d="M80 0v10h226q-107 34 -169.5 120.5t-62.5 197.5q0 139 101 237t246 98t247.5 -98t102.5 -237q0 -108 -65 -195t-170 -123h225v-10h-257v10q112 26 183.5 114.5t71.5 203.5q0 135 -98.5 230t-239.5 95q-140 0 -237.5 -95t-97.5 -230q0 -114 70 -202t181 -116v-10h-257z
" />
    <glyph glyph-name="Omega" unicode="&#x2126;" horiz-adv-x="844" 
d="M80 0v10h226q-107 34 -169.5 120.5t-62.5 197.5q0 139 101 237t246 98t247.5 -98t102.5 -237q0 -108 -65 -195t-170 -123h225v-10h-257v10q112 26 183.5 114.5t71.5 203.5q0 135 -98.5 230t-239.5 95q-140 0 -237.5 -95t-97.5 -230q0 -114 70 -202t181 -116v-10h-257z
" />
    <glyph glyph-name="pi" unicode="&#x3c0;" horiz-adv-x="717" 
d="M50 420v10h620v-10h-128l-35 -339q-4 -36 -1 -81h-12q-3 43 1 81l35 339h-315l-43 -420h-12l43 420h-153z" />
    <glyph glyph-name="endash" unicode="&#x2013;" horiz-adv-x="648" 
d="M77 240v10h494v-10h-494z" />
    <glyph glyph-name="emdash" unicode="&#x2014;" horiz-adv-x="1128" 
d="M77 240v10h974v-10h-974z" />
    <glyph glyph-name="quoteleft" unicode="&#x2018;" horiz-adv-x="232" 
d="M158 673l4 -8q-81 -32 -81 -102q0 -22 12.5 -37.5t32.5 -20.5q16 4 20 4q14 0 14 -11q0 -12 -14 -12q-33 0 -54.5 21.5t-21.5 54.5q0 78 88 111z" />
    <glyph glyph-name="quoteright" unicode="&#x2019;" horiz-adv-x="235" 
d="M81 476l-4 8q81 32 81 102q0 22 -12.5 37.5t-32.5 20.5q-16 -4 -20 -4q-14 0 -14 11q0 12 14 12q33 0 54.5 -21.5t21.5 -54.5q0 -78 -88 -111z" />
    <glyph glyph-name="quotesinglbase" unicode="&#x201a;" horiz-adv-x="300" 
d="M121 -146l-4 8q81 32 81 102q0 22 -12.5 37.5t-32.5 20.5q-16 -4 -20 -4q-14 0 -14 11q0 12 14 12q33 0 54.5 -21.5t21.5 -54.5q0 -78 -88 -111z" />
    <glyph glyph-name="quotedblleft" unicode="&#x201c;" horiz-adv-x="398" 
d="M324 673l4 -8q-81 -32 -81 -102q0 -22 12.5 -37.5t32.5 -20.5q16 4 20 4q14 0 14 -11q0 -12 -14 -12q-33 0 -54.5 21.5t-21.5 54.5q0 78 88 111zM158 673l4 -8q-81 -32 -81 -102q0 -22 12.5 -37.5t32.5 -20.5q16 4 20 4q14 0 14 -11q0 -12 -14 -12q-33 0 -54.5 21.5
t-21.5 54.5q0 78 88 111z" />
    <glyph glyph-name="quotedblright" unicode="&#x201d;" horiz-adv-x="401" 
d="M81 476l-4 8q81 32 81 102q0 22 -12.5 37.5t-32.5 20.5q-16 -4 -20 -4q-14 0 -14 11q0 12 14 12q33 0 54.5 -21.5t21.5 -54.5q0 -78 -88 -111zM247 476l-4 8q81 32 81 102q0 22 -12.5 37.5t-32.5 20.5q-16 -4 -20 -4q-14 0 -14 11q0 12 14 12q33 0 54.5 -21.5t21.5 -54.5
q0 -78 -88 -111z" />
    <glyph glyph-name="quotedblbase" unicode="&#x201e;" horiz-adv-x="466" 
d="M121 -146l-4 8q81 32 81 102q0 22 -12.5 37.5t-32.5 20.5q-16 -4 -20 -4q-14 0 -14 11q0 12 14 12q33 0 54.5 -21.5t21.5 -54.5q0 -78 -88 -111zM287 -146l-4 8q81 32 81 102q0 22 -12.5 37.5t-32.5 20.5q-16 -4 -20 -4q-14 0 -14 11q0 12 14 12q33 0 54.5 -21.5
t21.5 -54.5q0 -78 -88 -111z" />
    <glyph glyph-name="dagger" unicode="&#x2020;" horiz-adv-x="512" 
d="M456 504v-10h-194v-414h-12v414h-194v10h194v196h12v-196h194z" />
    <glyph glyph-name="daggerdbl" unicode="&#x2021;" horiz-adv-x="550" 
d="M269 80v200h-194v10h194v204h-194v10h194v196h12v-196h194v-10h-194v-204h194v-10h-194v-200h-12z" />
    <glyph glyph-name="bullet" unicode="&#x2022;" horiz-adv-x="448" 
d="M224 156q-61 0 -104 40.5t-43 98.5t43 98.5t104 40.5q60 0 103.5 -40.5t43.5 -98.5t-43.5 -98.5t-103.5 -40.5z" />
    <glyph glyph-name="ellipsis" unicode="&#x2026;" horiz-adv-x="1000" 
d="M160 19q0 9 7 15.5t17 6.5t17 -6.5t7 -15.5t-7 -15.5t-17 -6.5t-17 6.5t-7 15.5zM476 19q0 9 7 15.5t17 6.5t17 -6.5t7 -15.5t-7 -15.5t-17 -6.5t-17 6.5t-7 15.5zM792 19q0 9 7 15.5t17 6.5t17 -6.5t7 -15.5t-7 -15.5t-17 -6.5t-17 6.5t-7 15.5z" />
    <glyph glyph-name="perthousand" unicode="&#x2030;" horiz-adv-x="1381" 
d="M65 400q0 65 51.5 111.5t125.5 46.5q73 0 126 -46.5t53 -111.5q0 -66 -52.5 -112.5t-126.5 -46.5t-125.5 46.5t-51.5 112.5zM657 550l-326 -550h-11l325 550h12zM77 400q0 -62 48 -105.5t117 -43.5t118.5 44t49.5 105t-50 104.5t-118 43.5q-69 0 -117 -43.5t-48 -104.5z
M556 151q0 64 52 111t125 47t126.5 -47t53.5 -111q0 -66 -53 -113t-127 -47q-73 0 -125 47t-52 113zM568 151q0 -62 48 -106t117 -44q68 0 118 44.5t50 105.5q0 60 -50 104t-118 44q-69 0 -117 -44t-48 -104zM964 151q0 64 52 111t125 47t126.5 -47t53.5 -111
q0 -66 -53 -113t-127 -47q-73 0 -125 47t-52 113zM976 151q0 -62 48.5 -106t116.5 -44t118 44.5t50 105.5q0 60 -50 104t-118 44t-116.5 -44t-48.5 -104z" />
    <glyph glyph-name="guilsinglleft" unicode="&#x2039;" horiz-adv-x="291" 
d="M185 365h14l-121 -125v-8l121 -124h-14l-119 122v12z" />
    <glyph glyph-name="guilsinglright" unicode="&#x203a;" horiz-adv-x="291" 
d="M92 365h14l119 -123v-12l-119 -122h-14l121 124v8z" />
    <glyph glyph-name="fraction" unicode="&#x2044;" horiz-adv-x="220" 
d="M302 653l-370 -653h-12l370 653h12z" />
    <glyph glyph-name="zero.superior" unicode="&#x2070;" horiz-adv-x="580" 
d="M47 437q0 93 71.5 158t170.5 65q100 0 172 -65t72 -158t-72 -158.5t-172 -65.5t-171 65.5t-71 158.5zM59 437q0 -89 67.5 -151.5t162.5 -62.5q96 0 164 62.5t68 151.5q0 88 -68 150.5t-164 62.5q-95 0 -162.5 -62.5t-67.5 -150.5z" />
    <glyph glyph-name="four.superior" unicode="&#x2074;" horiz-adv-x="547" 
d="M515 347v-10h-93v-117h-12v117h-379v15l368 301h23v-306h93zM45 350v-3h365v294h-8q-58 -47 -178 -145.5t-179 -145.5z" />
    <glyph glyph-name="five.superior" unicode="&#x2075;" horiz-adv-x="509" 
d="M433 653v-10h-340v-177q78 40 167 40t147.5 -33.5t58.5 -106.5q0 -76 -64 -114.5t-154 -38.5q-117 0 -203 68l8 8q84 -66 195 -66q84 0 145 36t61 107q0 68 -55.5 99t-138.5 31q-84 0 -170 -42l-9 9v190h352z" />
    <glyph glyph-name="six.superior" unicode="&#x2076;" horiz-adv-x="518" 
d="M440 601l-8 -8q-59 57 -145 57q-93 0 -160 -60t-67 -161v-5q108 74 227 74q91 0 141 -43t50 -95q0 -58 -59 -102.5t-144 -44.5q-95 0 -161 57t-66 158q0 106 71 169t168 63q86 0 153 -59zM287 488q-114 0 -227 -74q6 -91 67.5 -141t147.5 -50q80 0 135.5 41.5t55.5 95.5
q0 49 -46.5 88.5t-132.5 39.5z" />
    <glyph glyph-name="seven.superior" unicode="&#x2077;" horiz-adv-x="447" 
d="M31 643v10h388v-10l-275 -423h-14l276 423h-375z" />
    <glyph glyph-name="eight.superior" unicode="&#x2078;" horiz-adv-x="517" 
d="M258 211q-81 0 -148 36.5t-67 96.5q0 50 47.5 81t115.5 40q-122 14 -122 90q0 51 54 79t120 28q67 0 121 -28t54 -79q0 -76 -123 -90q69 -9 116.5 -40t47.5 -81q0 -60 -67 -96.5t-149 -36.5zM258 221q77 0 140.5 34t63.5 90q0 55 -63 85t-141 30q-77 0 -140 -30t-63 -85
q0 -56 63.5 -90t139.5 -34zM258 471q78 0 120.5 22t42.5 62q0 46 -50.5 71.5t-112.5 25.5q-61 0 -111.5 -25.5t-50.5 -71.5q0 -40 42.5 -62t119.5 -22z" />
    <glyph glyph-name="nine.superior" unicode="&#x2079;" horiz-adv-x="518" 
d="M78 272l8 8q59 -57 145 -57q93 0 160.5 60t67.5 161v5q-113 -74 -228 -74q-91 0 -141 43t-50 95q0 58 59 102.5t144 44.5q95 0 161 -57t66 -158q0 -106 -71 -169t-168 -63q-86 0 -153 59zM232 385q117 0 226 74q-5 90 -67 140.5t-148 50.5q-80 0 -135.5 -41.5
t-55.5 -95.5q0 -49 46.5 -88.5t133.5 -39.5z" />
    <glyph glyph-name="parenleft.superior" unicode="&#x207d;" horiz-adv-x="229" 
d="M219 110l-6 -9q-79 37 -124 123.5t-45 181.5t45 182t124 124l6 -9q-76 -36 -119.5 -120.5t-43.5 -176.5t43.5 -175.5t119.5 -120.5z" />
    <glyph glyph-name="parenright.superior" unicode="&#x207e;" horiz-adv-x="229" 
d="M10 703l6 9q80 -37 124.5 -124t44.5 -182t-44.5 -181.5t-124.5 -123.5l-6 9q76 37 119.5 120.5t43.5 175.5t-43.5 176.5t-119.5 120.5z" />
    <glyph glyph-name="n.superior" unicode="&#x207f;" horiz-adv-x="459" 
d="M88 220h-12v265q0 36 -13 63h12q11 -24 13 -57q73 65 167 65q60 0 97 -31.5t37 -80.5v-224h-12v224q0 45 -34.5 73.5t-88.5 28.5q-87 0 -166 -66v-260z" />
    <glyph glyph-name="zero.inferior" unicode="&#x2080;" horiz-adv-x="580" 
d="M47 49q0 93 71.5 158t170.5 65q100 0 172 -65t72 -158t-72 -158.5t-172 -65.5t-171 65.5t-71 158.5zM59 49q0 -89 67.5 -151.5t162.5 -62.5q96 0 164 62.5t68 151.5q0 88 -68 150.5t-164 62.5q-95 0 -162.5 -62.5t-67.5 -150.5z" />
    <glyph glyph-name="one.inferior" unicode="&#x2081;" horiz-adv-x="278" 
d="M10 192l-4 10l155 63h12v-433h-12v422z" />
    <glyph glyph-name="two.inferior" unicode="&#x2082;" horiz-adv-x="477" 
d="M73 199l-6 8q29 21 50 32.5t56 22t74 10.5q73 0 125 -29.5t52 -83.5q0 -14 -3.5 -26t-11.5 -22t-15.5 -17.5t-21.5 -14.5t-23 -12t-26.5 -10t-26.5 -7.5t-28 -7.5t-25 -7q-188 -50 -188 -175v-18h367v-10h-379v27q0 134 197 186q6 2 30 8t34 9t31 10.5t31 14.5t22.5 18
t18 24.5t5.5 30.5q0 49 -49 75.5t-116 26.5q-38 0 -71.5 -10t-54 -21.5t-48.5 -31.5z" />
    <glyph glyph-name="three.inferior" unicode="&#x2083;" horiz-adv-x="552" 
d="M264 59v10h87q29 0 66 24.5t37 66.5q0 50 -51.5 76t-113.5 26q-100 0 -193 -76l-7 8q98 78 200 78q41 0 79.5 -10.5t68 -37t29.5 -63.5t-25.5 -61t-58.5 -33q28 -4 53.5 -14t49 -35t23.5 -60q0 -61 -67 -97t-168 -36q-137 0 -232 79l8 8q93 -77 225 -77q96 0 159 33.5
t63 90.5q0 28 -16.5 49t-40 31.5t-44 15t-35.5 4.5h-96z" />
    <glyph glyph-name="four.inferior" unicode="&#x2084;" horiz-adv-x="546" 
d="M515 -41v-10h-93v-117h-12v117h-379v15l368 301h23v-306h93zM45 -38v-3h365v294h-8q-58 -47 -178 -145.5t-179 -145.5z" />
    <glyph glyph-name="five.inferior" unicode="&#x2085;" horiz-adv-x="509" 
d="M433 265v-10h-340v-177q78 40 167 40t147.5 -33.5t58.5 -106.5q0 -76 -64 -114.5t-154 -38.5q-117 0 -203 68l8 8q84 -66 195 -66q84 0 145 36t61 107q0 68 -55.5 99t-138.5 31q-84 0 -170 -42l-9 9v190h352z" />
    <glyph glyph-name="six.inferior" unicode="&#x2086;" horiz-adv-x="519" 
d="M441 213l-8 -8q-59 57 -145 57q-93 0 -160 -60t-67 -161v-5q108 74 227 74q91 0 141 -43t50 -95q0 -58 -59 -102.5t-144 -44.5q-95 0 -161 57t-66 158q0 106 71 169t168 63q86 0 153 -59zM288 100q-114 0 -227 -74q6 -91 67.5 -141t147.5 -50q80 0 135.5 41.5t55.5 95.5
q0 49 -46.5 88.5t-132.5 39.5z" />
    <glyph glyph-name="seven.inferior" unicode="&#x2087;" horiz-adv-x="449" 
d="M32 255v10h388v-10l-275 -423h-14l276 423h-375z" />
    <glyph glyph-name="eight.inferior" unicode="&#x2088;" horiz-adv-x="517" 
d="M258 -177q-81 0 -148 36.5t-67 96.5q0 50 47.5 81t115.5 40q-122 14 -122 90q0 51 54 79t120 28q67 0 121 -28t54 -79q0 -76 -123 -90q69 -9 116.5 -40t47.5 -81q0 -60 -67 -96.5t-149 -36.5zM258 -167q77 0 140.5 34t63.5 90q0 55 -63 85t-141 30q-77 0 -140 -30
t-63 -85q0 -56 63.5 -90t139.5 -34zM258 83q78 0 120.5 22t42.5 62q0 46 -50.5 71.5t-112.5 25.5q-61 0 -111.5 -25.5t-50.5 -71.5q0 -40 42.5 -62t119.5 -22z" />
    <glyph glyph-name="nine.inferior" unicode="&#x2089;" horiz-adv-x="519" 
d="M78 -116l8 8q59 -57 145 -57q93 0 160.5 60t67.5 161v5q-113 -74 -228 -74q-91 0 -141 43t-50 95q0 58 59 102.5t144 44.5q95 0 161 -57t66 -158q0 -106 -71 -169t-168 -63q-86 0 -153 59zM232 -3q117 0 226 74q-5 90 -67 140.5t-148 50.5q-80 0 -135.5 -41.5
t-55.5 -95.5q0 -49 46.5 -88.5t133.5 -39.5z" />
    <glyph glyph-name="Euro" unicode="&#x20ac;" horiz-adv-x="770" 
d="M69 316v9h84q25 87 103 143.5t178 56.5q140 0 236 -83l-8 -8q-93 80 -228 80q-95 0 -170 -53t-99 -136h344v-9h-346q-7 -27 -7 -58q0 -26 4 -46h349v-10h-347q21 -86 97.5 -143t174.5 -57q137 0 236 88l8 -9q-103 -90 -244 -90q-103 0 -183 60t-101 151h-81v10h79
q-4 20 -4 46q0 31 7 58h-82z" />
    <glyph glyph-name="litre" unicode="&#x2113;" horiz-adv-x="482" 
d="M66 117l-6 8l80 55v245q0 114 36 157t94 43q64 0 100.5 -41t36.5 -109q0 -124 -154 -230l-101 -70v-61q0 -114 114 -114q49 0 111 29l6 -10q-62 -29 -117 -29q-126 0 -126 124v53zM152 425v-237l95 65q148 107 148 222q0 63 -33.5 101.5t-91.5 38.5q-53 0 -85.5 -40.5
t-32.5 -149.5z" />
    <glyph glyph-name="soundrecordingcopyright" unicode="&#x2117;" horiz-adv-x="1007" 
d="M943 274q0 -165 -129.5 -282t-310.5 -117t-310 117t-129 282t129 281.5t310 116.5t310.5 -116.5t129.5 -281.5zM931 274q0 161 -125.5 274.5t-302.5 113.5t-302 -113.5t-125 -274.5t125.5 -275t301.5 -114q177 0 302.5 114t125.5 275zM579 223h-224v-132h-12v383h201
q33 0 62.5 -5t60 -17t48.5 -37.5t18 -62.5q0 -61 -46.5 -95t-107.5 -34zM355 464v-231h224q56 0 99 31t43 88q0 112 -177 112h-189z" />
    <glyph glyph-name="trademark" unicode="&#x2122;" horiz-adv-x="843" 
d="M741 326h-12v310h-3l-141 -236h-9l-142 236h-2v-310h-12v327h18l142 -237h1l142 237h18v-327zM57 643v10h260v-10h-124v-317h-12v317h-124z" />
    <glyph glyph-name="estimated" unicode="&#x212e;" horiz-adv-x="815" 
d="M170 458v-164q0 -6 6 -6h473q8 0 8 6v164q0 9 -6 21q-37 49 -98.5 75t-137.5 26q-63 0 -135 -29t-103 -72q-7 -11 -7 -21zM680 101q-48 -59 -118.5 -89t-146.5 -30q-132 0 -235 87.5t-102 217.5q0 133 102.5 218t234.5 85q140 0 237.5 -85.5t97.5 -226.5h-574q-6 0 -6 -8
v-150q0 -19 7 -28q101 -100 238 -100q149 0 248 109h17z" />
    <glyph glyph-name="onethird" unicode="&#x2153;" horiz-adv-x="1031" 
d="M10 580l-4 10l155 63h12v-433h-12v422zM575 653l-370 -653h-12l370 653h12zM743 227v10h87q29 0 66 24.5t37 66.5q0 50 -51.5 76t-113.5 26q-100 0 -193 -76l-7 8q98 78 200 78q41 0 79.5 -10.5t68 -37t29.5 -63.5t-25.5 -61t-58.5 -33q28 -4 53.5 -14t49 -35t23.5 -60
q0 -61 -67 -97t-168 -36q-137 0 -232 79l8 8q93 -77 225 -77q96 0 159 33.5t63 90.5q0 28 -16.5 49t-40 31.5t-44 15t-35.5 4.5h-96z" />
    <glyph glyph-name="twothirds" unicode="&#x2154;" horiz-adv-x="1235" 
d="M73 587l-6 8q29 21 50 32.5t56 22t74 10.5q73 0 125 -29.5t52 -83.5q0 -14 -3.5 -26t-11.5 -22t-15.5 -17.5t-21.5 -14.5t-23 -12t-26.5 -10t-26.5 -7.5t-28 -7.5t-25 -7q-188 -50 -188 -175v-18h367v-10h-379v27q0 134 197 186q6 2 30 8t34 9t31 10.5t31 14.5t22.5 18
t18 24.5t5.5 30.5q0 49 -49 75.5t-116 26.5q-38 0 -71.5 -10t-54 -21.5t-48.5 -31.5zM779 653l-370 -653h-12l370 653h12zM947 227v10h87q29 0 66 24.5t37 66.5q0 50 -51.5 76t-113.5 26q-100 0 -193 -76l-7 8q98 78 200 78q41 0 79.5 -10.5t68 -37t29.5 -63.5t-25.5 -61
t-58.5 -33q28 -4 53.5 -14t49 -35t23.5 -60q0 -61 -67 -97t-168 -36q-137 0 -232 79l8 8q93 -77 225 -77q96 0 159 33.5t63 90.5q0 28 -16.5 49t-40 31.5t-44 15t-35.5 4.5h-96z" />
    <glyph glyph-name="oneeighth" unicode="&#x215b;" horiz-adv-x="992" 
d="M10 580l-4 10l155 63h12v-433h-12v422zM575 653l-370 -653h-12l370 653h12zM733 -9q-81 0 -148 36.5t-67 96.5q0 50 47.5 81t115.5 40q-122 14 -122 90q0 51 54 79t120 28q67 0 121 -28t54 -79q0 -76 -123 -90q69 -9 116.5 -40t47.5 -81q0 -60 -67 -96.5t-149 -36.5z
M733 1q77 0 140.5 34t63.5 90q0 55 -63 85t-141 30q-77 0 -140 -30t-63 -85q0 -56 63.5 -90t139.5 -34zM733 251q78 0 120.5 22t42.5 62q0 46 -50.5 71.5t-112.5 25.5q-61 0 -111.5 -25.5t-50.5 -71.5q0 -40 42.5 -62t119.5 -22z" />
    <glyph glyph-name="threeeighths" unicode="&#x215c;" horiz-adv-x="1271" 
d="M264 447v10h87q29 0 66 24.5t37 66.5q0 50 -51.5 76t-113.5 26q-100 0 -193 -76l-7 8q98 78 200 78q41 0 79.5 -10.5t68 -37t29.5 -63.5t-25.5 -61t-58.5 -33q28 -4 53.5 -14t49 -35t23.5 -60q0 -61 -67 -97t-168 -36q-137 0 -232 79l8 8q93 -77 225 -77q96 0 159 33.5
t63 90.5q0 28 -16.5 49t-40 31.5t-44 15t-35.5 4.5h-96zM854 653l-370 -653h-12l370 653h12zM1012 -9q-81 0 -148 36.5t-67 96.5q0 50 47.5 81t115.5 40q-122 14 -122 90q0 51 54 79t120 28q67 0 121 -28t54 -79q0 -76 -123 -90q69 -9 116.5 -40t47.5 -81q0 -60 -67 -96.5
t-149 -36.5zM1012 1q77 0 140.5 34t63.5 90q0 55 -63 85t-141 30q-77 0 -140 -30t-63 -85q0 -56 63.5 -90t139.5 -34zM1012 251q78 0 120.5 22t42.5 62q0 46 -50.5 71.5t-112.5 25.5q-61 0 -111.5 -25.5t-50.5 -71.5q0 -40 42.5 -62t119.5 -22z" />
    <glyph glyph-name="fiveeighths" unicode="&#x215d;" horiz-adv-x="1228" 
d="M433 653v-10h-340v-177q78 40 167 40t147.5 -33.5t58.5 -106.5q0 -76 -64 -114.5t-154 -38.5q-117 0 -203 68l8 8q84 -66 195 -66q84 0 145 36t61 107q0 68 -55.5 99t-138.5 31q-84 0 -170 -42l-9 9v190h352zM811 653l-370 -653h-12l370 653h12zM969 -9q-81 0 -148 36.5
t-67 96.5q0 50 47.5 81t115.5 40q-122 14 -122 90q0 51 54 79t120 28q67 0 121 -28t54 -79q0 -76 -123 -90q69 -9 116.5 -40t47.5 -81q0 -60 -67 -96.5t-149 -36.5zM969 1q77 0 140.5 34t63.5 90q0 55 -63 85t-141 30q-77 0 -140 -30t-63 -85q0 -56 63.5 -90t139.5 -34z
M969 251q78 0 120.5 22t42.5 62q0 46 -50.5 71.5t-112.5 25.5q-61 0 -111.5 -25.5t-50.5 -71.5q0 -40 42.5 -62t119.5 -22z" />
    <glyph glyph-name="seveneighths" unicode="&#x215e;" horiz-adv-x="1088" 
d="M32 643v10h388v-10l-275 -423h-14l276 423h-375zM671 653l-370 -653h-12l370 653h12zM829 -9q-81 0 -148 36.5t-67 96.5q0 50 47.5 81t115.5 40q-122 14 -122 90q0 51 54 79t120 28q67 0 121 -28t54 -79q0 -76 -123 -90q69 -9 116.5 -40t47.5 -81q0 -60 -67 -96.5
t-149 -36.5zM829 1q77 0 140.5 34t63.5 90q0 55 -63 85t-141 30q-77 0 -140 -30t-63 -85q0 -56 63.5 -90t139.5 -34zM829 251q78 0 120.5 22t42.5 62q0 46 -50.5 71.5t-112.5 25.5q-61 0 -111.5 -25.5t-50.5 -71.5q0 -40 42.5 -62t119.5 -22z" />
    <glyph glyph-name="partialdiff" unicode="&#x2202;" horiz-adv-x="600" 
d="M277 450q81 0 131.5 -44t90.5 -124v14q0 348 -302 348v10q314 0 314 -358q0 -158 -56.5 -232t-166.5 -74q-100 0 -161.5 58.5t-61.5 170.5q0 111 60 171t152 60zM288 0q199 0 210 262q-40 84 -90.5 131t-130.5 47q-87 0 -143.5 -57t-56.5 -164q0 -108 57.5 -163.5
t153.5 -55.5z" />
    <glyph glyph-name="product" unicode="&#x220f;" horiz-adv-x="759" 
d="M50 643v10h659v-10h-141v-750h-12v750h-355v-750h-12v750h-139z" />
    <glyph glyph-name="summation" unicode="&#x2211;" 
d="M587 653v-10h-519l427 -362v-14l-427 -364h519v-10h-537v10l433 368v6l-433 366v10h537z" />
    <glyph glyph-name="minus" unicode="&#x2212;" 
d="M77 240v10h490v-10h-490z" />
    <glyph glyph-name="radical" unicode="&#x221a;" horiz-adv-x="714" 
d="M48 430h154l163 -420l280 744h14l-288 -754h-15l-163 420h-145v10z" />
    <glyph glyph-name="infinity" unicode="&#x221e;" horiz-adv-x="1014" 
d="M250 434h12q73 0 145 -76l100 -106l100 106q72 76 145 76h12q71 0 120 -50t49 -117v-44q0 -67 -49 -117t-120 -50h-12q-73 0 -145 76l-100 105l-100 -106q-71 -75 -145 -75h-12q-71 0 -120 50t-49 117v44q0 67 49 117t120 50zM615 352l-101 -107l101 -107q68 -72 137 -72
h12q67 0 112 47t45 110v44q0 63 -45 110t-112 47h-12q-69 0 -137 -72zM93 267v-44q0 -63 45 -110t112 -47h12q68 0 137 73l101 106l-101 107q-68 72 -137 72h-12q-67 0 -112 -47t-45 -110z" />
    <glyph glyph-name="integral" unicode="&#x222b;" horiz-adv-x="355" 
d="M299 723v-10h-49q-31 0 -48 -21.5t-17 -51.5v-744q0 -35 -20 -59t-57 -24h-49v10h49q31 0 48 21.5t17 51.5v744q0 35 20 59t57 24h49z" />
    <glyph glyph-name="approxequal" unicode="&#x2248;" 
d="M77 104v13q67 56 135 56q53 0 109 -37q55 -37 103 -37q74 0 143 62v-14q-69 -58 -143 -58q-52 0 -109 37q-55 37 -104 37q-67 0 -134 -59zM77 344v13q67 56 135 56q53 0 109 -37q55 -37 103 -37q74 0 143 62v-14q-69 -58 -143 -58q-52 0 -109 37q-55 37 -104 37
q-67 0 -134 -59z" />
    <glyph glyph-name="notequal" unicode="&#x2260;" 
d="M77 360v10h304l71 120h14l-71 -120h172v-10h-178l-136 -230h314v-10h-320l-70 -120h-14l71 120h-157v10h163l135 230h-298z" />
    <glyph glyph-name="lessequal" unicode="&#x2264;" 
d="M77 0v10h490v-10h-490zM567 499v-13l-478 -205v-4l478 -204v-13l-490 211v16z" />
    <glyph glyph-name="greaterequal" unicode="&#x2265;" 
d="M567 10v-10h-490v10h490zM77 486v13l490 -212v-16l-490 -211v13l478 204v4z" />
    <glyph glyph-name="lozenge" unicode="&#x25ca;" horiz-adv-x="629" 
d="M310 653h9l255 -320v-11l-255 -322h-9l-255 322v11zM314 641l-247 -310v-6l247 -313h1l247 312v7l-247 310h-1z" />
    <glyph glyph-name="sweetfonts.com" unicode="&#xf8ff;" horiz-adv-x="1000" 
d="M343 424q0 65 46 111t111 46t111 -46t46 -111t-46 -111t-111 -46t-111 46t-46 111zM706 428l237 137q8 6 8 -4v-274q0 -10 -8 -4l-237 137q-6 4 0 8zM49 287v274q0 10 8 4l237 -137q8 -4 0 -8l-237 -137q-8 -6 -8 4zM878 0v116h-57v20h138v-20h-57v-116h-24zM659 0v136
h117v-20h-93v-32h62v-20h-62v-44h99v-20h-123zM472 0v136h117v-20h-93v-32h62v-20h-62v-44h99v-20h-123zM268 0l-47 136h25l30 -99h2l34 99h15l33 -99h2l32 99h23l-49 -136h-16l-33 97h-2l-33 -97h-16zM37 22l12 15q32 -21 61 -21q49 0 49 24q0 6 -3.5 10.5t-10 6t-14 2.5
t-16.5 1h-3q-69 2 -69 37q0 17 15.5 29t44.5 12q37 0 69 -18l-12 -16q-24 15 -57 15q-38 0 -38 -21q0 -14 47 -16q33 -1 51 -9.5t18 -31.5q0 -21 -20 -32.5t-51 -11.5q-41 0 -73 25z" />
    <glyph glyph-name="dollar.superior" horiz-adv-x="486" 
d="M240 738h10v-79q97 -6 164 -62l-8 -8q-61 55 -156 60v-191h1q26 -1 41.5 -2.5t42.5 -5.5t44 -11.5t35 -19.5t27 -31t9 -43q0 -63 -57.5 -97t-142.5 -35v-99h-10v99q-119 1 -205 85l8 8q84 -82 197 -83v224q-40 2 -66 5.5t-55.5 13t-44 29t-14.5 49.5q0 59 52 87.5
t119 28.5h9v78zM251 447h-1v-224q81 1 135 32.5t54 89.5q0 26 -13.5 45.5t-30.5 29t-47.5 16t-48 8t-48.5 3.5zM71 544q0 -22 10.5 -37.5t25 -24t40 -14t44.5 -7t49 -3.5v192h-9q-62 0 -111 -26t-49 -80z" />
    <glyph glyph-name="cent.superior" horiz-adv-x="394" 
d="M245 611h11l-18 -81q61 -10 102 -48l-8 -8q-41 36 -96 46l-62 -294q16 -3 35 -3q80 0 129 56l9 -6q-15 -19 -51 -39.5t-87 -20.5q-19 0 -37 3l-22 -102h-11l22 104q-54 14 -88.5 55.5t-34.5 100.5q0 71 48 115t119 44q15 0 23 -1zM50 374q0 -55 31.5 -93.5t81.5 -51.5
l63 293q-7 1 -21 1q-65 0 -110 -41.5t-45 -107.5z" />
    <glyph glyph-name="Euro.superior" horiz-adv-x="579" 
d="M38 485v9h67q21 72 83.5 119t142.5 47q114 0 189 -69l-7 -8q-75 67 -182 67q-75 0 -134 -44t-79 -112h273v-9h-275q-6 -24 -6 -48q0 -23 4 -39h277v-9h-276q17 -72 77.5 -119t138.5 -47q109 0 188 73l8 -8q-83 -75 -196 -75q-82 0 -146.5 50t-81.5 126h-65v9h63
q-3 18 -3 39t5 48h-65z" />
    <glyph glyph-name="sterling.superior" horiz-adv-x="531" 
d="M44 448v10h121v79q0 60 46 91.5t109 31.5q70 0 160 -49l-6 -9q-84 48 -154 48q-58 0 -100.5 -29t-42.5 -84v-79h220v-10h-220v-111q0 -50 -11 -74.5t-38 -32.5h351v-10h-435v10h28q54 0 73.5 21t19.5 86v111h-121z" />
    <glyph glyph-name="yen.superior" horiz-adv-x="521" 
d="M48 485v9h155l-132 159h14l176 -210l175 210h14l-132 -159h155v-9h-162l-44 -53v-34h206v-9h-206v-169h-12v169h-207v9h207v34l-44 53h-163z" />
    <glyph glyph-name="numbersign.superior" horiz-adv-x="649" 
d="M459 690h11l-27 -153h168v-9h-170l-34 -198h163v-9h-165l-30 -174h-12l31 174h-179l-30 -174h-12l30 174h-166v9h168l34 198h-160v9h162l27 153h12l-27 -153h179zM251 528l-34 -198h178l35 198h-179z" />
    <glyph glyph-name="percent.superior" horiz-adv-x="761" 
d="M37 556q0 54 41.5 93.5t100.5 39.5q58 0 101 -39.5t43 -93.5q0 -55 -42.5 -94.5t-101.5 -39.5t-100.5 39t-41.5 95zM517 681l-262 -461h-11l261 461h12zM48 556q0 -51 38 -87.5t93 -36.5q54 0 93.5 36.5t39.5 87.5q0 50 -39.5 86.5t-93.5 36.5t-92.5 -36t-38.5 -87z
M438 346q0 54 41.5 93.5t100.5 39.5t101.5 -39.5t42.5 -93.5q0 -55 -42 -94t-102 -39q-59 0 -100.5 39t-41.5 94zM450 346q0 -51 38 -87.5t92 -36.5t93.5 36.5t39.5 87.5q0 50 -39.5 86.5t-93.5 36.5t-92 -36.5t-38 -86.5z" />
    <glyph glyph-name="period.superior" horiz-adv-x="220" 
d="M91 234q0 7 6 12.5t14 5.5q18 0 18 -18q0 -17 -18 -17q-8 0 -14 5t-6 12z" />
    <glyph glyph-name="comma.superior" horiz-adv-x="241" 
d="M94 108l-4 8q62 23 62 73q0 38 -30 46q-7 -3 -14 -3q-12 0 -12 10t12 10q24 0 39.5 -17.5t15.5 -44.5q0 -56 -69 -82z" />
    <glyph glyph-name="hyphen.superior" horiz-adv-x="316" 
d="M67 388v10h182v-10h-182z" />
    <glyph glyph-name="zero.pl" horiz-adv-x="862" 
d="M88 307q0 131 100.5 223.5t241.5 92.5q142 0 243.5 -92.5t101.5 -223.5q0 -132 -101.5 -224.5t-243.5 -92.5q-141 0 -241.5 92.5t-100.5 224.5zM100 307q0 -128 97 -217.5t233 -89.5q137 0 235 89.5t98 217.5q0 126 -98 216t-235 90q-136 0 -233 -89.5t-97 -216.5z" />
    <glyph glyph-name="one.pl" horiz-adv-x="425" 
d="M24 513l-4 10l221 90h12v-613h-12v602z" />
    <glyph glyph-name="two.pl" horiz-adv-x="708" 
d="M120 524l-6 8q41 29 70.5 45.5t79 31t104.5 14.5q102 0 176 -41.5t74 -118.5q0 -19 -4.5 -36t-16 -31t-21.5 -24.5t-30.5 -21t-32.5 -16.5t-38.5 -14t-37 -11t-39.5 -10.5t-36 -9.5q-58 -16 -102.5 -35.5t-85 -49t-62 -72t-21.5 -96.5v-26h524v-10h-536v36q0 46 16 85
t42 66t64 49.5t75 36.5t82 26q10 3 37.5 10t42.5 11t40.5 12.5t40 16t33.5 19.5t29 25.5t17.5 31.5t7.5 39q0 72 -70.5 110.5t-167.5 38.5q-77 0 -132 -23t-116 -66z" />
    <glyph glyph-name="three.pl" horiz-adv-x="820" 
d="M393 324v10h123q23 0 55.5 12.5t63 44.5t30.5 75q0 49 -39.5 83.5t-91.5 49t-106 14.5q-140 0 -275 -108l-8 8q138 110 283 110q58 0 112 -15t95.5 -52t41.5 -90q0 -52 -36.5 -86t-84.5 -48q29 -4 56.5 -13.5t57.5 -26.5t48.5 -46.5t18.5 -67.5q0 -87 -94 -137.5
t-238 -50.5q-193 0 -328 111l8 8q134 -109 321 -109q138 0 228.5 48.5t90.5 130.5q0 40 -23.5 70.5t-58 45.5t-63.5 22t-50 7h-137z" />
    <glyph glyph-name="four.pl" horiz-adv-x="791" 
d="M733 177v-10h-133v-167h-12v167h-539v18l522 428h29v-436h133zM61 181v-4h527v426h-11q-85 -68 -258 -211t-258 -211z" />
    <glyph glyph-name="five.pl" horiz-adv-x="755" 
d="M628 613v-10h-486v-255q114 57 239 57q59 0 109 -10.5t92.5 -32.5t66.5 -62t24 -93q0 -73 -46.5 -124t-113.5 -72t-147 -21q-161 0 -286 96l8 8q120 -94 278 -94q56 0 107 12t94 36t68.5 65t25.5 94q0 67 -41.5 110.5t-101.5 60.5t-137 17q-119 0 -241 -59l-10 10v267
h498z" />
    <glyph glyph-name="six.pl" horiz-adv-x="773" 
d="M641 538l-8 -8q-83 83 -206 83q-132 0 -228.5 -87t-96.5 -231v-8q159 106 324 106q130 0 200.5 -60.5t70.5 -134.5q0 -82 -83.5 -145t-203.5 -63q-134 0 -227 81t-93 224q0 100 48.5 176t124.5 114t164 38q121 0 214 -85zM426 383q-165 0 -324 -107q4 -88 48.5 -151.5
t112 -94t147.5 -30.5q116 0 195.5 60t79.5 138q0 70 -67 127.5t-192 57.5z" />
    <glyph glyph-name="seven.pl" horiz-adv-x="674" 
d="M56 603v10h548v-10l-391 -603h-14l392 603h-535z" />
    <glyph glyph-name="eight.pl" horiz-adv-x="770" 
d="M385 -12q-73 0 -141 21.5t-115.5 65.5t-47.5 101q0 70 68 114.5t166 56.5q-85 10 -130 42.5t-45 85.5q0 48 39 83.5t93.5 51t112.5 15.5t112.5 -15.5t93.5 -51t39 -83.5q0 -53 -45.5 -85.5t-130.5 -42.5q98 -12 166.5 -56.5t68.5 -114.5q0 -57 -47.5 -101t-115.5 -65.5
t-141 -21.5zM385 -2q110 0 201 49t91 129q0 54 -46.5 93t-111 56t-134.5 17t-134.5 -17t-111 -56t-46.5 -93q0 -80 91 -129t201 -49zM385 354q111 0 172 31.5t61 89.5q0 45 -37.5 78t-89 47.5t-106.5 14.5t-106.5 -14.5t-89 -47.5t-37.5 -78q0 -58 61 -89.5t172 -31.5z" />
    <glyph glyph-name="nine.pl" horiz-adv-x="771" 
d="M131 75l8 8q83 -83 206 -83q132 0 228.5 87t96.5 231q0 1 -0.5 3.5t-0.5 3.5q-154 -105 -323 -105q-130 0 -200.5 60.5t-70.5 134.5q0 82 83.5 145t203.5 63q134 0 227 -81t93 -224q0 -100 -48.5 -176t-124.5 -114t-164 -38q-121 0 -214 85zM346 230q55 0 109.5 12t97 31
t69 34t47.5 30q-4 87 -48.5 151t-111.5 94.5t-147 30.5q-116 0 -195.5 -60t-79.5 -138q0 -70 67 -127.5t192 -57.5z" />
    <glyph glyph-name="dollar.pl" horiz-adv-x="705" 
d="M352 733h12v-112q74 -4 134 -30t97 -58l-8 -8q-87 78 -223 86v-276h2q36 -2 58.5 -4t60.5 -7.5t62.5 -16t50 -27t38 -43t12.5 -60.5q0 -88 -81 -136t-203 -50v-141h-12v141q-168 1 -290 119l8 8q120 -116 282 -117v323q-38 2 -62.5 4t-58 7t-54.5 14.5t-41 23.5
t-29.5 35.5t-9.5 50.5q0 44 22.5 77t59.5 51t77.5 26.5t82.5 8.5h13v111zM366 324h-2v-323q117 2 194.5 47t77.5 129q0 32 -12 57t-36.5 40t-47 24.5t-60 15t-58 7t-56.5 3.5zM109 459q0 -26 9 -46t28.5 -33t38.5 -21t52 -12.5t55 -6.5t60 -4v275q-3 0 -7 0.5t-6 0.5
q-55 0 -104.5 -13.5t-87.5 -50t-38 -89.5z" />
    <glyph glyph-name="cent.pl" horiz-adv-x="572" 
d="M354 551h12l-25 -115q85 -13 144 -68l-8 -8q-59 53 -138 66l-89 -421q20 -5 52 -5q47 0 89.5 17t62.5 33t32 31l10 -6q-21 -27 -72 -56t-122 -29q-28 0 -54 6l-31 -146h-12l31 148q-77 19 -125.5 77.5t-48.5 140.5q0 99 68 161.5t167 62.5q11 0 33 -2zM74 216
q0 -79 46 -134t118 -74l90 420q-22 2 -31 2q-94 0 -158.5 -59.5t-64.5 -154.5z" />
    <glyph glyph-name="Euro.pl" horiz-adv-x="843" 
d="M67 376v10h95q28 103 117 170t203 67q160 0 268 -98l-8 -8q-106 96 -260 96q-109 0 -194.5 -64t-112.5 -163h392v-10h-395q-8 -35 -8 -69q0 -26 5 -56h398v-10h-396q24 -104 111 -172.5t200 -68.5q154 0 269 105l8 -8q-117 -107 -277 -107q-118 0 -208.5 71.5
t-114.5 179.5h-92v10h90q-5 30 -5 56q0 34 8 69h-93z" />
    <glyph glyph-name="sterling.pl" horiz-adv-x="772" 
d="M69 325v10h174v114q0 84 64.5 129t153.5 45q45 0 107.5 -19.5t117.5 -50.5l-6 -8q-54 30 -115 49t-104 19q-84 0 -145 -42t-61 -122v-114h314v-10h-314v-161q0 -71 -16 -106.5t-53 -47.5h499v-10h-616v10h40q77 0 105.5 30.5t28.5 123.5v161h-174z" />
    <glyph glyph-name="yen.pl" horiz-adv-x="751" 
d="M77 376v10h222l-189 227h14l252 -301l251 301h14l-188 -227h222v-10h-231l-62 -75v-50h293v-10h-293v-241h-12v241h-293v10h293v50l-63 75h-230z" />
    <glyph glyph-name="florin.pl" horiz-adv-x="383" 
d="M60 335h110l27 124q18 83 70 123.5t107 40.5q33 0 64 -14.5t44 -33.5l-9 -6q-12 17 -40.5 30.5t-60.5 13.5q-50 0 -98 -38t-64 -116l-27 -124h151v-10h-153l-69 -325q-18 -83 -69.5 -123.5t-105.5 -40.5v10q50 0 98.5 38.5t64.5 115.5l68 325h-108v10z" />
    <glyph glyph-name="section.pl" horiz-adv-x="743" 
d="M635 102q-48 -46 -127 -64q28 -10 46 -27q21 -21 21 -55q0 -61 -62.5 -91t-140.5 -30q-123 0 -219 73l8 8q94 -71 212 -71q72 0 131 27.5t59 85.5q0 30 -17 47q-10 10 -24 17t-39.5 12.5t-38.5 7.5t-53 6.5t-51 5.5q-167 21 -234 78q-49 48 -49 112q0 62 44 108
q48 50 129 70q-26 9 -40 21q-25 22 -25 59q0 43 34 72.5t77.5 40t91.5 10.5q124 0 219 -74l-8 -8q-93 72 -212 72q-45 0 -85.5 -10t-72.5 -36.5t-32 -66.5q0 -33 21 -51q8 -7 17.5 -12t23.5 -9.5t25 -7t31 -5.5t31 -4t36 -4t36 -4q90 -11 147 -29t93 -53q45 -45 45 -108
q0 -67 -48 -113zM397 395q-118 13 -152 22q-92 -25 -136 -71q-40 -42 -40 -102q0 -63 45 -104q63 -58 228 -76q129 -16 149 -22q88 22 136 68q44 42 44 105q0 59 -41 100q-63 61 -233 80z" />
    <glyph glyph-name="numbersign.pl" horiz-adv-x="936" 
d="M660 666h13l-39 -218h240v-10h-242l-49 -284h232v-10h-234l-43 -248h-13l43 248h-257l-43 -248h-13l43 248h-237v10h239l50 284h-230v10h232l38 218h13l-39 -218h258zM362 438l-49 -284h257l50 284h-258z" />
    <glyph glyph-name="percent.pl" horiz-adv-x="1083" 
d="M60 475q0 77 59 132.5t142 55.5t143.5 -55.5t60.5 -132.5q0 -78 -60.5 -133.5t-143.5 -55.5q-84 0 -142.5 55.5t-58.5 133.5zM732 653l-370 -653h-12l370 653h12zM72 475q0 -74 55.5 -126.5t133.5 -52.5t135 53t57 126t-57 125.5t-135 52.5t-133.5 -52.5t-55.5 -125.5z
M618 179q0 77 59 132.5t142 55.5t143.5 -55.5t60.5 -132.5q0 -78 -60.5 -133.5t-143.5 -55.5q-84 0 -142.5 55.5t-58.5 133.5zM630 179q0 -74 55.5 -126.5t133.5 -52.5t135 53t57 126t-57 125.5t-135 52.5t-133.5 -52.5t-55.5 -125.5z" />
    <glyph glyph-name="perthousand.pl" horiz-adv-x="1546" 
d="M61 475q0 77 59 132.5t142 55.5t143.5 -55.5t60.5 -132.5q0 -78 -60.5 -133.5t-143.5 -55.5q-84 0 -142.5 55.5t-58.5 133.5zM733 653l-370 -653h-12l370 653h12zM73 475q0 -74 55.5 -126.5t133.5 -52.5t135 53t57 126t-57 125.5t-135 52.5t-133.5 -52.5t-55.5 -125.5z
M619 179q0 77 59 132.5t142 55.5t143.5 -55.5t60.5 -132.5q0 -78 -60.5 -133.5t-143.5 -55.5q-84 0 -142.5 55.5t-58.5 133.5zM631 179q0 -74 55.5 -126.5t133.5 -52.5t135 53t57 126t-57 125.5t-135 52.5t-133.5 -52.5t-55.5 -125.5zM1083 179q0 77 59 132.5t142 55.5
t143.5 -55.5t60.5 -132.5q0 -78 -60.5 -133.5t-143.5 -55.5q-84 0 -142.5 55.5t-58.5 133.5zM1095 179q0 -74 55.5 -126.5t133.5 -52.5t135 53t57 126t-57 125.5t-135 52.5t-133.5 -52.5t-55.5 -125.5z" />
    <glyph glyph-name="zero.numerator" horiz-adv-x="580" 
d="M47 437q0 93 71.5 158t170.5 65q100 0 172 -65t72 -158t-72 -158.5t-172 -65.5t-171 65.5t-71 158.5zM59 437q0 -89 67.5 -151.5t162.5 -62.5q96 0 164 62.5t68 151.5q0 88 -68 150.5t-164 62.5q-95 0 -162.5 -62.5t-67.5 -150.5z" />
    <glyph glyph-name="one.numerator" horiz-adv-x="278" 
d="M10 580l-4 10l155 63h12v-433h-12v422z" />
    <glyph glyph-name="two.numerator" horiz-adv-x="477" 
d="M73 587l-6 8q29 21 50 32.5t56 22t74 10.5q73 0 125 -29.5t52 -83.5q0 -14 -3.5 -26t-11.5 -22t-15.5 -17.5t-21.5 -14.5t-23 -12t-26.5 -10t-26.5 -7.5t-28 -7.5t-25 -7q-188 -50 -188 -175v-18h367v-10h-379v27q0 134 197 186q6 2 30 8t34 9t31 10.5t31 14.5t22.5 18
t18 24.5t5.5 30.5q0 49 -49 75.5t-116 26.5q-38 0 -71.5 -10t-54 -21.5t-48.5 -31.5z" />
    <glyph glyph-name="three.numerator" horiz-adv-x="552" 
d="M264 447v10h87q29 0 66 24.5t37 66.5q0 50 -51.5 76t-113.5 26q-100 0 -193 -76l-7 8q98 78 200 78q41 0 79.5 -10.5t68 -37t29.5 -63.5t-25.5 -61t-58.5 -33q28 -4 53.5 -14t49 -35t23.5 -60q0 -61 -67 -97t-168 -36q-137 0 -232 79l8 8q93 -77 225 -77q96 0 159 33.5
t63 90.5q0 28 -16.5 49t-40 31.5t-44 15t-35.5 4.5h-96z" />
    <glyph glyph-name="four.numerator" horiz-adv-x="546" 
d="M515 347v-10h-93v-117h-12v117h-379v15l368 301h23v-306h93zM45 350v-3h365v294h-8q-58 -47 -178 -145.5t-179 -145.5z" />
    <glyph glyph-name="five.numerator" horiz-adv-x="509" 
d="M433 653v-10h-340v-177q78 40 167 40t147.5 -33.5t58.5 -106.5q0 -76 -64 -114.5t-154 -38.5q-117 0 -203 68l8 8q84 -66 195 -66q84 0 145 36t61 107q0 68 -55.5 99t-138.5 31q-84 0 -170 -42l-9 9v190h352z" />
    <glyph glyph-name="six.numerator" horiz-adv-x="519" 
d="M441 601l-8 -8q-59 57 -145 57q-93 0 -160 -60t-67 -161v-5q108 74 227 74q91 0 141 -43t50 -95q0 -58 -59 -102.5t-144 -44.5q-95 0 -161 57t-66 158q0 106 71 169t168 63q86 0 153 -59zM288 488q-114 0 -227 -74q6 -91 67.5 -141t147.5 -50q80 0 135.5 41.5t55.5 95.5
q0 49 -46.5 88.5t-132.5 39.5z" />
    <glyph glyph-name="seven.numerator" horiz-adv-x="449" 
d="M32 643v10h388v-10l-275 -423h-14l276 423h-375z" />
    <glyph glyph-name="eight.numerator" horiz-adv-x="517" 
d="M258 211q-81 0 -148 36.5t-67 96.5q0 50 47.5 81t115.5 40q-122 14 -122 90q0 51 54 79t120 28q67 0 121 -28t54 -79q0 -76 -123 -90q69 -9 116.5 -40t47.5 -81q0 -60 -67 -96.5t-149 -36.5zM258 221q77 0 140.5 34t63.5 90q0 55 -63 85t-141 30q-77 0 -140 -30t-63 -85
q0 -56 63.5 -90t139.5 -34zM258 471q78 0 120.5 22t42.5 62q0 46 -50.5 71.5t-112.5 25.5q-61 0 -111.5 -25.5t-50.5 -71.5q0 -40 42.5 -62t119.5 -22z" />
    <glyph glyph-name="nine.numerator" horiz-adv-x="519" 
d="M78 272l8 8q59 -57 145 -57q93 0 160.5 60t67.5 161v5q-113 -74 -228 -74q-91 0 -141 43t-50 95q0 58 59 102.5t144 44.5q95 0 161 -57t66 -158q0 -106 -71 -169t-168 -63q-86 0 -153 59zM232 385q117 0 226 74q-5 90 -67 140.5t-148 50.5q-80 0 -135.5 -41.5
t-55.5 -95.5q0 -49 46.5 -88.5t133.5 -39.5z" />
    <glyph glyph-name="zero.denominator" horiz-adv-x="580" 
d="M47 217q0 93 71.5 158t170.5 65q100 0 172 -65t72 -158t-72 -158.5t-172 -65.5t-171 65.5t-71 158.5zM59 217q0 -89 67.5 -151.5t162.5 -62.5q96 0 164 62.5t68 151.5q0 88 -68 150.5t-164 62.5q-95 0 -162.5 -62.5t-67.5 -150.5z" />
    <glyph glyph-name="one.denominator" horiz-adv-x="278" 
d="M10 360l-4 10l155 63h12v-433h-12v422z" />
    <glyph glyph-name="two.denominator" horiz-adv-x="477" 
d="M73 367l-6 8q29 21 50 32.5t56 22t74 10.5q73 0 125 -29.5t52 -83.5q0 -14 -3.5 -26t-11.5 -22t-15.5 -17.5t-21.5 -14.5t-23 -12t-26.5 -10t-26.5 -7.5t-28 -7.5t-25 -7q-188 -50 -188 -175v-18h367v-10h-379v27q0 134 197 186q6 2 30 8t34 9t31 10.5t31 14.5t22.5 18
t18 24.5t5.5 30.5q0 49 -49 75.5t-116 26.5q-38 0 -71.5 -10t-54 -21.5t-48.5 -31.5z" />
    <glyph glyph-name="three.denominator" horiz-adv-x="552" 
d="M264 227v10h87q29 0 66 24.5t37 66.5q0 50 -51.5 76t-113.5 26q-100 0 -193 -76l-7 8q98 78 200 78q41 0 79.5 -10.5t68 -37t29.5 -63.5t-25.5 -61t-58.5 -33q28 -4 53.5 -14t49 -35t23.5 -60q0 -61 -67 -97t-168 -36q-137 0 -232 79l8 8q93 -77 225 -77q96 0 159 33.5
t63 90.5q0 28 -16.5 49t-40 31.5t-44 15t-35.5 4.5h-96z" />
    <glyph glyph-name="four.denominator" horiz-adv-x="546" 
d="M515 127v-10h-93v-117h-12v117h-379v15l368 301h23v-306h93zM45 130v-3h365v294h-8q-58 -47 -178 -145.5t-179 -145.5z" />
    <glyph glyph-name="five.denominator" horiz-adv-x="509" 
d="M433 433v-10h-340v-177q78 40 167 40t147.5 -33.5t58.5 -106.5q0 -76 -64 -114.5t-154 -38.5q-117 0 -203 68l8 8q84 -66 195 -66q84 0 145 36t61 107q0 68 -55.5 99t-138.5 31q-84 0 -170 -42l-9 9v190h352z" />
    <glyph glyph-name="six.denominator" horiz-adv-x="519" 
d="M441 381l-8 -8q-59 57 -145 57q-93 0 -160 -60t-67 -161v-5q108 74 227 74q91 0 141 -43t50 -95q0 -58 -59 -102.5t-144 -44.5q-95 0 -161 57t-66 158q0 106 71 169t168 63q86 0 153 -59zM288 268q-114 0 -227 -74q6 -91 67.5 -141t147.5 -50q80 0 135.5 41.5t55.5 95.5
q0 49 -46.5 88.5t-132.5 39.5z" />
    <glyph glyph-name="seven.denominator" horiz-adv-x="449" 
d="M32 423v10h388v-10l-275 -423h-14l276 423h-375z" />
    <glyph glyph-name="eight.denominator" horiz-adv-x="517" 
d="M258 -9q-81 0 -148 36.5t-67 96.5q0 50 47.5 81t115.5 40q-122 14 -122 90q0 51 54 79t120 28q67 0 121 -28t54 -79q0 -76 -123 -90q69 -9 116.5 -40t47.5 -81q0 -60 -67 -96.5t-149 -36.5zM258 1q77 0 140.5 34t63.5 90q0 55 -63 85t-141 30q-77 0 -140 -30t-63 -85
q0 -56 63.5 -90t139.5 -34zM258 251q78 0 120.5 22t42.5 62q0 46 -50.5 71.5t-112.5 25.5q-61 0 -111.5 -25.5t-50.5 -71.5q0 -40 42.5 -62t119.5 -22z" />
    <glyph glyph-name="nine.denominator" horiz-adv-x="519" 
d="M78 52l8 8q59 -57 145 -57q93 0 160.5 60t67.5 161v5q-113 -74 -228 -74q-91 0 -141 43t-50 95q0 58 59 102.5t144 44.5q95 0 161 -57t66 -158q0 -106 -71 -169t-168 -63q-86 0 -153 59zM232 165q117 0 226 74q-5 90 -67 140.5t-148 50.5q-80 0 -135.5 -41.5t-55.5 -95.5
q0 -49 46.5 -88.5t133.5 -39.5z" />
    <glyph glyph-name="fi" horiz-adv-x="546" 
d="M46 430h100v116q0 83 40 123.5t92 40.5q26 0 52 -9l-4 -9q-24 8 -48 8q-47 0 -83.5 -38t-36.5 -116v-116h172v-10h-172v-420h-12v420h-100v10zM435 0h-12v430h12v-430zM414 643q0 15 15 15t15 -15t-15 -15t-15 15z" />
    <glyph glyph-name="fl" horiz-adv-x="581" 
d="M46 430h100v116q0 83 40 123.5t92 40.5q26 0 52 -9l-4 -9q-24 8 -48 8q-47 0 -83.5 -38t-36.5 -116v-116h172v-10h-172v-420h-12v420h-100v10zM457 0h-12v700h12v-700z" />
    <glyph glyph-name="a.superior" horiz-adv-x="446" 
d="M87 505l-5 8q62 43 143 43q60 0 104 -24t44 -74v-178q0 -36 17 -60h-12q-16 21 -16 63q-25 -25 -75.5 -48t-106.5 -23q-66 0 -103 32t-37 80q0 50 41.5 82t114.5 32q120 0 166 -62v81q0 45 -41 67t-96 22q-79 0 -138 -41zM181 222q44 0 88 16.5t67 33.5t26 25v64
q-43 67 -166 67q-68 0 -106 -29.5t-38 -74.5q0 -43 34 -72.5t95 -29.5z" />
    <glyph glyph-name="b.superior" horiz-adv-x="473" 
d="M82 220h-12q6 33 6 63v417h12v-209q73 65 159 65q75 0 127 -48t52 -123q0 -77 -56 -125t-138 -48q-48 0 -86 20.5t-58 44.5q-2 -38 -6 -57zM247 546q-83 0 -159 -66v-191q60 -67 144 -67q77 0 129.5 45t52.5 118q0 71 -48.5 116t-118.5 45z" />
    <glyph glyph-name="d.superior" horiz-adv-x="472" 
d="M403 220h-13q-3 19 -5 57q-21 -24 -61.5 -44.5t-90.5 -20.5q-78 0 -132 48t-54 125q0 75 54.5 123t131.5 48q82 0 152 -65v209h11v-417q0 -25 7 -63zM234 546q-73 0 -124 -45t-51 -116q0 -73 50 -118t124 -45q36 0 70.5 14t52 27t29.5 26v191q-73 66 -151 66z" />
    <glyph glyph-name="e.superior" horiz-adv-x="456" 
d="M390 282l8 -6q-66 -64 -164 -64q-84 0 -135.5 48t-51.5 119q0 74 55 125.5t132 51.5q67 0 120.5 -40.5t52.5 -113.5h-346q-2 -16 -2 -23q0 -67 48.5 -112t126.5 -45q96 0 156 60zM234 546q-63 0 -112 -38.5t-60 -96.5h333q-2 63 -51 99t-110 36z" />
    <glyph glyph-name="h.superior" horiz-adv-x="458" 
d="M88 220h-12v480h12v-209q73 65 166 65q60 0 97 -31.5t37 -80.5v-224h-11v224q0 45 -34.5 73.5t-88.5 28.5q-86 0 -166 -66v-260z" />
    <glyph glyph-name="i.superior" horiz-adv-x="164" 
d="M88 220h-12v328h12v-328zM69 687q0 13 13 13t13 -13t-13 -13t-13 13z" />
    <glyph glyph-name="l.superior" horiz-adv-x="164" 
d="M88 220h-12v480h12v-480z" />
    <glyph glyph-name="m.superior" horiz-adv-x="679" 
d="M88 220h-12v265q0 36 -13 63h12q11 -27 13 -56q62 64 144 64q79 0 114 -67q61 67 146 67q52 0 84.5 -31.5t32.5 -80.5v-224h-12v224q0 45 -29.5 73.5t-76.5 28.5q-71 0 -142 -66v-260h-12v260q-28 66 -105 66q-73 0 -144 -66v-260z" />
    <glyph glyph-name="o.superior" horiz-adv-x="469" 
d="M46 385q0 71 56 121t132 50t132.5 -50t56.5 -121t-56.5 -122t-132.5 -51t-132 51t-56 122zM58 385q0 -67 52 -115t124 -48t124.5 48t52.5 115q0 66 -52.5 113.5t-124.5 47.5t-124 -47.5t-52 -113.5z" />
    <glyph glyph-name="r.superior" horiz-adv-x="295" 
d="M88 220h-11v265q0 34 -14 63h12q11 -25 13 -61q54 69 118 69q44 0 64 -27l-9 -7q-17 24 -55 24q-57 0 -118 -73v-253z" />
    <glyph glyph-name="s.superior" horiz-adv-x="414" 
d="M341 509l-7 -8q-53 46 -135 46q-47 0 -85.5 -20t-38.5 -60q0 -17 9 -29.5t20.5 -19t34 -10.5t36 -5t40.5 -2q30 -1 50 -3.5t48 -10.5t43 -26.5t15 -46.5q0 -50 -46.5 -76.5t-116.5 -26.5q-90 0 -162 55l7 8q72 -53 155 -53q65 0 108.5 24t43.5 69q0 25 -14 41t-40 23
t-44.5 9.5t-46.5 3.5q-24 1 -36.5 2t-34 3.5t-33 7.5t-24.5 12.5t-18.5 20t-5.5 29.5q0 46 41.5 68.5t94.5 22.5q87 0 142 -48z" />
    <glyph glyph-name="t.superior" horiz-adv-x="324" 
d="M38 539v9h80v106h12v-106h144v-9h-144v-239q0 -40 21.5 -59t49.5 -19q44 0 81 27l6 -8q-37 -29 -88 -29q-32 0 -57 21.5t-25 66.5v239h-80z" />
    </font>
</defs>
</svg>
